<?xml version="1.0" standalone="no"?>
<!DOCTYPE svg PUBLIC "-//W3C//DTD SVG 1.1//EN" "http://www.w3.org/Graphics/SVG/1.1/DTD/svg11.dtd" >
<svg xmlns="http://www.w3.org/2000/svg">
<metadata>Generated by IcoMoon</metadata>
<defs>
<font id="icomoon" horiz-adv-x="1024">
<font-face units-per-em="1024" ascent="960" descent="-64" />
<missing-glyph horiz-adv-x="1024" />
<glyph unicode="&#x20;" horiz-adv-x="512" d="" />
<glyph unicode="&#xe900;" glyph-name="camera" d="M304 352c0-114.88 93.12-208 208-208s208 93.12 208 208-93.12 208-208 208-208-93.12-208-208zM960 704h-224c-16 64-32 128-96 128h-256c-64 0-80-64-96-128h-224c-35.2 0-64-28.8-64-64v-576c0-35.2 28.8-64 64-64h896c35.2 0 64 28.8 64 64v576c0 35.2-28.8 64-64 64zM512 68c-156.864 0-284 127.136-284 284s127.136 284 284 284c156.864 0 284-127.136 284-284s-127.136-284-284-284zM960 512h-128v64h128v-64z" />
<glyph unicode="&#xe901;" glyph-name="checkmark" d="M864 832l-480-480-224 224-160-160 384-384 640 640z" />
<glyph unicode="&#xe902;" glyph-name="cross" d="M1014.656 137.344c0 0 0 0 0 0l-310.656 310.656 310.656 310.656c0 0 0 0 0 0 3.36 3.36 5.76 7.264 7.328 11.424 4.256 11.392 1.824 24.672-7.328 33.824l-146.752 146.752c-9.152 9.152-22.464 11.552-33.824 7.328-4.16-1.536-8.064-3.968-11.424-7.296 0 0 0 0 0 0l-310.656-310.656-310.656 310.656c0 0 0 0 0 0-3.36 3.328-7.264 5.76-11.424 7.296-11.392 4.256-24.672 1.824-33.824-7.328l-146.752-146.752c-9.152-9.152-11.552-22.464-7.328-33.824 1.568-4.16 3.968-8.064 7.328-11.424 0 0 0 0 0 0l310.656-310.656-310.656-310.656c0 0 0 0 0 0-3.328-3.36-5.76-7.264-7.328-11.424-4.256-11.36-1.824-24.672 7.328-33.824l146.752-146.752c9.152-9.152 22.464-11.552 33.824-7.328 4.16 1.568 8.064 3.968 11.424 7.328 0 0 0 0 0 0l310.656 310.656 310.656-310.656c0 0 0 0 0 0 3.36-3.36 7.264-5.76 11.424-7.328 11.392-4.256 24.672-1.824 33.824 7.328l146.752 146.752c9.152 9.152 11.584 22.464 7.328 33.824-1.568 4.16-3.968 8.064-7.328 11.424z" />
<glyph unicode="&#xe903;" glyph-name="download" d="M512 384l256 256h-192v256h-128v-256h-192zM744.736 488.736l-71.744-71.744 260.096-96.992-421.056-157.024-421.056 157.024 260.064 96.992-71.744 71.744-279.264-104.736v-256l512-192 512 192v256z" />
<glyph unicode="&#xe904;" glyph-name="facebook" d="M608 768h160v192h-160c-123.52 0-224-100.48-224-224v-96h-128v-192h128v-512h192v512h160l32 192h-192v96c0 17.344 14.656 32 32 32z" />
<glyph unicode="&#xe905;" glyph-name="icon-arrow-down" d="M32 585.6l480-480 480 480-76.8 76.8-403.2-403.2-403.2 403.2-76.8-76.8z" />
<glyph unicode="&#xe906;" glyph-name="icon-arrow-left" d="M649.6-32l-480 480 480 480 76.8-76.8-403.2-403.2 403.2-403.2-76.8-76.8z" />
<glyph unicode="&#xe907;" glyph-name="icon-arrow-right" d="M374.4-32l480 480-480 480-76.8-76.8 403.2-403.2-403.2-403.2 76.8-76.8z" />
<glyph unicode="&#xe908;" glyph-name="icon-arrow-up" d="M32 310.4l480 480 480-480-76.8-76.8-403.2 403.2-403.2-403.2-76.8 76.8z" />
<glyph unicode="&#xe909;" glyph-name="icon-bike" d="M231.36 435.2c-110.112 0-199.36-89.248-199.36-199.36s89.248-199.36 199.36-199.36c110.112 0 199.36 89.248 199.36 199.36-0.352 109.952-89.408 199.008-199.328 199.36zM632.64 497.6h119.36c19.136 1.824 33.984 17.824 33.984 37.28s-14.848 35.456-33.824 37.28h-76.96c-9.6 0-18.24 11.2-22.4 18.56l-65.92 117.76c-11.616 20.512-32.864 34.4-57.44 35.52-0.736 0.032-1.408 0.032-2.112 0.032-18.080 0-34.4-7.488-46.016-19.52l-154.912-145.632c-12.128-12.288-19.744-29.056-20.16-47.616 2.176-25.44 17.44-46.784 38.944-57.504l113.056-72.832c9.6-5.44 10.24-16 10.24-26.56v-132.16c1.824-19.136 17.824-33.984 37.28-33.984s35.456 14.848 37.28 33.824v189.92c0 0.352 0.032 0.736 0.032 1.152 0 9.28-3.936 17.632-10.24 23.456l-64.032 52.192c-2.24 1.952-3.68 4.8-3.68 8s1.408 6.048 3.648 8l75.2 76.8c2.080 2.496 5.184 4.064 8.64 4.064s6.56-1.568 8.64-4.064l48.96-81.312c5.12-8.32 13.76-22.72 22.4-22.72zM792.64 435.2c-110.112 0-199.36-89.248-199.36-199.36s89.248-199.36 199.36-199.36c110.112 0 199.36 89.248 199.36 199.36-0.192 110.144-89.504 199.36-199.68 199.36-0.352 0-0.672 0-1.024 0zM672 714.56c0.096 0 0.224 0 0.352 0 39.232 0 71.040 31.808 71.040 71.040 0 0.576 0 1.12-0.032 1.696 0 39.328-31.936 71.264-71.36 71.264s-71.36-31.936-71.36-71.36c0-0.48-0.032-1.024-0.032-1.6 0-39.232 31.808-71.040 71.040-71.040 0.128 0 0.224 0 0.352 0z" />
<glyph unicode="&#xe90a;" glyph-name="icon-chevron-left" d="M688 928l-480-480 480-480v960z" />
<glyph unicode="&#xe90b;" glyph-name="icon-chevron-right" d="M336 928l480-480-480-480v960z" />
<glyph unicode="&#xe90c;" glyph-name="icon-house" d="M512 920.64l-480-376.64v-568.64h360v216.64c0 75.84 44.16 137.28 120 137.28s120-61.44 120-137.28v-217.6h360v569.6z" />
<glyph unicode="&#xe90d;" glyph-name="icon-multi-activity" d="M32 822.4h103.040l137.6-396.48h2.24l136.64 396.48h104v-748.8h-107.2v455.36h-1.92l-106.24-321.6h-53.76l-104.96 321.6h-2.24v-455.36h-107.2zM736 822.4h89.28l166.72-748.8h-107.2l-32 160h-145.6l-32-160h-106.88zM780.8 608h-2.24l-52.48-271.36h105.92z" />
<glyph unicode="&#xe90e;" glyph-name="icon-person" d="M740.48 699.52c0-126.176-102.304-228.48-228.48-228.48s-228.48 102.304-228.48 228.48c0 126.176 102.304 228.48 228.48 228.48s228.48-102.304 228.48-228.48zM327.68 448h329.6c159.072 0 288-128.928 288-288v-192h-865.28v232.32c0 136.8 110.88 247.68 247.68 247.68z" />
<glyph unicode="&#xe90f;" glyph-name="icon-pioneer" d="M979.84 435.84l-203.52 87.040c-8.928 26.592-20.64 49.696-35.168 70.688l12.128 83.552-84.48-11.52c-6.4 4.48-13.44 8.64-20.16 12.48-13.536-3.168-29.312-5.344-45.504-6.048l-52.736-0.032c-10.048-0.224-19.68-1.024-29.12-2.4 24.48-0.864 46.368-5.12 66.912-12.192 1.888-5.6 5.408-12 8.608-18.72 9.536-19.424 17.984-42.208 24.096-65.952-32.32 4.544-70.112 8.608-108.864 8.672-11.872 0-23.712 0-35.232 0l6.4-20.48h28.8c0.704 0 1.536 0 2.336 0 39.648 0 78.272-4.448 115.36-12.832 3.424-33.024 7.36-71.712 7.36-111.328s-3.936-78.336-11.488-115.744c-33.76-4.064-73.248-8.544-113.76-8.544s-80.032 4.48-117.984 12.96c-3.328 32.512-7.296 70.656-7.296 109.696 0 0.672 0 1.376 0 2.048 0-0.032 0 0.064 0 0.128 0 29.6 2.208 58.688 6.464 87.104l-14.464 41.6c-30.208-8.224-56.576-19.136-81.152-32.928 17.408 33.344 39.008 60.576 65.376 82.176l-15.584 51.2-76.8 10.88 11.52-84.48c-13.92-20.064-25.632-43.168-33.984-67.808l-203.776-89.312 203.52-87.040c8.928-26.592 20.64-49.696 35.168-70.688l-12.128-83.552 84.48 11.52c20.064-13.92 43.168-25.632 67.808-33.984l88.992-204.096 87.040 203.52c26.592 8.928 49.696 20.64 70.688 35.168l83.552-12.128-11.52 84.48c13.92 20.064 25.632 43.168 33.984 67.808zM615.68 646.080c48.128-24.192 85.952-62.88 108.512-110.24-22.816 11.552-49.952 22.528-78.496 30.016-9.568 30.944-19.040 57.504-31.040 82.624zM277.44 435.84c0.32 23.872 4.16 46.72 11.008 68.224 8 4.416 17.632 10.272 27.712 15.36 17.824 9.504 37.216 17.632 57.44 23.936-3.68-31.488-7.168-68.448-7.168-106.24s3.488-74.752 10.112-110.592c-23.488 9.792-43.296 17.216-62.112 26.368-8.96 4.736-18.304 10.464-27.136 16.832-5.76 19.392-9.6 42.24-9.92 65.952zM299.2 337.28c23.424-12.992 50.56-23.936 79.104-31.456 9.44-31.488 18.912-58.624 31.040-84.256-49.376 27.008-87.264 66.272-109.536 114.24zM596.8 232.64c-3.2-6.72-6.72-13.12-10.24-19.2-22.208-7.712-47.776-12.16-74.4-12.16s-52.192 4.448-76.032 12.64c-1.888 5.6-5.408 12-8.608 18.72-9.536 19.424-17.984 42.208-24.096 65.952 32.288-4.32 70.048-8.224 108.736-8.224s76.416 3.904 112.896 11.392c-10.272-26.88-18.688-49.664-29.216-71.264zM615.68 225.6c11.040 23.008 20.512 49.92 27.008 77.952 31.552 10.72 58.688 21.696 83.968 35.616-24.544-50.752-62.496-90.336-109.632-114.56zM736 369.28c-8.448-6.080-18.080-11.936-28.192-17.024-18.080-9.152-37.856-16.896-58.4-22.72 3.712 31.552 7.168 68.512 7.168 106.304s-3.488 74.752-10.112 110.592c23.52-10.144 43.264-17.888 62.016-27.328 9.408-4.8 19.040-10.656 28.16-17.184 5.472-19.456 8.992-42.368 8.992-66.112s-3.52-46.624-10.112-68.224zM456.64 480c7.264 2.4 12.448 9.12 12.448 17.056 0 2.016-0.352 3.968-0.96 5.792l-108.448 343.232c-2.368 7.296-9.12 12.48-17.088 12.48-0.064 0-0.16 0-0.224 0h-5.44c-7.392-2.336-12.64-9.12-12.64-17.12 0-1.888 0.288-3.712 0.832-5.408l108.768-342.272c2.368-7.296 9.12-12.48 17.088-12.48 0.064 0 0.16 0 0.224 0zM601.6 704c18.944 0.128 37.216 2.816 54.56 7.712 19.84 5.792 37.824 17.76 51.2 33.728l-20.032 64.16-17.6 54.4-20.16 64c-13.504-16.128-31.488-28.128-52.064-34.048-16.544-4.736-34.72-7.424-53.472-7.552h-52.544c-18.944-0.128-37.216-2.816-54.56-7.712-20.544-5.664-39.104-17.888-52.8-34.368l20.032-64.16 17.6-55.040 20.16-64c13.504 16.16 31.488 28.128 52.064 34.048 16.928 5.216 35.584 8.352 54.88 8.832 17.856 0 35.136 0 52.736 0z" />
<glyph unicode="&#xe910;" glyph-name="icon-play" d="M914.56 414.080l-685.76-439.36c-6.944-4.16-15.296-6.624-24.224-6.624-23.808 0-43.552 17.44-47.104 40.256l-0.032 879.296c3.712 22.944 23.392 40.224 47.104 40.224 8.96 0 17.312-2.464 24.48-6.752l680.736-439.232c12.512-7.072 20.832-20.32 20.832-35.488 0-13.152-6.24-24.864-15.936-32.288z" />
<glyph unicode="&#xe911;" glyph-name="icon-search" d="M992 48l-252.48 252.48c45.28 63.008 72.416 141.696 72.416 226.72 0 215.968-175.072 391.040-391.040 391.040s-391.040-175.072-391.040-391.040c0-215.968 175.072-391.040 391.040-391.040 97.472 0 186.656 35.68 255.136 94.688l248.768-249.696zM421.76 230.4c-162.944 0-295.040 132.096-295.040 295.040s132.096 295.040 295.040 295.040c162.944 0 295.040-132.096 295.040-295.040-0.192-162.88-132.16-294.848-295.008-295.040z" />
<glyph unicode="&#xe912;" glyph-name="icon-select-arrows" d="M886.080 342.080l-374.080-374.080-374.080 374.080h748.16zM137.92 553.92l374.080 374.080 374.080-374.080h-748.16z" />
<glyph unicode="&#xe913;" glyph-name="icon-star-outline" d="M215.36-8.64l85.12 339.84-268.48 224.64 349.44 23.68 130.56 325.12 130.56-324.8 349.44-24-268.48-224 85.44-339.52-296.96 185.28zM512 252.16l196.8-124.16-56.64 224 179.84 151.36-232 15.68-88 216.96-86.72-215.68-233.28-16.96 178.24-149.12-55.040-226.24z" />
<glyph unicode="&#xe914;" glyph-name="icon-star-solid" d="M215.36-8.64l85.12 339.84-268.48 224.64 349.44 23.68 130.56 325.12 130.56-324.8 349.44-24-268.48-224 85.44-339.52-296.96 185.28z" />
<glyph unicode="&#xe915;" glyph-name="icon-trek" d="M657.6 832c0-53.024-42.976-96-96-96s-96 42.976-96 96c0 53.024 42.976 96 96 96s96-42.976 96-96zM794.24 681.28v-59.2l-90.24-17.92c-5.44 0-7.040 0-8.32 0l-39.68 39.68c-34.272 34.816-77.536 60.672-126.048 73.792l-64.032 18.368-38.4-128h2.88l-50.56-176c-1.984-7.424-3.136-15.936-3.136-24.736 0-30.304 13.6-57.44 35.008-75.616l78.848-64.128 32-32 24.96-70.080v-197.44h137.28v217.6c-1.984 46.912-19.68 89.344-47.904 122.528l-103.776 118.112 32 122.88 37.12-37.12c24.128-24.704 57.792-40 95.008-40 0.352 0 0.704 0 1.056 0 0 0 0.064 0 0.096 0 11.264 0 22.272 1.152 32.864 3.392l62.976 12.608v-520h54.72v713.28zM379.84-32l86.080 240.64-76.8 66.56-110.080-307.2h100.8zM235.84 416v0c-35.424 11.456-60.608 44.128-60.608 82.688 0 8.032 1.088 15.808 3.136 23.2l28.672 95.392c24.896 68.32 89.28 116.224 164.864 116.224 16.384 0 32.224-2.24 47.232-6.464l-77.696-253.472c-8.96-35.904-40.896-62.080-78.976-62.080-9.536 0-18.688 1.632-27.2 4.672z" />
<glyph unicode="&#xe916;" glyph-name="images" horiz-adv-x="1152" d="M1088 832h-64v64c0 35.2-28.8 64-64 64h-896c-35.2 0-64-28.8-64-64v-768c0-35.2 28.8-64 64-64h64v-64c0-35.2 28.8-64 64-64h896c35.2 0 64 28.8 64 64v768c0 35.2-28.8 64-64 64zM128 768v-640h-63.872c-0.032 0.032-0.096 0.064-0.128 0.128v767.776c0.032 0.032 0.064 0.096 0.128 0.128h895.776c0.032-0.032 0.096-0.064 0.128-0.128v-63.872h-768c-35.2 0-64-28.8-64-64v0zM1088 0.128c-0.032-0.032-0.064-0.096-0.128-0.128h-895.776c-0.032 0.032-0.096 0.064-0.128 0.128v767.776c0.032 0.032 0.064 0.096 0.128 0.128h895.776c0.032-0.032 0.096-0.064 0.128-0.128v-767.776zM960 608c0-53.024-42.976-96-96-96s-96 42.976-96 96 42.976 96 96 96 96-42.976 96-96zM1024 64h-768v128l224 384 256-320h64l224 192z" />
<glyph unicode="&#xe917;" glyph-name="instagram" d="M512 867.808c136.8 0 152.992-0.608 206.784-3.008 50.016-2.208 76.992-10.592 95.008-17.6 23.808-9.216 40.992-20.416 58.784-38.208 18.016-18.016 28.992-35.008 38.4-58.816 7.008-18.016 15.392-45.184 17.6-95.008 2.4-54.016 3.008-70.208 3.008-206.816s-0.608-152.992-3.008-206.816c-2.208-50.016-10.592-76.992-17.6-95.008-9.216-23.808-20.384-40.992-38.208-58.784-18.016-18.016-35.008-28.992-58.784-38.4-18.016-7.008-45.216-15.392-95.008-17.6-54.016-2.4-70.208-3.008-206.816-3.008s-152.992 0.608-206.816 3.008c-50.016 2.208-76.992 10.592-95.008 17.6-23.808 9.216-40.992 20.384-58.816 38.208-18.016 18.016-28.992 35.008-38.4 58.784-7.008 18.016-15.392 45.216-17.6 95.008-2.4 54.016-3.008 70.208-3.008 206.816s0.608 152.992 3.008 206.816c2.208 50.016 10.592 76.992 17.6 95.008 9.216 23.808 20.416 40.992 38.208 58.816 18.016 18.016 35.008 28.992 58.816 38.4 18.016 7.008 45.184 15.392 95.008 17.6 53.792 2.4 70.016 3.008 206.816 3.008zM512 960c-139.008 0-156.384-0.608-211.008-3.008-54.4-2.4-91.808-11.2-124.192-23.808-33.792-13.184-62.4-30.592-90.784-59.2-28.608-28.416-46.016-56.992-59.2-90.592-12.608-32.608-21.408-69.792-23.808-124.192-2.4-54.816-3.008-72.192-3.008-211.2s0.608-156.384 3.008-211.008c2.4-54.4 11.2-91.808 23.808-124.192 13.216-33.792 30.592-62.4 59.2-90.784 28.384-28.384 56.992-46.016 90.592-59.008 32.608-12.608 69.792-21.408 124.192-23.808 54.592-2.4 72-3.008 211.008-3.008s156.416 0.608 211.008 3.008c54.4 2.4 91.808 11.2 124.192 23.808 33.6 12.992 62.208 30.592 90.592 59.008s46.016 56.992 59.008 90.592c12.608 32.608 21.408 69.792 23.808 124.192 2.4 54.592 3.008 72 3.008 211.008s-0.608 156.384-3.008 211.008c-2.4 54.4-11.2 91.808-23.808 124.192-12.608 34.016-30.016 62.592-58.592 91.008-28.384 28.384-56.992 46.016-90.592 59.008-32.608 12.608-69.792 21.408-124.192 23.808-54.784 2.592-72.192 3.2-211.2 3.2v0zM512 711.008c-145.184 0-263.008-117.792-263.008-263.008s117.792-263.008 263.008-263.008 263.008 117.792 263.008 263.008c0 145.184-117.792 263.008-263.008 263.008zM512 277.408c-94.208 0-170.592 76.384-170.592 170.592s76.384 170.592 170.592 170.592c94.208 0 170.592-76.384 170.592-170.592s-76.384-170.592-170.592-170.592zM846.784 721.408c0-33.92-27.488-61.408-61.408-61.408s-61.408 27.488-61.408 61.408c0 33.92 27.488 61.408 61.408 61.408s61.408-27.488 61.408-61.408z" />
<glyph unicode="&#xe918;" glyph-name="linkedin" d="M384 576h177.12v-90.784h2.528c24.64 44.192 84.96 90.784 174.848 90.784 186.944 0 221.504-116.384 221.504-267.744v-308.256h-184.608v273.28c0 65.184-1.344 149.024-96.032 149.024-96.16 0-110.816-70.976-110.816-144.288v-278.016h-184.544v576zM64 576h192v-576h-192v576zM256 736c0-53.024-42.976-96-96-96s-96 42.976-96 96c0 53.024 42.976 96 96 96s96-42.976 96-96z" />
<glyph unicode="&#xe919;" glyph-name="menu" d="M128 746.667h768q17.664 0 30.165-12.501t12.501-30.165-12.501-30.165-30.165-12.501h-768q-17.664 0-30.165 12.501t-12.501 30.165 12.501 30.165 30.165 12.501zM128 234.667h768q17.664 0 30.165-12.501t12.501-30.165-12.501-30.165-30.165-12.501h-768q-17.664 0-30.165 12.501t-12.501 30.165 12.501 30.165 30.165 12.501zM128 490.667h768q17.664 0 30.165-12.501t12.501-30.165-12.501-30.165-30.165-12.501h-768q-17.664 0-30.165 12.501t-12.501 30.165 12.501 30.165 30.165 12.501z" />
<glyph unicode="&#xe91a;" glyph-name="old-phone" d="M883.507 332.646c-4.915 34.15-31.283 60.774-65.229 68.71-131.942 30.925-165.018 106.906-170.598 191.181-23.398 4.352-65.024 9.062-135.68 9.062s-112.282-4.71-135.68-9.062c-5.581-84.275-38.656-160.256-170.598-191.181-33.946-7.987-60.314-34.56-65.229-68.71l-25.446-176.23c-8.96-62.054 36.608-118.016 99.994-118.016h593.92c63.334 0 108.954 55.962 99.994 118.016l-25.446 176.23zM512 166.81c-71.424 0-129.331 57.344-129.331 128s57.907 128 129.331 128 129.331-57.344 129.331-128-57.958-128-129.331-128zM1021.44 652.8c-1.229 76.8-196.71 204.749-509.44 204.8-312.781-0.051-508.262-128-509.44-204.8s1.075-176.742 129.792-160.102c150.579 19.507 141.312 72.090 141.312 147.251 0 52.429 122.47 65.075 238.336 65.075s238.285-12.646 238.336-65.075c0-75.162-9.267-127.744 141.312-147.251 128.666-16.64 130.97 83.302 129.792 160.102z" />
<glyph unicode="&#xe91b;" glyph-name="phone" d="M704 320c-64-64-64-128-128-128s-128 64-192 128-128 128-128 192 64 64 128 128-128 256-192 256-192-192-192-192c0-128 131.488-387.488 256-512s384-256 512-256c0 0 192 128 192 192s-192 256-256 192z" />
<glyph unicode="&#xe91c;" glyph-name="pinterest" d="M512 891.584c-244.992 0-443.616-198.592-443.616-443.616 0-188 116.992-348.384 282.016-412.992-3.808 35.008-7.392 88.992 1.6 127.2 8 34.592 52 220.384 52 220.384s-13.184 26.592-13.184 65.792c0 61.6 35.808 107.808 80.192 107.808 37.792 0 56.192-28.384 56.192-62.4 0-38.016-24.192-95.008-36.8-147.616-10.592-44.192 22.016-80.192 65.6-80.192 78.784 0 139.392 83.2 139.392 203.2 0 106.208-76.384 180.416-185.184 180.416-126.208 0-200.192-94.592-200.192-192.608 0-38.208 14.592-79.008 32.992-101.216 3.616-4.384 4.192-8.192 3.008-12.8-3.392-14.016-10.816-44.192-12.384-50.4-2.016-8.192-6.4-9.792-14.816-6.016-55.392 25.792-90.016 106.784-90.016 171.808 0 140 101.6 268.384 292.992 268.384 153.792 0 273.408-109.6 273.408-256.192 0-152.8-96.384-276-230.208-276-44.992 0-87.2 23.392-101.6 51.008 0 0-22.208-84.608-27.616-105.408-10.016-38.592-36.992-86.784-55.2-116.192 41.6-12.8 85.6-19.808 131.392-19.808 244.992 0 443.616 198.592 443.616 443.616 0 245.184-198.592 443.808-443.616 443.808z" />
<glyph unicode="&#xe91d;" glyph-name="twitter" d="M1024 733.6c-37.6-16.8-78.208-28-120.608-32.992 43.392 26.016 76.608 67.2 92.384 116.192-40.608-24-85.6-41.6-133.408-51.008-38.4 40.8-92.992 66.208-153.408 66.208-116 0-210.016-94.016-210.016-210.016 0-16.384 1.792-32.384 5.408-47.808-174.592 8.8-329.408 92.416-432.992 219.584-18.016-31.008-28.384-67.2-28.384-105.6 0-72.8 36.992-137.184 93.408-174.816-34.4 0.992-66.784 10.592-95.2 26.208 0-0.8 0-1.792 0-2.592 0-101.792 72.416-186.816 168.608-205.984-17.6-4.8-36.192-7.392-55.392-7.392-13.6 0-26.592 1.408-39.584 3.808 26.816-83.392 104.416-144.192 196.192-146.016-72-56.384-162.4-90.016-260.992-90.016-16.992 0-33.6 0.992-50.208 3.008 93.216-59.808 203.584-94.4 322.208-94.4 386.4 0 597.792 320.192 597.792 597.792 0 9.184-0.192 18.208-0.608 27.2 40.992 29.408 76.608 66.4 104.8 108.608z" />
<glyph unicode="&#xe91e;" glyph-name="warning" d="M512 867.232l429.088-855.232h-858.208l429.088 855.232zM512 960c-22.080 0-44.128-14.88-60.896-44.64l-437.088-871.104c-33.472-59.52-4.992-108.256 63.296-108.256h869.312c68.288 0 96.8 48.704 63.296 108.256v0l-437.088 871.104c-16.736 29.76-38.816 44.64-60.896 44.64v0zM576 128c0-35.36-28.64-64-64-64s-64 28.64-64 64c0 35.36 28.64 64 64 64s64-28.64 64-64zM512 256c-35.36 0-64 28.64-64 64v192c0 35.36 28.64 64 64 64s64-28.64 64-64v-192c0-35.36-28.64-64-64-64z" />
<glyph unicode="&#xe91f;" glyph-name="youtube" d="M1013.792 652.8c0 0-10.016 70.592-40.8 101.6-39.008 40.8-82.592 40.992-102.592 43.392-143.2 10.4-358.208 10.4-358.208 10.4h-0.384c0 0-215.008 0-358.208-10.4-20-2.4-63.584-2.592-102.592-43.392-30.816-31.008-40.608-101.6-40.608-101.6s-10.208-82.816-10.208-165.792v-77.6c0-82.784 10.208-165.792 10.208-165.792s10.016-70.592 40.608-101.6c39.008-40.8 90.208-39.392 112.992-43.808 82.016-7.808 348.192-10.208 348.192-10.208s215.2 0.384 358.4 10.592c20 2.4 63.616 2.592 102.592 43.392 30.784 31.008 40.8 101.6 40.8 101.6s10.208 82.784 10.208 165.792v77.6c-0.192 82.816-10.4 165.792-10.4 165.792zM406.208 315.2v287.808l276.608-144.416-276.608-143.392z" />
</font>
</defs>
</svg>
