<?xml version="1.0" standalone="no"?>
<!DOCTYPE svg PUBLIC "-//W3C//DTD SVG 1.1//EN" "http://www.w3.org/Graphics/SVG/1.1/DTD/svg11.dtd" >
<svg>
<metadata>
Created by FontForge 20090622 at Mon Aug  1 14:27:01 2016
 By deploy user
2005 Albert-Jan Pool published by FSI FontShop International GmbH
</metadata>
<defs>
<font id="DINPro" horiz-adv-x="530" >
  <font-face 
    font-family="DINPro"
    font-weight="400"
    font-stretch="normal"
    units-per-em="1000"
    panose-1="2 11 5 4 2 1 1 2 1 2"
    ascent="764"
    descent="-236"
    x-height="492"
    cap-height="712"
    bbox="-178 -229 1172 1148"
    underline-thickness="51"
    underline-position="-89"
    unicode-range="U+000D-U+FB02"
  />
<missing-glyph horiz-adv-x="562" 
d="M90 0v712h382v-712h-382zM141 51h280v610h-280v-610z" />
    <glyph glyph-name=".notdef" horiz-adv-x="562" 
d="M90 0v712h382v-712h-382zM141 51h280v610h-280v-610z" />
    <glyph glyph-name=".null" horiz-adv-x="0" 
 />
    <glyph glyph-name=".null" horiz-adv-x="0" 
 />
    <glyph glyph-name="nonmarkingreturn" horiz-adv-x="333" 
 />
    <glyph glyph-name="CR" unicode="&#xd;" horiz-adv-x="249" 
 />
    <glyph glyph-name="space" unicode=" " horiz-adv-x="249" 
 />
    <glyph glyph-name="exclam" unicode="!" horiz-adv-x="316" 
d="M215 712l-11 -512h-62l-10 512h83zM216 0h-86v84h86v-84z" />
    <glyph glyph-name="quotedbl" unicode="&#x22;" horiz-adv-x="423" 
d="M335 542h-79v170h79v-170zM167 542h-79v170h79v-170z" />
    <glyph glyph-name="numbersign" unicode="#" horiz-adv-x="653" 
d="M602 432h-96l-23 -141h89v-64h-99l-36 -227h-74l36 227h-160l-35 -227h-74l36 227h-89v64h100l23 141h-92v66h101l34 215h75l-35 -215h159l34 215h73l-34 -215h87v-66zM432 432h-159l-23 -141h159z" />
    <glyph glyph-name="dollar" unicode="$" horiz-adv-x="596" 
d="M540 196q0 -86 -59 -139.5t-159 -60.5v-110h-60v108q-70 3 -121.5 25t-98.5 69l52 52q73 -73 172 -77v265l-20 2q-75 7 -130 54q-55 49 -55 133q0 85 54 139t147 61v89h60v-89q106 -5 186 -77l-49 -49q-61 55 -140 60v-259l31 -5q88 -15 129 -50q61 -52 61 -141zM464 194
q0 59 -35 89q-7 6 -13.5 10.5t-16 8.5l-14 6t-16.5 4t-15 3t-18 3t-17 2v-257q68 5 106.5 39.5t38.5 91.5zM266 399v252q-62 -5 -96 -40t-34 -91q0 -54 32 -82q36 -30 98 -39z" />
    <glyph glyph-name="percent" unicode="%" horiz-adv-x="833" 
d="M277 481v101q0 87 -77 87q-78 0 -78 -87v-101q0 -86 78 -86q77 0 77 86zM335 479q0 -61 -37.5 -97.5t-97.5 -36.5t-97.5 36.5t-37.5 97.5v105q0 61 38 98t97 37t97 -37t38 -98v-105zM711 130v100q0 87 -77 87q-78 0 -78 -87v-100q0 -87 78 -87q77 0 77 87zM769 127
q0 -61 -38 -97.5t-97 -36.5t-97 36.5t-38 97.5v105q0 61 38 98t97 37t97 -37t38 -98v-105zM614 712l-334 -712h-60l334 712h60z" />
    <glyph glyph-name="ampersand" unicode="&#x26;" horiz-adv-x="739" 
d="M671 0h-95l-64 78q-90 -84 -210 -84q-103 0 -164 56.5t-61 150.5q0 38 12 70t37 58.5t46.5 43t58.5 41.5q-25 30 -37 46.5t-26 47.5t-14 61q0 64 44.5 106.5t112.5 42.5q67 0 111 -43t44 -107q0 -73 -79 -127l-53 -36l182 -219q22 33 30.5 68t9.5 95h72q-2 -141 -66 -218
zM469 130l-196 236q-32 -22 -46.5 -33t-36 -32.5t-30.5 -45t-9 -52.5q0 -63 42 -102.5t108 -39.5q91 0 168 69zM395 568q0 36 -24 60.5t-60 24.5t-59 -23.5t-23 -59.5q0 -24 13.5 -48.5t50.5 -68.5l38 26q31 21 47.5 41t16.5 48z" />
    <glyph glyph-name="quotesingle" unicode="'" horiz-adv-x="255" 
d="M167 542h-79v170h79v-170z" />
    <glyph glyph-name="parenleft" unicode="(" horiz-adv-x="298" 
d="M236 -43l-51 -51q-55 55 -72 86q-21 41 -21 103v522q0 65 21 103q17 31 72 86l51 -51q-42 -39 -55 -65q-14 -25 -14 -79v-510q0 -51 14 -79q12 -23 55 -65z" />
    <glyph glyph-name="parenright" unicode=")" horiz-adv-x="298" 
d="M112 -94l-51 51q43 42 55 65q14 28 14 79v510q0 54 -14 79q-13 26 -55 65l51 51q55 -55 72 -86q21 -38 21 -103v-522q0 -62 -21 -103q-17 -31 -72 -86z" />
    <glyph glyph-name="asterisk" unicode="*" horiz-adv-x="474" 
d="M407 472l-28 -49l-117 71l4 -137h-58l4 137l-116 -71l-29 49l120 65l-120 66l29 48l116 -71l-4 137h58l-4 -137l117 71l28 -48l-120 -66z" />
    <glyph glyph-name="plus" unicode="+" horiz-adv-x="522" 
d="M470 234h-175v-176h-67v176h-176v67h176v174h67v-174h175v-67z" />
    <glyph glyph-name="comma" unicode="," horiz-adv-x="264" 
d="M176 -65l-88 -79v232h88v-153z" />
    <glyph glyph-name="hyphen" unicode="-" horiz-adv-x="426" 
d="M350 236h-274v67h274v-67z" />
    <glyph glyph-name="period" unicode="." horiz-adv-x="270" 
d="M182 0h-94v94h94v-94z" />
    <glyph glyph-name="slash" unicode="/" horiz-adv-x="355" 
d="M356 786l-285 -860h-71l285 860h71z" />
    <glyph glyph-name="zero" unicode="0" horiz-adv-x="522" 
d="M456 190q0 -87 -55.5 -141.5t-139.5 -54.5q-85 0 -140 54t-55 142v332q0 88 55 142t140 54q84 0 139.5 -54.5t55.5 -141.5v-332zM384 194v324q0 60 -32.5 98t-90.5 38t-90.5 -38t-32.5 -98v-324q0 -60 32.5 -98t90.5 -38t90.5 38t32.5 98z" />
    <glyph glyph-name="one" unicode="1" horiz-adv-x="522" 
d="M330 0h-72v632l-133 -117v82l133 115h72v-712z" />
    <glyph glyph-name="two" unicode="2" horiz-adv-x="522" 
d="M461 0h-393v64l281 357q40 52 40 105q0 58 -33 93t-91 35q-54 0 -89 -32t-35 -97h-72q0 85 54 139t142 54t142 -52.5t54 -139.5q0 -41 -13 -73t-44 -71l-249 -318h306v-64z" />
    <glyph glyph-name="three" unicode="3" horiz-adv-x="522" 
d="M460 194q0 -95 -59 -148t-150 -53q-89 0 -147 47.5t-62 140.5h72q4 -63 42.5 -93.5t94.5 -30.5q59 0 98 37t39 101q0 138 -140 138h-15v63h15q64 0 95.5 33.5t31.5 95.5t-35 96t-89 34q-56 0 -89.5 -32t-38.5 -87h-72q6 85 61.5 134t138.5 49q87 0 141.5 -53t54.5 -140
q0 -114 -96 -158q109 -41 109 -174z" />
    <glyph glyph-name="four" unicode="4" horiz-adv-x="522" 
d="M482 113h-87v-113h-71v113h-284v65l257 534h77l-257 -534h207v202h71v-202h87v-65z" />
    <glyph glyph-name="five" unicode="5" horiz-adv-x="522" 
d="M462 235q0 -64 -11 -109t-46 -80q-53 -53 -142 -53q-92 0 -143 51q-44 45 -50 124h72q14 -111 121 -111q55 0 88 33q39 39 39 145q0 37 -4.5 64.5t-16.5 54t-37 40.5t-62 14q-46 0 -76.5 -19t-41.5 -51h-65v374h360v-64h-295v-226q44 49 128 49q78 0 123 -45
q59 -59 59 -191z" />
    <glyph glyph-name="six" unicode="6" horiz-adv-x="522" 
d="M460 205q0 -92 -54 -151.5t-143 -59.5q-90 0 -144 56t-54 149q0 70 45 160l175 353h74l-159 -320q33 15 75 15q83 0 134 -56.5t51 -145.5zM388 202q0 62 -33.5 103t-92.5 41q-57 0 -91 -39t-34 -105q0 -65 34 -104.5t91 -39.5t91.5 39.5t34.5 104.5z" />
    <glyph glyph-name="seven" unicode="7" horiz-adv-x="522" 
d="M471 648l-247 -648h-76l247 648h-248v-112h-71v176h395v-64z" />
    <glyph glyph-name="eight" unicode="8" horiz-adv-x="522" 
d="M471 196q0 -89 -60 -145.5t-150 -56.5t-150 56.5t-60 145.5q0 112 107 173q-93 53 -93 158q0 83 55.5 137t140.5 54t140.5 -54t55.5 -137q0 -105 -92 -158q106 -60 106 -173zM399 197q0 59 -39.5 99t-98.5 40t-98.5 -40t-39.5 -99t39.5 -99t98.5 -40t98.5 40t39.5 99z
M385 526q0 56 -34.5 92t-89.5 36t-89.5 -36t-34.5 -92t34.5 -91.5t89.5 -35.5t89.5 35.5t34.5 91.5z" />
    <glyph glyph-name="nine" unicode="9" horiz-adv-x="522" 
d="M457 513q0 -70 -45 -160l-175 -353h-75l160 320q-33 -15 -76 -15q-82 0 -133 56.5t-51 145.5q0 92 54 151.5t143 59.5q90 0 144 -56t54 -149zM385 510q0 65 -34.5 104.5t-91.5 39.5t-91 -39.5t-34 -104.5q0 -62 33 -103t92 -41q57 0 91.5 39t34.5 105z" />
    <glyph glyph-name="colon" unicode=":" horiz-adv-x="297" 
d="M209 301h-94v94h94v-94zM209 0h-94v94h94v-94z" />
    <glyph glyph-name="semicolon" unicode=";" horiz-adv-x="297" 
d="M205 -65l-88 -79v232h88v-153zM209 301h-94v94h94v-94z" />
    <glyph glyph-name="less" unicode="&#x3c;" horiz-adv-x="522" 
d="M426 68l-331 168v66l331 168v-77l-250 -124l250 -124v-77z" />
    <glyph glyph-name="equal" unicode="=" horiz-adv-x="522" 
d="M470 320h-418v67h418v-67zM470 151h-418v66h418v-66z" />
    <glyph glyph-name="greater" unicode="&#x3e;" horiz-adv-x="522" 
d="M426 236l-331 -168v77l250 124l-250 124v77l331 -168v-66z" />
    <glyph glyph-name="question" unicode="?" horiz-adv-x="497" 
d="M451 536q0 -55 -45 -121l-82 -118q-18 -27 -18 -58v-39h-72v40q0 50 31 94l81 117q33 49 33 85q0 51 -32.5 84.5t-82.5 33.5q-52 0 -84 -35t-32 -84h-72q0 77 54 130t134 53t133.5 -51.5t53.5 -130.5zM313 0h-86v84h86v-84z" />
    <glyph glyph-name="at" unicode="@" horiz-adv-x="713" 
d="M641 0h-69v55q-49 -62 -134 -62q-88 0 -136 61q-25 31 -34.5 72.5t-9.5 111.5q0 129 41 183q46 62 138 62q83 0 134 -63v78q0 74 -39 114q-40 40 -111 40h-130q-69 0 -109 -40q-22 -22 -31 -47.5t-9 -66.5v-337q0 -47 11.5 -71.5t45.5 -49.5l-49 -49q-46 34 -62 68.5
t-16 100.5v336q0 104 56 161q55 56 154 56h148q98 0 154 -56q57 -57 57 -161v-496zM571 238q0 39 -4.5 68.5t-16.5 57t-37 42.5t-63 15q-71 0 -96 -49.5t-25 -133.5q0 -39 4.5 -68.5t16.5 -57t37 -42.5t63 -15q71 0 96 49.5t25 133.5z" />
    <glyph glyph-name="A" unicode="A" horiz-adv-x="611" 
d="M599 0h-81l-57 161h-311l-57 -161h-81l262 712h64zM439 227l-132 376l-134 -376h266z" />
    <glyph glyph-name="B" unicode="B" horiz-adv-x="668" 
d="M592 197q0 -95 -57.5 -146t-154.5 -51h-277v712h268q94 0 152 -51t58 -139q0 -55 -29.5 -97t-75.5 -59q53 -19 84.5 -63t31.5 -106zM516 199q0 60 -38.5 95t-104.5 35h-194v-261h194q66 0 104.5 35.5t38.5 95.5zM505 521q0 61 -38.5 92t-101.5 31h-186v-247h186
q62 0 101 31.5t39 92.5z" />
    <glyph glyph-name="C" unicode="C" horiz-adv-x="637" 
d="M572 206q-19 -99 -85 -155.5t-162 -56.5q-108 0 -178 70q-47 47 -59 103t-12 189t12 189t59 103q70 70 178 70q97 0 162.5 -56t84.5 -156h-78q-14 67 -58.5 105.5t-110.5 38.5q-73 0 -123 -50q-32 -33 -41 -80.5t-9 -163.5t9 -163.5t41 -80.5q50 -50 123 -50
q66 0 111.5 38.5t59.5 105.5h76z" />
    <glyph glyph-name="D" unicode="D" horiz-adv-x="673" 
d="M597 356q0 -72 -2 -110t-17 -88.5t-44 -82.5q-69 -75 -187 -75h-244v712h244q118 0 187 -75q29 -32 44 -82.5t17 -88.5t2 -110zM521 356q0 63 -2 97t-12.5 75t-32.5 64q-47 52 -140 52h-155v-576h155q93 0 140 52q22 23 32.5 64t12.5 75t2 97z" />
    <glyph glyph-name="E" unicode="E" horiz-adv-x="600" 
d="M545 0h-442v712h442v-68h-366v-251h312v-68h-312v-257h366v-68z" />
    <glyph glyph-name="F" unicode="F" horiz-adv-x="580" 
d="M545 644h-366v-262h312v-68h-312v-314h-76v712h442v-68z" />
    <glyph glyph-name="G" unicode="G" horiz-adv-x="650" 
d="M576 259q0 -63 -13.5 -104t-47.5 -79q-75 -82 -190 -82q-108 0 -178 70q-47 47 -59 103t-12 189t12 189t59 103q70 70 178 70q99 0 166.5 -59.5t82.5 -153.5h-76q-15 68 -60.5 106.5t-112.5 38.5q-75 0 -123 -50q-32 -33 -41 -80.5t-9 -163.5t9 -163.5t41 -80.5
q48 -50 123 -50q85 0 135 61q40 50 40 129v55h-175v65h251v-113z" />
    <glyph glyph-name="H" unicode="H" horiz-adv-x="696" 
d="M593 0h-76v325h-338v-325h-76v712h76v-319h338v319h76v-712z" />
    <glyph glyph-name="I" unicode="I" horiz-adv-x="282" 
d="M179 0h-76v712h76v-712z" />
    <glyph glyph-name="J" unicode="J" horiz-adv-x="501" 
d="M408 216q0 -102 -61.5 -162t-160.5 -60t-163 64l51 51q23 -23 47.5 -35t64.5 -12q70 0 108 42.5t38 121.5v486h76v-496z" />
    <glyph glyph-name="K" unicode="K" horiz-adv-x="650" 
d="M636 0h-90l-217 379l-150 -180v-199h-76v712h76v-409l332 409h93l-224 -275z" />
    <glyph glyph-name="L" unicode="L" horiz-adv-x="573" 
d="M543 0h-440v712h76v-644h364v-68z" />
    <glyph glyph-name="M" unicode="M" horiz-adv-x="816" 
d="M713 0h-76v541l-195 -429h-65l-198 429v-541h-76v712h76l232 -505l226 505h76v-712z" />
    <glyph glyph-name="N" unicode="N" horiz-adv-x="732" 
d="M629 0h-72l-378 571v-571h-76v712h72l378 -569v569h76v-712z" />
    <glyph glyph-name="O" unicode="O" horiz-adv-x="650" 
d="M574 356q0 -132 -12 -188t-60 -104q-70 -70 -177 -70q-108 0 -178 70q-47 47 -59 103t-12 189t12 189t59 103q70 70 178 70q107 0 177 -70q48 -48 60 -104t12 -188zM498 356q0 116 -9 163.5t-41 80.5q-50 50 -123 50t-123 -50q-32 -33 -41 -80.5t-9 -163.5t9 -163.5
t41 -80.5q50 -50 123 -50t123 50q32 33 41 80.5t9 163.5z" />
    <glyph glyph-name="P" unicode="P" horiz-adv-x="630" 
d="M588 503q0 -95 -61.5 -152.5t-158.5 -57.5h-189v-293h-76v712h265q98 0 159 -57.5t61 -151.5zM512 503q0 69 -40.5 105t-109.5 36h-183v-283h183q69 0 109.5 36.5t40.5 105.5z" />
    <glyph glyph-name="Q" unicode="Q" horiz-adv-x="649" 
d="M574 356q0 -119 -8.5 -172t-40.5 -95l78 -78l-46 -46l-79 78q-62 -49 -153 -49q-108 0 -178 70q-47 47 -59 103t-12 189t12 189t59 103q70 70 178 70q107 0 177 -70q48 -48 60 -104t12 -188zM498 356q0 116 -9 163.5t-41 80.5q-48 50 -123 50t-123 -50q-32 -33 -41 -80.5
t-9 -163.5t9 -163.5t41 -80.5q48 -50 123 -50q60 0 101 34l-90 90l46 46l86 -87q19 30 24.5 74t5.5 137z" />
    <glyph glyph-name="R" unicode="R" horiz-adv-x="656" 
d="M601 0h-89l-162 316h-171v-316h-76v712h273q94 0 152.5 -53.5t58.5 -144.5q0 -76 -42 -126t-113 -65zM511 513q0 63 -39 97t-103 34h-190v-261h190q65 0 103.5 33.5t38.5 96.5z" />
    <glyph glyph-name="S" unicode="S" horiz-adv-x="588" 
d="M532 196q0 -93 -67 -147.5t-179 -54.5q-80 0 -137 22t-106 72l51 51q43 -43 87.5 -60t106.5 -17q79 0 124 34.5t45 97.5q0 58 -35 89q-27 25 -93 35l-83 12q-84 13 -130 54q-55 49 -55 134q0 91 61.5 145.5t166.5 54.5q67 0 116.5 -18.5t95.5 -59.5l-49 -49
q-65 62 -166 62q-71 0 -111 -36t-40 -97q0 -55 32 -83q31 -27 93 -37l83 -13q50 -8 77.5 -18.5t51.5 -32.5q60 -52 60 -140z" />
    <glyph glyph-name="T" unicode="T" horiz-adv-x="548" 
d="M518 644h-206v-644h-76v644h-206v68h488v-68z" />
    <glyph glyph-name="U" unicode="U" horiz-adv-x="683" 
d="M590 235q0 -106 -70.5 -173.5t-178.5 -67.5t-178 67.5t-70 173.5v477h76v-471q0 -81 47 -130t125 -49t125.5 49t47.5 130v471h76v-477z" />
    <glyph glyph-name="V" unicode="V" horiz-adv-x="546" 
d="M538 712l-234 -712h-62l-234 712h80l185 -576l185 576h80z" />
    <glyph glyph-name="W" unicode="W" horiz-adv-x="854" 
d="M838 712l-182 -712h-71l-158 570l-158 -570h-71l-182 712h81l139 -574l157 574h68l157 -574l139 574h81z" />
    <glyph glyph-name="X" unicode="X" horiz-adv-x="551" 
d="M536 0h-88l-173 299l-174 -299h-86l218 365l-204 347h88l158 -281l158 281h88l-205 -347z" />
    <glyph glyph-name="Y" unicode="Y" horiz-adv-x="514" 
d="M506 712l-210 -418v-294h-76v294l-212 418h82l168 -341l166 341h82z" />
    <glyph glyph-name="Z" unicode="Z" horiz-adv-x="556" 
d="M499 0h-442v72l356 572h-342v68h428v-64l-359 -580h359v-68z" />
    <glyph glyph-name="bracketleft" unicode="[" horiz-adv-x="313" 
d="M269 -74h-177v860h177v-64h-105v-732h105v-64z" />
    <glyph glyph-name="backslash" unicode="\" horiz-adv-x="355" 
d="M355 -74h-71l-284 857h71z" />
    <glyph glyph-name="bracketright" unicode="]" horiz-adv-x="313" 
d="M221 -74h-177v62h108v736h-108v62h177v-860z" />
    <glyph glyph-name="asciicircum" unicode="^" horiz-adv-x="537" 
d="M465 413h-74l-122 228l-123 -228h-74l164 305h66z" />
    <glyph glyph-name="underscore" unicode="_" horiz-adv-x="537" 
d="M537 -165h-537v51h537v-51z" />
    <glyph glyph-name="grave" unicode="`" horiz-adv-x="500" 
d="M299 594h-66l-108 153h86z" />
    <glyph glyph-name="a" unicode="a" horiz-adv-x="526" 
d="M441 0h-72v47q-29 -29 -61 -41t-81 -12q-93 0 -139 45q-37 36 -37 100q0 66 44.5 104t126.5 38h147v47q0 55 -29.5 81.5t-96.5 26.5q-46 0 -73.5 -13t-50.5 -44l-49 45q31 42 71 58t103 16q197 0 197 -164v-334zM369 174v53h-137q-111 0 -111 -87q0 -84 114 -84
q73 0 109 33q25 24 25 85z" />
    <glyph glyph-name="b" unicode="b" horiz-adv-x="545" 
d="M481 246q0 -148 -60 -209q-43 -43 -120 -43q-88 0 -139 65v-59h-72v712h72v-277q51 63 139 63q77 0 120 -43q60 -60 60 -209zM409 246q0 41 -4.5 71t-16.5 58.5t-38 43.5t-64 15q-31 0 -54 -10.5t-36.5 -27.5t-21 -43t-10 -50.5t-2.5 -56.5t2.5 -56.5t10 -50.5t21 -43
t36.5 -27.5t54 -10.5q38 0 64 15t38 43.5t16.5 58.5t4.5 71z" />
    <glyph glyph-name="c" unicode="c" horiz-adv-x="490" 
d="M443 67q-38 -41 -74 -57t-88 -16q-97 0 -157.5 65t-60.5 187t60.5 187t157.5 65q52 0 88 -16t74 -57l-49 -46q-28 31 -53 43t-60 12q-75 0 -114 -56q-32 -45 -32 -132t32 -132q39 -56 114 -56q35 0 60 12.5t53 43.5z" />
    <glyph glyph-name="d" unicode="d" horiz-adv-x="545" 
d="M455 0h-71v59q-29 -37 -62 -51t-78 -14q-77 0 -120 43q-60 61 -60 209q0 149 60 209q43 43 120 43q45 0 77.5 -13.5t61.5 -49.5v277h72v-712zM383 246q0 41 -4.5 71t-16.5 58.5t-38 43.5t-64 15q-31 0 -54 -10.5t-36.5 -27.5t-21 -43t-10 -50.5t-2.5 -56.5t2.5 -56.5
t10 -50.5t21 -43t36.5 -27.5t54 -10.5q38 0 64 15t38 43.5t16.5 58.5t4.5 71z" />
    <glyph glyph-name="e" unicode="e" 
d="M467 227h-332q0 -82 37 -126t108 -44q42 0 70.5 13t58.5 43l49 -43q-40 -40 -80 -58t-100 -18q-102 0 -158.5 62.5t-56.5 189.5q0 119 54 185.5t148 66.5q95 0 148.5 -63.5t53.5 -175.5v-32zM396 281q-4 57 -16 82q-35 74 -115 74t-115 -74q-12 -26 -15 -82h261z" />
    <glyph glyph-name="f" unicode="f" horiz-adv-x="314" 
d="M283 437h-105v-437h-72v437h-63v55h63v90q0 58 32.5 95t92.5 37h52v-62h-39q-66 0 -66 -72v-88h105v-55z" />
    <glyph glyph-name="g" unicode="g" horiz-adv-x="543" 
d="M453 -15q0 -93 -55 -152t-150 -59q-54 0 -90.5 15t-76.5 51l47 46q30 -27 54 -38t64 -11q68 0 101.5 42t33.5 109v77q-50 -64 -138 -64q-75 0 -119 44q-60 60 -60 205t60 205q43 43 120 43q89 0 138 -64v58h71v-507zM381 250q0 39 -4.5 68t-16.5 57.5t-37.5 43.5
t-63.5 15t-64 -15t-38 -43.5t-16.5 -57.5t-4.5 -68t4.5 -68t16.5 -57.5t38 -43.5t64 -15t63.5 15t37.5 43.5t16.5 57.5t4.5 68z" />
    <glyph glyph-name="h" unicode="h" horiz-adv-x="562" 
d="M477 0h-72v304q0 64 -31.5 97t-88.5 33q-58 0 -90.5 -33t-32.5 -97v-304h-72v712h72v-274q54 60 138 60q83 0 130 -49t47 -133v-316z" />
    <glyph glyph-name="i" unicode="i" horiz-adv-x="252" 
d="M162 0h-72v492h72v-492zM167 632h-81v81h81v-81z" />
    <glyph glyph-name="j" unicode="j" horiz-adv-x="253" 
d="M162 -89q0 -59 -31.5 -95.5t-93.5 -36.5h-52v63h39q36 0 51 17.5t15 54.5v578h72v-581zM167 632h-81v81h81v-81z" />
    <glyph glyph-name="k" unicode="k" horiz-adv-x="536" 
d="M503 0h-89l-156 252l-96 -110v-142h-72v712h72v-476l222 256h90l-167 -188z" />
    <glyph glyph-name="l" unicode="l" horiz-adv-x="294" 
d="M265 0h-52q-62 0 -93.5 36t-31.5 95v581h72v-578q0 -37 15 -54.5t51 -17.5h39v-62z" />
    <glyph glyph-name="m" unicode="m" horiz-adv-x="879" 
d="M794 0h-72v303q0 64 -32 97.5t-89 33.5q-55 0 -89 -33t-34 -90v-311h-72v303q0 64 -32 97.5t-89 33.5t-90 -34t-33 -97v-303h-72v492h72v-54q52 60 139 60q105 0 151 -82q58 82 162 82q79 0 127 -46q53 -51 53 -137v-315z" />
    <glyph glyph-name="n" unicode="n" horiz-adv-x="562" 
d="M477 0h-72v303q0 64 -32 97.5t-89 33.5t-89.5 -34t-32.5 -97v-303h-72v492h72v-54q52 60 138 60q80 0 126 -46q51 -50 51 -137v-315z" />
    <glyph glyph-name="o" unicode="o" 
d="M466 246q0 -135 -60 -196q-54 -56 -141 -56t-141 56q-60 61 -60 196q0 136 60 196q54 56 141 56t141 -56q60 -60 60 -196zM394 246q0 113 -39 152q-36 36 -90 36q-53 0 -89 -36q-40 -40 -40 -152t40 -152q36 -36 89 -36q54 0 90 36q39 40 39 152z" />
    <glyph glyph-name="p" unicode="p" horiz-adv-x="545" 
d="M481 246q0 -148 -60 -209q-43 -43 -120 -43q-88 0 -139 64v-278h-72v712h72v-58q51 64 139 64q77 0 120 -43q60 -60 60 -209zM409 246q0 41 -4.5 71t-16.5 58.5t-38 43.5t-64 15q-31 0 -54 -10.5t-36.5 -27.5t-21 -43t-10 -50.5t-2.5 -56.5t2.5 -56.5t10 -50.5t21 -43
t36.5 -27.5t54 -10.5q38 0 64 15t38 43.5t16.5 58.5t4.5 71z" />
    <glyph glyph-name="q" unicode="q" horiz-adv-x="545" 
d="M455 -220h-72v278q-51 -64 -139 -64q-77 0 -120 43q-60 61 -60 209q0 149 60 209q43 43 120 43q89 0 140 -64v58h71v-712zM383 246q0 41 -4.5 71t-16.5 58.5t-38 43.5t-64 15q-31 0 -54 -10.5t-36.5 -27.5t-21 -43t-10 -50.5t-2.5 -56.5t2.5 -56.5t10 -50.5t21 -43
t36.5 -27.5t54 -10.5q38 0 64 15t38 43.5t16.5 58.5t4.5 71z" />
    <glyph glyph-name="r" unicode="r" horiz-adv-x="421" 
d="M418 452l-53 -54q-20 20 -38.5 28t-46.5 8q-53 0 -85.5 -37.5t-32.5 -94.5v-302h-72v492h72v-60q20 31 57.5 48.5t80.5 17.5q72 0 118 -46z" />
    <glyph glyph-name="s" unicode="s" horiz-adv-x="496" 
d="M445 144q0 -70 -54.5 -110t-145.5 -40q-130 0 -202 71l48 48q54 -57 153 -57q62 0 96.5 22t34.5 65q0 65 -82 72l-81 7q-147 12 -147 132q0 66 50 105t131 39q111 0 177 -53l-47 -47q-51 39 -131 39q-53 0 -81.5 -21t-28.5 -60q0 -33 21 -50t67 -22l77 -7
q70 -7 107.5 -37t37.5 -96z" />
    <glyph glyph-name="t" unicode="t" horiz-adv-x="332" 
d="M279 0h-51q-61 0 -93.5 37t-32.5 95v305h-62v55h62v151h72v-151h105v-55h-105v-303q0 -72 67 -72h38v-62z" />
    <glyph glyph-name="u" unicode="u" horiz-adv-x="562" 
d="M472 0h-71v55q-53 -61 -139 -61q-81 0 -127 46q-50 49 -50 138v314h72v-303q0 -64 31.5 -97.5t88.5 -33.5t90 34t33 97v303h72v-492z" />
    <glyph glyph-name="v" unicode="v" horiz-adv-x="447" 
d="M436 492l-181 -492h-64l-180 492h78l134 -395l135 395h78z" />
    <glyph glyph-name="w" unicode="w" horiz-adv-x="724" 
d="M713 492l-155 -492h-67l-129 382l-128 -382h-67l-156 492h78l113 -395l129 395h62l130 -395l112 395h78z" />
    <glyph glyph-name="x" unicode="x" horiz-adv-x="478" 
d="M445 0h-87l-118 191l-120 -191h-87l167 251l-160 241h87l113 -182l111 182h87l-160 -241z" />
    <glyph glyph-name="y" unicode="y" horiz-adv-x="447" 
d="M436 492l-224 -611q-14 -39 -35 -58q-35 -34 -96 -34h-31v64h22q36 0 52.5 13t28.5 48l35 96l-177 482h78l135 -395l134 395h78z" />
    <glyph glyph-name="z" unicode="z" horiz-adv-x="459" 
d="M407 0h-357v62l274 366h-259v64h342v-61l-275 -367h275v-64z" />
    <glyph glyph-name="braceleft" unicode="{" horiz-adv-x="354" 
d="M305 -74h-37q-71 0 -101 30t-30 99v191q0 42 -18 60t-45 18h-26v64h26q27 0 45 18t18 60v191q0 69 30 99t101 30h37v-64h-23q-46 0 -59 -13q-14 -14 -14 -65v-188q0 -40 -16 -62.5t-47 -37.5q31 -15 47 -37.5t16 -62.5v-188q0 -51 14 -65q13 -13 59 -13h23v-64z" />
    <glyph glyph-name="bar" unicode="|" horiz-adv-x="326" 
d="M199 -74h-72v860h72v-860z" />
    <glyph glyph-name="braceright" unicode="}" horiz-adv-x="354" 
d="M305 324h-25q-27 0 -45 -18t-18 -60v-191q0 -69 -30 -99t-101 -30h-38v64h24q45 0 58 13q15 15 15 65v188q0 40 16 62.5t47 37.5q-31 15 -47 37.5t-16 62.5v188q0 50 -15 65q-13 13 -58 13h-24v64h38q71 0 101 -30t30 -99v-191q0 -42 18 -60t45 -18h25v-64z" />
    <glyph glyph-name="asciitilde" unicode="~" horiz-adv-x="539" 
d="M490 278q-41 -41 -67.5 -54.5t-61.5 -13.5q-37 0 -106 31q-52 24 -78 24q-22 0 -39 -8.5t-45 -36.5l-44 45q41 41 67.5 54.5t61.5 13.5q36 0 105 -31q52 -24 78 -24q22 0 39 8.5t45 36.5z" />
    <glyph glyph-name="uni00A0" unicode="&#xa0;" horiz-adv-x="249" 
 />
    <glyph glyph-name="exclamdown" unicode="&#xa1;" horiz-adv-x="316" 
d="M184 -220h-83l10 512h62zM185 408h-86v84h86v-84z" />
    <glyph glyph-name="cent" unicode="&#xa2;" horiz-adv-x="498" 
d="M448 189q-34 -37 -67.5 -54t-77.5 -20v-115h-59v117q-84 12 -132.5 77.5t-48.5 171.5t48.5 171.5t132.5 77.5v97h59v-95q44 -3 77.5 -20t67.5 -54l-49 -46q-45 51 -100 55v-372q55 4 100 55zM248 182v368q-49 -9 -80 -52q-33 -46 -33 -132t33 -132q31 -43 80 -52z" />
    <glyph glyph-name="sterling" unicode="&#xa3;" horiz-adv-x="548" 
d="M496 0h-386v330h-63v54h63v112q0 101 62 161.5t161 60.5t163 -64l-52 -51q-24 24 -47.5 35.5t-63.5 11.5q-70 0 -108 -42.5t-38 -121.5v-102h146v-54h-146v-262h309v-68z" />
    <glyph glyph-name="currency" unicode="&#xa4;" horiz-adv-x="660" 
d="M582 65l-46 -46l-75 74q-59 -44 -131 -44q-73 0 -132 44l-74 -74l-46 46l74 74q-44 59 -44 132t44 132l-74 73l46 46l74 -73q57 43 132 43q74 0 131 -43l75 73l46 -46l-74 -73q44 -59 44 -132t-44 -132zM485 271q0 65 -45.5 110t-109.5 45q-65 0 -110.5 -45.5
t-45.5 -109.5q0 -65 46 -110.5t110 -45.5t109.5 45.5t45.5 110.5z" />
    <glyph glyph-name="yen" unicode="&#xa5;" horiz-adv-x="514" 
d="M506 712l-157 -311h100v-54h-127l-26 -53v-52h153v-55h-153v-187h-77v187h-154v55h154v52l-26 53h-128v54h100l-157 311h82l168 -341l167 341h81z" />
    <glyph glyph-name="brokenbar" unicode="&#xa6;" horiz-adv-x="335" 
d="M199 436h-72v350h72v-350zM199 -74h-72v350h72v-350z" />
    <glyph glyph-name="section" unicode="&#xa7;" horiz-adv-x="557" 
d="M470 254q0 -57 -30 -99.5t-74 -64.5q44 -16 70.5 -53.5t26.5 -90.5q0 -77 -52.5 -124.5t-131.5 -47.5q-78 0 -131.5 42t-57.5 119h73q4 -46 34.5 -70.5t81.5 -24.5q52 0 81.5 27.5t29.5 77.5q0 35 -23.5 62.5t-64.5 39.5l-78 22q-66 19 -101.5 66.5t-35.5 116.5
q0 58 30 100t75 64q-93 42 -93 138q0 73 50.5 118.5t129.5 45.5t129 -42.5t53 -114.5h-72q-7 93 -110 93q-51 0 -79.5 -25.5t-28.5 -73.5q0 -72 84 -96l78 -22q65 -19 101 -67t36 -116zM397 253q0 60 -32 92q-36 36 -86 36q-53 0 -86 -36t-33 -92t33 -92t86 -36t86 36
q32 35 32 92z" />
    <glyph glyph-name="dieresis" unicode="&#xa8;" horiz-adv-x="500" 
d="M392 602h-72v89h72v-89zM180 602h-72v89h72v-89z" />
    <glyph glyph-name="copyright" unicode="&#xa9;" horiz-adv-x="881" 
d="M802 356q0 -150 -106 -256t-256 -106t-256 106t-106 256t106 256t256 106t256 -106t106 -256zM744 356q0 127 -89 217.5t-215 90.5t-214.5 -90.5t-88.5 -217.5t88.5 -217.5t214.5 -90.5t215 90.5t89 217.5zM576 205q-58 -52 -131 -52q-85 0 -131.5 56t-46.5 147
t46.5 147.5t131.5 56.5q71 0 131 -53l-36 -36q-44 39 -95 39q-64 0 -93 -42.5t-29 -111.5t29 -111t93 -42q52 0 95 38z" />
    <glyph glyph-name="ordfeminine" unicode="&#xaa;" horiz-adv-x="449" 
d="M365 319h-58v36q-42 -41 -111 -41q-74 0 -110 36q-30 32 -30 79q0 53 35.5 83.5t99.5 30.5h115v36q0 43 -22.5 63.5t-74.5 20.5q-37 0 -58.5 -9.5t-39.5 -34.5l-41 37q26 33 58.5 46.5t81.5 13.5q155 0 155 -132v-265zM306 458v40h-107q-84 0 -84 -67q0 -65 86 -65
q60 0 86 25q19 18 19 67z" />
    <glyph glyph-name="guillemotleft" unicode="&#xab;" horiz-adv-x="554" 
d="M250 58l-210 210l210 210v-90l-120 -120l120 -121v-89zM476 58l-210 210l210 210v-90l-121 -120l121 -121v-89z" />
    <glyph glyph-name="logicalnot" unicode="&#xac;" horiz-adv-x="522" 
d="M471 103h-67v137h-353v67h420v-204z" />
    <glyph glyph-name="uni00AD" unicode="&#xad;" horiz-adv-x="426" 
d="M350 236h-274v67h274v-67z" />
    <glyph glyph-name="registered" unicode="&#xae;" horiz-adv-x="881" 
d="M802 356q0 -150 -106 -256t-256 -106t-256 106t-106 256t106 256t256 106t256 -106t106 -256zM745 356q0 128 -89.5 218.5t-215.5 90.5t-215 -90.5t-89 -218.5t89 -218.5t215 -90.5t215.5 90.5t89.5 218.5zM592 158h-64l-91 162h-60v-162h-55v397h135q52 0 88.5 -34.5
t36.5 -84.5q0 -83 -85 -109zM526 436q0 30 -21 50t-54 20h-74v-139h74q33 0 54 19.5t21 49.5z" />
    <glyph glyph-name="macron" unicode="&#xaf;" horiz-adv-x="500" 
d="M99 613v57h301v-57h-301z" />
    <glyph glyph-name="degree" unicode="&#xb0;" horiz-adv-x="463" 
d="M396 557q0 -68 -48 -116t-116 -48t-116.5 48t-48.5 116t48.5 116t116.5 48t116 -48t48 -116zM335 557q0 45 -30 75.5t-74 30.5t-73.5 -30.5t-29.5 -75.5t30 -75.5t74 -30.5t73.5 30.5t29.5 75.5z" />
    <glyph glyph-name="plusminus" unicode="&#xb1;" horiz-adv-x="522" 
d="M470 289h-175v-177h-67v177h-176v67h176v175h67v-175h175v-67zM470 0h-418v67h418v-67z" />
    <glyph glyph-name="twosuperior" unicode="&#xb2;" horiz-adv-x="318" 
d="M287 285h-246v52l165 202q23 29 23 58q0 30 -17.5 48.5t-47.5 18.5q-28 0 -46.5 -16.5t-18.5 -50.5h-58q0 54 34.5 86.5t88.5 32.5q55 0 89 -32.5t34 -86.5q0 -44 -39 -92l-138 -168h177v-52z" />
    <glyph glyph-name="threesuperior" unicode="&#xb3;" horiz-adv-x="318" 
d="M293 405q0 -59 -36.5 -92t-92.5 -33q-55 0 -92 30.5t-39 88.5h58q1 -33 22 -50t51 -17q32 0 52 19.5t20 53.5t-19 53.5t-56 19.5h-9v50h9q34 0 51 18t17 50t-19 50t-47 18q-29 0 -47 -17t-20 -46h-57q3 53 38 84t86 31q54 0 88.5 -33t34.5 -86q0 -67 -54 -92
q61 -26 61 -100z" />
    <glyph glyph-name="acute" unicode="&#xb4;" horiz-adv-x="500" 
d="M375 747l-108 -153h-66l88 153h86z" />
    <glyph glyph-name="mu" unicode="&#xb5;" horiz-adv-x="561" 
d="M471 0h-72v55q-53 -61 -138 -61q-66 0 -106 37v-251h-72v712h72v-303q0 -64 32 -97.5t89 -33.5t90 34t33 97v303h72v-492z" />
    <glyph glyph-name="paragraph" unicode="&#xb6;" horiz-adv-x="603" 
d="M500 -220h-72v864h-117v-864h-72v546q-87 0 -142 57.5t-55 134.5q0 83 58.5 138.5t158.5 55.5h241v-932z" />
    <glyph glyph-name="periodcentered" unicode="&#xb7;" horiz-adv-x="270" 
d="M182 223h-94v94h94v-94z" />
    <glyph glyph-name="cedilla" unicode="&#xb8;" horiz-adv-x="500" 
d="M313 -67l-59 -149h-79l71 149h67z" />
    <glyph glyph-name="onesuperior" unicode="&#xb9;" horiz-adv-x="318" 
d="M207 285h-57v363l-83 -73v66l83 71h57v-427z" />
    <glyph glyph-name="ordmasculine" unicode="&#xba;" horiz-adv-x="455" 
d="M387 515q0 -107 -48 -156q-44 -44 -112 -44t-112 44q-48 49 -48 156t48 156q45 45 112 45t112 -45q48 -49 48 -156zM328 515q0 88 -31 119q-28 28 -70 28t-70 -28q-30 -30 -30 -119q0 -88 30 -118q29 -29 70 -29t70 29q31 31 31 118z" />
    <glyph glyph-name="guillemotright" unicode="&#xbb;" horiz-adv-x="554" 
d="M514 268l-210 -210v89l120 121l-120 120v90zM288 268l-210 -210v89l121 121l-121 120v90z" />
    <glyph glyph-name="onequarter" unicode="&#xbc;" horiz-adv-x="821" 
d="M207 285h-57v363l-83 -73v66l83 71h57v-427zM607 712l-333 -712h-60l333 712h60zM801 65h-47v-65h-57v65h-172v52l151 310h62l-151 -310h110v105h57v-105h47v-52z" />
    <glyph glyph-name="onehalf" unicode="&#xbd;" horiz-adv-x="821" 
d="M207 285h-57v363l-83 -73v66l83 71h57v-427zM607 712l-333 -712h-60l333 712h60zM790 0h-246v52l165 202q23 29 23 58q0 30 -17.5 48.5t-47.5 18.5q-28 0 -46.5 -16.5t-18.5 -50.5h-58q0 54 34.5 86.5t88.5 32.5q55 0 89 -32.5t34 -86.5q0 -44 -39 -92l-138 -168h177v-52
z" />
    <glyph glyph-name="threequarters" unicode="&#xbe;" horiz-adv-x="821" 
d="M293 405q0 -59 -36.5 -91.5t-92.5 -32.5q-55 0 -92 30t-39 89h58q2 -34 22.5 -50.5t50.5 -16.5q31 0 51.5 19.5t20.5 53.5t-19 53t-56 19h-9v51h9q33 0 50.5 18t17.5 49q0 32 -19 50t-47 18q-29 0 -47 -17t-20 -46h-57q3 53 38 84t86 31q55 0 89 -32.5t34 -86.5
q0 -66 -54 -91q61 -26 61 -101zM607 712l-333 -712h-60l333 712h60zM801 65h-47v-65h-57v65h-172v52l151 310h62l-151 -310h110v105h57v-105h47v-52z" />
    <glyph glyph-name="questiondown" unicode="&#xbf;" horiz-adv-x="497" 
d="M421 -43q0 -77 -53.5 -130t-133.5 -53t-134 52t-54 131q0 53 46 120l82 118q18 27 18 58v40h72v-41q0 -48 -32 -94l-81 -116q-33 -49 -33 -85q0 -50 33 -84t83 -34q52 0 83.5 34.5t31.5 83.5h72zM270 408h-85v84h85v-84z" />
    <glyph glyph-name="Agrave" unicode="&#xc0;" horiz-adv-x="611" 
d="M599 0h-81l-57 161h-311l-57 -161h-81l262 712h64zM439 227l-132 376l-134 -376h266zM353 780h-69l-105 154h83z" />
    <glyph glyph-name="Aacute" unicode="&#xc1;" horiz-adv-x="611" 
d="M599 0h-81l-57 161h-311l-57 -161h-81l262 712h64zM439 227l-132 376l-134 -376h266zM425 934l-105 -154h-69l91 154h83z" />
    <glyph glyph-name="Acircumflex" unicode="&#xc2;" horiz-adv-x="611" 
d="M599 0h-81l-57 161h-311l-57 -161h-81l262 712h64zM439 227l-132 376l-134 -376h266zM461 780h-69l-90 105l-91 -105h-69l126 153h68z" />
    <glyph glyph-name="Atilde" unicode="&#xc3;" horiz-adv-x="611" 
d="M599 0h-81l-57 161h-311l-57 -161h-81l262 712h64zM439 227l-132 376l-134 -376h266zM459 844q-51 -50 -95 -50q-32 0 -71 23q-36 21 -56 21q-27 0 -59 -32l-37 36q51 51 95 51q34 0 71 -24q32 -20 56 -20q27 0 59 32z" />
    <glyph glyph-name="Adieresis" unicode="&#xc4;" horiz-adv-x="611" 
d="M599 0h-81l-57 161h-311l-57 -161h-81l262 712h64zM439 227l-132 376l-134 -376h266zM448 789h-72v89h72v-89zM236 789h-72v89h72v-89z" />
    <glyph glyph-name="Aring" unicode="&#xc5;" horiz-adv-x="611" 
d="M599 0h-81l-57 161h-311l-57 -161h-81l262 712h64zM439 227l-132 376l-134 -376h266zM420 867q0 -49 -34.5 -84t-83.5 -35t-83.5 35t-34.5 84t34.5 83.5t83.5 34.5t83.5 -34.5t34.5 -83.5zM371 867q0 28 -20 48t-49 20t-49 -20t-20 -48q0 -29 20.5 -49t48.5 -20t48.5 20
t20.5 49z" />
    <glyph glyph-name="AE" unicode="&#xc6;" horiz-adv-x="922" 
d="M867 0h-441v169h-247l-88 -169h-83l376 712h483v-68h-366v-253h312v-68h-312v-255h366v-68zM426 235v409l-214 -409h214z" />
    <glyph glyph-name="Ccedilla" unicode="&#xc7;" horiz-adv-x="637" 
d="M572 206q-19 -99 -85 -155.5t-162 -56.5q-108 0 -178 70q-47 47 -59 103t-12 189t12 189t59 103q70 70 178 70q97 0 162.5 -56t84.5 -156h-78q-14 67 -58.5 105.5t-110.5 38.5q-73 0 -123 -50q-32 -33 -41 -80.5t-9 -163.5t9 -163.5t41 -80.5q50 -50 123 -50
q66 0 111.5 38.5t59.5 105.5h76zM370 -67l-59 -149h-79l71 149h67z" />
    <glyph glyph-name="Egrave" unicode="&#xc8;" horiz-adv-x="600" 
d="M545 0h-442v712h442v-68h-366v-251h312v-68h-312v-257h366v-68zM364 780h-69l-105 154h83z" />
    <glyph glyph-name="Eacute" unicode="&#xc9;" horiz-adv-x="600" 
d="M545 0h-442v712h442v-68h-366v-251h312v-68h-312v-257h366v-68zM436 934l-105 -154h-69l91 154h83z" />
    <glyph glyph-name="Ecircumflex" unicode="&#xca;" horiz-adv-x="600" 
d="M545 0h-442v712h442v-68h-366v-251h312v-68h-312v-257h366v-68zM472 780h-69l-90 105l-91 -105h-69l126 153h68z" />
    <glyph glyph-name="Edieresis" unicode="&#xcb;" horiz-adv-x="600" 
d="M545 0h-442v712h442v-68h-366v-251h312v-68h-312v-257h366v-68zM455 789h-72v89h72v-89zM243 789h-72v89h72v-89z" />
    <glyph glyph-name="Igrave" unicode="&#xcc;" horiz-adv-x="282" 
d="M179 0h-76v712h76v-712zM181 780h-69l-105 154h83z" />
    <glyph glyph-name="Iacute" unicode="&#xcd;" horiz-adv-x="282" 
d="M179 0h-76v712h76v-712zM275 934l-105 -154h-69l91 154h83z" />
    <glyph glyph-name="Icircumflex" unicode="&#xce;" horiz-adv-x="282" 
d="M179 0h-76v712h76v-712zM299 780h-69l-90 105l-91 -105h-69l126 153h68z" />
    <glyph glyph-name="Idieresis" unicode="&#xcf;" horiz-adv-x="282" 
d="M179 0h-76v712h76v-712zM283 789h-72v89h72v-89zM71 789h-72v89h72v-89z" />
    <glyph glyph-name="Eth" unicode="&#xd0;" horiz-adv-x="687" 
d="M611 356q0 -69 -2.5 -109.5t-17 -90.5t-43.5 -81q-69 -75 -187 -75h-244v330h-78v59h78v323h244q118 0 187 -75q29 -32 44 -82.5t17 -88.5t2 -110zM535 356q0 63 -2 97t-12.5 75t-32.5 64q-47 52 -140 52h-155v-255h162v-59h-162v-262h155q93 0 140 52q22 23 32.5 64
t12.5 75t2 97z" />
    <glyph glyph-name="Ntilde" unicode="&#xd1;" horiz-adv-x="732" 
d="M629 0h-72l-378 571v-571h-76v712h72l378 -569v569h76v-712zM523 844q-51 -50 -95 -50q-32 0 -71 23q-36 21 -56 21q-27 0 -59 -32l-37 36q51 51 95 51q34 0 71 -24q32 -20 56 -20q27 0 59 32z" />
    <glyph glyph-name="Ograve" unicode="&#xd2;" horiz-adv-x="650" 
d="M574 356q0 -132 -12 -188t-60 -104q-70 -70 -177 -70q-108 0 -178 70q-47 47 -59 103t-12 189t12 189t59 103q70 70 178 70q107 0 177 -70q48 -48 60 -104t12 -188zM498 356q0 116 -9 163.5t-41 80.5q-50 50 -123 50t-123 -50q-32 -33 -41 -80.5t-9 -163.5t9 -163.5
t41 -80.5q50 -50 123 -50t123 50q32 33 41 80.5t9 163.5zM376 780h-69l-105 154h83z" />
    <glyph glyph-name="Oacute" unicode="&#xd3;" horiz-adv-x="650" 
d="M574 356q0 -132 -12 -188t-60 -104q-70 -70 -177 -70q-108 0 -178 70q-47 47 -59 103t-12 189t12 189t59 103q70 70 178 70q107 0 177 -70q48 -48 60 -104t12 -188zM498 356q0 116 -9 163.5t-41 80.5q-50 50 -123 50t-123 -50q-32 -33 -41 -80.5t-9 -163.5t9 -163.5
t41 -80.5q50 -50 123 -50t123 50q32 33 41 80.5t9 163.5zM448 934l-105 -154h-69l91 154h83z" />
    <glyph glyph-name="Ocircumflex" unicode="&#xd4;" horiz-adv-x="650" 
d="M574 356q0 -132 -12 -188t-60 -104q-70 -70 -177 -70q-108 0 -178 70q-47 47 -59 103t-12 189t12 189t59 103q70 70 178 70q107 0 177 -70q48 -48 60 -104t12 -188zM498 356q0 116 -9 163.5t-41 80.5q-50 50 -123 50t-123 -50q-32 -33 -41 -80.5t-9 -163.5t9 -163.5
t41 -80.5q50 -50 123 -50t123 50q32 33 41 80.5t9 163.5zM484 780h-69l-90 105l-91 -105h-69l126 153h68z" />
    <glyph glyph-name="Otilde" unicode="&#xd5;" horiz-adv-x="650" 
d="M574 356q0 -132 -12 -188t-60 -104q-70 -70 -177 -70q-108 0 -178 70q-47 47 -59 103t-12 189t12 189t59 103q70 70 178 70q107 0 177 -70q48 -48 60 -104t12 -188zM498 356q0 116 -9 163.5t-41 80.5q-50 50 -123 50t-123 -50q-32 -33 -41 -80.5t-9 -163.5t9 -163.5
t41 -80.5q50 -50 123 -50t123 50q32 33 41 80.5t9 163.5zM482 844q-51 -50 -95 -50q-32 0 -71 23q-36 21 -56 21q-27 0 -59 -32l-37 36q51 51 95 51q33 0 71 -24q32 -20 56 -20q27 0 59 32z" />
    <glyph glyph-name="Odieresis" unicode="&#xd6;" horiz-adv-x="650" 
d="M574 356q0 -132 -12 -188t-60 -104q-70 -70 -177 -70q-108 0 -178 70q-47 47 -59 103t-12 189t12 189t59 103q70 70 178 70q107 0 177 -70q48 -48 60 -104t12 -188zM498 356q0 116 -9 163.5t-41 80.5q-50 50 -123 50t-123 -50q-32 -33 -41 -80.5t-9 -163.5t9 -163.5
t41 -80.5q50 -50 123 -50t123 50q32 33 41 80.5t9 163.5zM467 789h-72v89h72v-89zM255 789h-72v89h72v-89z" />
    <glyph glyph-name="multiply" unicode="&#xd7;" horiz-adv-x="522" 
d="M457 119l-45 -45l-151 151l-151 -151l-45 45l151 151l-151 151l45 45l151 -152l151 152l45 -45l-152 -151z" />
    <glyph glyph-name="Oslash" unicode="&#xd8;" horiz-adv-x="650" 
d="M574 356q0 -134 -11.5 -188.5t-60.5 -103.5q-70 -70 -177 -70q-70 0 -126 31l-33 -69h-65l50 104q-50 49 -62.5 105t-12.5 191q0 133 12 189t59 103q70 70 178 70q74 0 125 -31l34 69h65l-50 -105q51 -49 63 -105t12 -190zM152 356q0 -102 6.5 -149t28.5 -77l234 492
q-40 28 -96 28q-75 0 -123 -50q-32 -33 -41 -80.5t-9 -163.5zM498 356q0 102 -6.5 148.5t-28.5 77.5l-234 -492q42 -28 96 -28q73 0 123 50q32 33 41 80.5t9 163.5z" />
    <glyph glyph-name="Ugrave" unicode="&#xd9;" horiz-adv-x="683" 
d="M590 235q0 -106 -70.5 -173.5t-178.5 -67.5t-178 67.5t-70 173.5v477h76v-471q0 -81 47 -130t125 -49t125.5 49t47.5 130v471h76v-477zM392 780h-69l-105 154h83z" />
    <glyph glyph-name="Uacute" unicode="&#xda;" horiz-adv-x="683" 
d="M590 235q0 -106 -70.5 -173.5t-178.5 -67.5t-178 67.5t-70 173.5v477h76v-471q0 -81 47 -130t125 -49t125.5 49t47.5 130v471h76v-477zM464 934l-105 -154h-69l91 154h83z" />
    <glyph glyph-name="Ucircumflex" unicode="&#xdb;" horiz-adv-x="683" 
d="M590 235q0 -106 -70.5 -173.5t-178.5 -67.5t-178 67.5t-70 173.5v477h76v-471q0 -81 47 -130t125 -49t125.5 49t47.5 130v471h76v-477zM500 780h-69l-90 105l-91 -105h-69l126 153h68z" />
    <glyph glyph-name="Udieresis" unicode="&#xdc;" horiz-adv-x="683" 
d="M590 235q0 -106 -70.5 -173.5t-178.5 -67.5t-178 67.5t-70 173.5v477h76v-471q0 -81 47 -130t125 -49t125.5 49t47.5 130v471h76v-477zM483 789h-72v89h72v-89zM271 789h-72v89h72v-89z" />
    <glyph glyph-name="Yacute" unicode="&#xdd;" horiz-adv-x="514" 
d="M506 712l-210 -418v-294h-76v294l-212 418h82l168 -341l166 341h82zM380 934l-105 -154h-69l91 154h83z" />
    <glyph glyph-name="Thorn" unicode="&#xde;" horiz-adv-x="642" 
d="M588 359q0 -95 -61 -152t-159 -57h-189v-150h-76v712h76v-143h189q98 0 159 -57.5t61 -152.5zM512 359q0 69 -41 105t-110 36h-182v-282h182q69 0 110 36t41 105z" />
    <glyph glyph-name="germandbls" unicode="&#xdf;" horiz-adv-x="556" 
d="M484 141q0 -68 -39 -105q-40 -36 -103 -36h-54v62h40q33 0 59 20q25 21 25 67v169q0 44 -21 62q-21 21 -59 21h-44v60h36q40 0 64 24.5t24 66.5q0 47 -31 75q-31 29 -94 29q-124 0 -124 -135v-521h-73v524q0 93 53.5 144t147.5 51q85 0 139 -42t54 -124q0 -79 -63 -119
q35 -18 49 -45t14 -75v-173z" />
    <glyph glyph-name="agrave" unicode="&#xe0;" horiz-adv-x="526" 
d="M441 0h-72v47q-29 -29 -61 -41t-81 -12q-93 0 -139 45q-37 36 -37 100q0 66 44.5 104t126.5 38h147v47q0 55 -29.5 81.5t-96.5 26.5q-46 0 -73.5 -13t-50.5 -44l-49 45q31 42 71 58t103 16q197 0 197 -164v-334zM369 174v53h-137q-111 0 -111 -87q0 -84 114 -84
q73 0 109 33q25 24 25 85zM302 594h-69l-105 153h83z" />
    <glyph glyph-name="aacute" unicode="&#xe1;" horiz-adv-x="526" 
d="M441 0h-72v47q-29 -29 -61 -41t-81 -12q-93 0 -139 45q-37 36 -37 100q0 66 44.5 104t126.5 38h147v47q0 55 -29.5 81.5t-96.5 26.5q-46 0 -73.5 -13t-50.5 -44l-49 45q31 42 71 58t103 16q197 0 197 -164v-334zM369 174v53h-137q-111 0 -111 -87q0 -84 114 -84
q73 0 109 33q25 24 25 85zM376 747l-105 -153h-69l91 153h83z" />
    <glyph glyph-name="acircumflex" unicode="&#xe2;" horiz-adv-x="526" 
d="M441 0h-72v47q-29 -29 -61 -41t-81 -12q-93 0 -139 45q-37 36 -37 100q0 66 44.5 104t126.5 38h147v47q0 55 -29.5 81.5t-96.5 26.5q-46 0 -73.5 -13t-50.5 -44l-49 45q31 42 71 58t103 16q197 0 197 -164v-334zM369 174v53h-137q-111 0 -111 -87q0 -84 114 -84
q73 0 109 33q25 24 25 85zM412 594h-69l-91 104l-90 -104h-69l125 153h68z" />
    <glyph glyph-name="atilde" unicode="&#xe3;" horiz-adv-x="526" 
d="M441 0h-72v47q-29 -29 -61 -41t-81 -12q-93 0 -139 45q-37 36 -37 100q0 66 44.5 104t126.5 38h147v47q0 55 -29.5 81.5t-96.5 26.5q-46 0 -73.5 -13t-50.5 -44l-49 45q31 42 71 58t103 16q197 0 197 -164v-334zM369 174v53h-137q-111 0 -111 -87q0 -84 114 -84
q73 0 109 33q25 24 25 85zM409 658q-50 -51 -95 -51q-30 0 -71 24q-35 20 -56 20q-27 0 -59 -32l-37 36q51 51 95 51q34 0 71 -24q35 -20 56 -20q27 0 59 32z" />
    <glyph glyph-name="adieresis" unicode="&#xe4;" horiz-adv-x="526" 
d="M441 0h-72v47q-29 -29 -61 -41t-81 -12q-93 0 -139 45q-37 36 -37 100q0 66 44.5 104t126.5 38h147v47q0 55 -29.5 81.5t-96.5 26.5q-46 0 -73.5 -13t-50.5 -44l-49 45q31 42 71 58t103 16q197 0 197 -164v-334zM369 174v53h-137q-111 0 -111 -87q0 -84 114 -84
q73 0 109 33q25 24 25 85zM394 602h-72v89h72v-89zM182 602h-72v89h72v-89z" />
    <glyph glyph-name="aring" unicode="&#xe5;" horiz-adv-x="526" 
d="M441 0h-72v47q-29 -29 -61 -41t-81 -12q-93 0 -139 45q-37 36 -37 100q0 66 44.5 104t126.5 38h147v47q0 55 -29.5 81.5t-96.5 26.5q-46 0 -73.5 -13t-50.5 -44l-49 45q31 42 71 58t103 16q197 0 197 -164v-334zM369 174v53h-137q-111 0 -111 -87q0 -84 114 -84
q73 0 109 33q25 24 25 85zM370 687q0 -49 -34.5 -84t-83.5 -35t-83.5 35t-34.5 84t34.5 83.5t83.5 34.5t83.5 -34.5t34.5 -83.5zM321 687q0 28 -20 48t-49 20t-49 -20t-20 -48q0 -29 20.5 -49t48.5 -20t48.5 20t20.5 49z" />
    <glyph glyph-name="ae" unicode="&#xe6;" horiz-adv-x="835" 
d="M773 227h-333q0 -82 37.5 -126t108.5 -44q42 0 70.5 13t57.5 43l50 -43q-40 -40 -81 -58t-101 -18q-121 0 -175 85q-32 -47 -73.5 -66t-106.5 -19q-93 0 -139 45q-37 36 -37 100q0 66 44.5 104t126.5 38h147v47q0 55 -29.5 81.5t-96.5 26.5q-46 0 -73.5 -13t-50.5 -44
l-49 45q31 42 71 58t103 16q132 0 173 -77q51 77 154 77q95 0 148.5 -64t53.5 -175v-32zM369 227h-137q-111 0 -111 -87q0 -84 114 -84q73 0 109 33q25 24 25 85v53zM701 281q-3 53 -15 82q-14 34 -45 54t-70 20q-40 0 -71 -20t-44 -54q-12 -31 -16 -82h261z" />
    <glyph glyph-name="ccedilla" unicode="&#xe7;" horiz-adv-x="490" 
d="M443 67q-38 -41 -74 -57t-88 -16q-97 0 -157.5 65t-60.5 187t60.5 187t157.5 65q52 0 88 -16t74 -57l-49 -46q-28 31 -53 43t-60 12q-75 0 -114 -56q-32 -45 -32 -132t32 -132q39 -56 114 -56q35 0 60 12.5t53 43.5zM313 -67l-59 -149h-79l71 149h67z" />
    <glyph glyph-name="egrave" unicode="&#xe8;" 
d="M467 227h-332q0 -82 37 -126t108 -44q42 0 70.5 13t58.5 43l49 -43q-40 -40 -80 -58t-100 -18q-102 0 -158.5 62.5t-56.5 189.5q0 119 54 185.5t148 66.5q95 0 148.5 -63.5t53.5 -175.5v-32zM396 281q-4 57 -16 82q-35 74 -115 74t-115 -74q-12 -26 -15 -82h261zM318 594
h-69l-105 153h83z" />
    <glyph glyph-name="eacute" unicode="&#xe9;" 
d="M467 227h-332q0 -82 37 -126t108 -44q42 0 70.5 13t58.5 43l49 -43q-40 -40 -80 -58t-100 -18q-102 0 -158.5 62.5t-56.5 189.5q0 119 54 185.5t148 66.5q95 0 148.5 -63.5t53.5 -175.5v-32zM396 281q-4 57 -16 82q-35 74 -115 74t-115 -74q-12 -26 -15 -82h261zM392 747
l-105 -153h-69l91 153h83z" />
    <glyph glyph-name="ecircumflex" unicode="&#xea;" 
d="M467 227h-332q0 -82 37 -126t108 -44q42 0 70.5 13t58.5 43l49 -43q-40 -40 -80 -58t-100 -18q-102 0 -158.5 62.5t-56.5 189.5q0 119 54 185.5t148 66.5q95 0 148.5 -63.5t53.5 -175.5v-32zM396 281q-4 57 -16 82q-35 74 -115 74t-115 -74q-12 -26 -15 -82h261zM428 594
h-69l-91 104l-90 -104h-69l125 153h68z" />
    <glyph glyph-name="edieresis" unicode="&#xeb;" 
d="M467 227h-332q0 -82 37 -126t108 -44q42 0 70.5 13t58.5 43l49 -43q-40 -40 -80 -58t-100 -18q-102 0 -158.5 62.5t-56.5 189.5q0 119 54 185.5t148 66.5q95 0 148.5 -63.5t53.5 -175.5v-32zM396 281q-4 57 -16 82q-35 74 -115 74t-115 -74q-12 -26 -15 -82h261zM409 602
h-72v89h72v-89zM197 602h-72v89h72v-89z" />
    <glyph glyph-name="igrave" unicode="&#xec;" horiz-adv-x="252" 
d="M162 0h-72v492h72v-492zM164 594h-69l-105 153h83z" />
    <glyph glyph-name="iacute" unicode="&#xed;" horiz-adv-x="252" 
d="M162 0h-72v492h72v-492zM263 747l-105 -153h-69l91 153h83z" />
    <glyph glyph-name="icircumflex" unicode="&#xee;" horiz-adv-x="252" 
d="M162 0h-72v492h72v-492zM289 594h-69l-91 104l-90 -104h-69l125 153h68z" />
    <glyph glyph-name="idieresis" unicode="&#xef;" horiz-adv-x="252" 
d="M162 0h-72v492h72v-492zM269 602h-72v89h72v-89zM57 602h-72v89h72v-89z" />
    <glyph glyph-name="eth" unicode="&#xf0;" 
d="M465 244q0 -135 -60 -195q-53 -55 -140 -55t-140 55q-59 59 -59 195t59 195q50 52 136 52q39 0 61 -10l-58 99h-116v52h88l-47 82h75l47 -82h82v-52h-54l63 -111q39 -68 51 -113t12 -112zM393 244q0 112 -39 151q-36 36 -89 36q-52 0 -88 -36q-39 -39 -39 -151
q0 -111 39 -150q36 -36 88 -36q53 0 89 36q39 39 39 150z" />
    <glyph glyph-name="ntilde" unicode="&#xf1;" horiz-adv-x="562" 
d="M477 0h-72v303q0 64 -32 97.5t-89 33.5t-89.5 -34t-32.5 -97v-303h-72v492h72v-54q52 60 138 60q80 0 126 -46q51 -50 51 -137v-315zM442 658q-50 -51 -95 -51q-30 0 -71 24q-35 20 -56 20q-27 0 -59 -32l-37 36q51 51 95 51q33 0 71 -24q35 -20 56 -20q27 0 59 32z" />
    <glyph glyph-name="ograve" unicode="&#xf2;" 
d="M466 246q0 -135 -60 -196q-54 -56 -141 -56t-141 56q-60 61 -60 196q0 136 60 196q54 56 141 56t141 -56q60 -60 60 -196zM394 246q0 113 -39 152q-36 36 -90 36q-53 0 -89 -36q-40 -40 -40 -152t40 -152q36 -36 89 -36q54 0 90 36q39 40 39 152zM305 594h-69l-105 153
h83z" />
    <glyph glyph-name="oacute" unicode="&#xf3;" 
d="M466 246q0 -135 -60 -196q-54 -56 -141 -56t-141 56q-60 61 -60 196q0 136 60 196q54 56 141 56t141 -56q60 -60 60 -196zM394 246q0 113 -39 152q-36 36 -90 36q-53 0 -89 -36q-40 -40 -40 -152t40 -152q36 -36 89 -36q54 0 90 36q39 40 39 152zM389 747l-105 -153h-69
l91 153h83z" />
    <glyph glyph-name="ocircumflex" unicode="&#xf4;" 
d="M466 246q0 -135 -60 -196q-54 -56 -141 -56t-141 56q-60 61 -60 196q0 136 60 196q54 56 141 56t141 -56q60 -60 60 -196zM394 246q0 113 -39 152q-36 36 -90 36q-53 0 -89 -36q-40 -40 -40 -152t40 -152q36 -36 89 -36q54 0 90 36q39 40 39 152zM425 594h-69l-91 104
l-90 -104h-69l125 153h68z" />
    <glyph glyph-name="otilde" unicode="&#xf5;" 
d="M466 246q0 -135 -60 -196q-54 -56 -141 -56t-141 56q-60 61 -60 196q0 136 60 196q54 56 141 56t141 -56q60 -60 60 -196zM394 246q0 113 -39 152q-36 36 -90 36q-53 0 -89 -36q-40 -40 -40 -152t40 -152q36 -36 89 -36q54 0 90 36q39 40 39 152zM422 658
q-50 -51 -95 -51q-30 0 -71 24q-35 20 -56 20q-27 0 -59 -32l-37 36q51 51 95 51q34 0 71 -24q35 -20 56 -20q27 0 59 32z" />
    <glyph glyph-name="odieresis" unicode="&#xf6;" 
d="M466 246q0 -135 -60 -196q-54 -56 -141 -56t-141 56q-60 61 -60 196q0 136 60 196q54 56 141 56t141 -56q60 -60 60 -196zM394 246q0 113 -39 152q-36 36 -90 36q-53 0 -89 -36q-40 -40 -40 -152t40 -152q36 -36 89 -36q54 0 90 36q39 40 39 152zM407 602h-72v89h72v-89z
M195 602h-72v89h72v-89z" />
    <glyph glyph-name="divide" unicode="&#xf7;" horiz-adv-x="522" 
d="M471 236h-420v67h420v-67zM304 49h-86v86h86v-86zM304 404h-86v86h86v-86z" />
    <glyph glyph-name="oslash" unicode="&#xf8;" 
d="M466 246q0 -135 -60 -196q-56 -56 -141 -56q-59 0 -105 27l-38 -65h-57l57 96q-58 60 -58 194q0 135 60 196q56 56 141 56q59 0 105 -27l39 65h56l-57 -96q58 -60 58 -194zM394 246q0 94 -24 133l-177 -299q31 -22 72 -22q54 0 90 36q39 39 39 152zM337 413
q-30 21 -72 21q-53 0 -89 -36q-40 -40 -40 -152q0 -92 25 -133z" />
    <glyph glyph-name="ugrave" unicode="&#xf9;" horiz-adv-x="562" 
d="M472 0h-71v55q-53 -61 -139 -61q-81 0 -127 46q-50 49 -50 138v314h72v-303q0 -64 31.5 -97.5t88.5 -33.5t90 34t33 97v303h72v-492zM328 594h-69l-105 153h83z" />
    <glyph glyph-name="uacute" unicode="&#xfa;" horiz-adv-x="562" 
d="M472 0h-71v55q-53 -61 -139 -61q-81 0 -127 46q-50 49 -50 138v314h72v-303q0 -64 31.5 -97.5t88.5 -33.5t90 34t33 97v303h72v-492zM402 747l-105 -153h-69l91 153h83z" />
    <glyph glyph-name="ucircumflex" unicode="&#xfb;" horiz-adv-x="562" 
d="M472 0h-71v55q-53 -61 -139 -61q-81 0 -127 46q-50 49 -50 138v314h72v-303q0 -64 31.5 -97.5t88.5 -33.5t90 34t33 97v303h72v-492zM438 594h-69l-91 104l-90 -104h-69l125 153h68z" />
    <glyph glyph-name="udieresis" unicode="&#xfc;" horiz-adv-x="562" 
d="M472 0h-71v55q-53 -61 -139 -61q-81 0 -127 46q-50 49 -50 138v314h72v-303q0 -64 31.5 -97.5t88.5 -33.5t90 34t33 97v303h72v-492zM419 602h-72v89h72v-89zM207 602h-72v89h72v-89z" />
    <glyph glyph-name="yacute" unicode="&#xfd;" horiz-adv-x="447" 
d="M436 492l-224 -611q-14 -39 -35 -58q-35 -34 -96 -34h-31v64h22q36 0 52.5 13t28.5 48l35 96l-177 482h78l135 -395l134 395h78zM348 747l-105 -153h-69l91 153h83z" />
    <glyph glyph-name="thorn" unicode="&#xfe;" horiz-adv-x="546" 
d="M481 246q0 -148 -60 -209q-43 -43 -120 -43q-88 0 -139 64v-278h-72v932h72v-277q51 63 139 63q77 0 120 -43q60 -60 60 -209zM409 246q0 41 -4.5 71t-16.5 58.5t-38 43.5t-64 15q-31 0 -54 -10.5t-36.5 -27.5t-21 -43t-10 -50.5t-2.5 -56.5t2.5 -56.5t10 -50.5t21 -43
t36.5 -27.5t54 -10.5q38 0 64 15t38 43.5t16.5 58.5t4.5 71z" />
    <glyph glyph-name="ydieresis" unicode="&#xff;" horiz-adv-x="447" 
d="M436 492l-224 -611q-14 -39 -35 -58q-35 -34 -96 -34h-31v64h22q36 0 52.5 13t28.5 48l35 96l-177 482h78l135 -395l134 395h78zM366 602h-72v89h72v-89zM154 602h-72v89h72v-89z" />
    <glyph glyph-name="Amacron" unicode="&#x100;" horiz-adv-x="611" 
d="M599 0h-81l-57 161h-311l-57 -161h-81l262 712h64zM439 227l-132 376l-134 -376h266zM154 798v57h301v-57h-301z" />
    <glyph glyph-name="amacron" unicode="&#x101;" horiz-adv-x="526" 
d="M441 0h-72v47q-29 -29 -61 -41t-81 -12q-93 0 -139 45q-37 36 -37 100q0 66 44.5 104t126.5 38h147v47q0 55 -29.5 81.5t-96.5 26.5q-46 0 -73.5 -13t-50.5 -44l-49 45q31 42 71 58t103 16q197 0 197 -164v-334zM369 174v53h-137q-111 0 -111 -87q0 -84 114 -84
q73 0 109 33q25 24 25 85zM414 602h-301v56h301v-56z" />
    <glyph glyph-name="Abreve" unicode="&#x102;" horiz-adv-x="611" 
d="M599 0h-81l-57 161h-311l-57 -161h-81l262 712h64zM439 227l-132 376l-134 -376h266zM472 933q-12 -139 -165 -139t-165 139h56q5 -40 34 -61.5t75 -21.5t75 21.5t34 61.5h56z" />
    <glyph glyph-name="abreve" unicode="&#x103;" horiz-adv-x="526" 
d="M441 0h-72v47q-29 -29 -61 -41t-81 -12q-93 0 -139 45q-37 36 -37 100q0 66 44.5 104t126.5 38h147v47q0 55 -29.5 81.5t-96.5 26.5q-46 0 -73.5 -13t-50.5 -44l-49 45q31 42 71 58t103 16q197 0 197 -164v-334zM369 174v53h-137q-111 0 -111 -87q0 -84 114 -84
q73 0 109 33q25 24 25 85zM409 709q-12 -139 -165 -139t-165 139h56q5 -40 34 -61.5t75 -21.5t75 21.5t34 61.5h56z" />
    <glyph glyph-name="Aogonek" unicode="&#x104;" horiz-adv-x="611" 
d="M599 0h-81l-57 161h-311l-57 -161h-81l262 712h64zM439 227l-132 376l-134 -376h266zM585 -67l-59 -149h-79l71 149h67z" />
    <glyph glyph-name="aogonek" unicode="&#x105;" horiz-adv-x="526" 
d="M441 0h-72v47q-29 -29 -61 -41t-81 -12q-93 0 -139 45q-37 36 -37 100q0 66 44.5 104t126.5 38h147v47q0 55 -29.5 81.5t-96.5 26.5q-46 0 -73.5 -13t-50.5 -44l-49 45q31 42 71 58t103 16q197 0 197 -164v-334zM369 174v53h-137q-111 0 -111 -87q0 -84 114 -84
q73 0 109 33q25 24 25 85zM436 -67l-59 -149h-79l71 149h67z" />
    <glyph glyph-name="Cacute" unicode="&#x106;" horiz-adv-x="637" 
d="M572 206q-19 -99 -85 -155.5t-162 -56.5q-108 0 -178 70q-47 47 -59 103t-12 189t12 189t59 103q70 70 178 70q97 0 162.5 -56t84.5 -156h-78q-14 67 -58.5 105.5t-110.5 38.5q-73 0 -123 -50q-32 -33 -41 -80.5t-9 -163.5t9 -163.5t41 -80.5q50 -50 123 -50
q66 0 111.5 38.5t59.5 105.5h76zM441 934l-105 -154h-69l91 154h83z" />
    <glyph glyph-name="cacute" unicode="&#x107;" horiz-adv-x="490" 
d="M443 67q-38 -41 -74 -57t-88 -16q-97 0 -157.5 65t-60.5 187t60.5 187t157.5 65q52 0 88 -16t74 -57l-49 -46q-28 31 -53 43t-60 12q-75 0 -114 -56q-32 -45 -32 -132t32 -132q39 -56 114 -56q35 0 60 12.5t53 43.5zM390 747l-105 -153h-69l91 153h83z" />
    <glyph glyph-name="Ccircumflex" unicode="&#x108;" horiz-adv-x="637" 
d="M572 206q-19 -99 -85 -155.5t-162 -56.5q-108 0 -178 70q-47 47 -59 103t-12 189t12 189t59 103q70 70 178 70q97 0 162.5 -56t84.5 -156h-78q-14 67 -58.5 105.5t-110.5 38.5q-73 0 -123 -50q-32 -33 -41 -80.5t-9 -163.5t9 -163.5t41 -80.5q50 -50 123 -50
q66 0 111.5 38.5t59.5 105.5h76zM484 780h-69l-90 105l-91 -105h-69l126 153h68z" />
    <glyph glyph-name="ccircumflex" unicode="&#x109;" horiz-adv-x="490" 
d="M443 67q-38 -41 -74 -57t-88 -16q-97 0 -157.5 65t-60.5 187t60.5 187t157.5 65q52 0 88 -16t74 -57l-49 -46q-28 31 -53 43t-60 12q-75 0 -114 -56q-32 -45 -32 -132t32 -132q39 -56 114 -56q35 0 60 12.5t53 43.5zM440 594h-69l-91 104l-90 -104h-69l125 153h68z" />
    <glyph glyph-name="Cdotaccent" unicode="&#x10a;" horiz-adv-x="637" 
d="M572 206q-19 -99 -85 -155.5t-162 -56.5q-108 0 -178 70q-47 47 -59 103t-12 189t12 189t59 103q70 70 178 70q97 0 162.5 -56t84.5 -156h-78q-14 67 -58.5 105.5t-110.5 38.5q-73 0 -123 -50q-32 -33 -41 -80.5t-9 -163.5t9 -163.5t41 -80.5q50 -50 123 -50
q66 0 111.5 38.5t59.5 105.5h76zM286 797v76h75v-76h-75z" />
    <glyph glyph-name="cdotaccent" unicode="&#x10b;" horiz-adv-x="490" 
d="M443 67q-38 -41 -74 -57t-88 -16q-97 0 -157.5 65t-60.5 187t60.5 187t157.5 65q52 0 88 -16t74 -57l-49 -46q-28 31 -53 43t-60 12q-75 0 -114 -56q-32 -45 -32 -132t32 -132q39 -56 114 -56q35 0 60 12.5t53 43.5zM242 610v77h75v-77h-75z" />
    <glyph glyph-name="Ccaron" unicode="&#x10c;" horiz-adv-x="637" 
d="M572 206q-19 -99 -85 -155.5t-162 -56.5q-108 0 -178 70q-47 47 -59 103t-12 189t12 189t59 103q70 70 178 70q97 0 162.5 -56t84.5 -156h-78q-14 67 -58.5 105.5t-110.5 38.5q-73 0 -123 -50q-32 -33 -41 -80.5t-9 -163.5t9 -163.5t41 -80.5q50 -50 123 -50
q66 0 111.5 38.5t59.5 105.5h76zM478 933l-126 -153h-68l-125 153h69l90 -104l91 104h69z" />
    <glyph glyph-name="ccaron" unicode="&#x10d;" horiz-adv-x="490" 
d="M443 67q-38 -41 -74 -57t-88 -16q-97 0 -157.5 65t-60.5 187t60.5 187t157.5 65q52 0 88 -16t74 -57l-49 -46q-28 31 -53 43t-60 12q-75 0 -114 -56q-32 -45 -32 -132t32 -132q39 -56 114 -56q35 0 60 12.5t53 43.5zM440 747l-125 -153h-68l-126 153h69l91 -105l90 105
h69z" />
    <glyph glyph-name="Dcaron" unicode="&#x10e;" horiz-adv-x="673" 
d="M597 356q0 -72 -2 -110t-17 -88.5t-44 -82.5q-69 -75 -187 -75h-244v712h244q118 0 187 -75q29 -32 44 -82.5t17 -88.5t2 -110zM521 356q0 63 -2 97t-12.5 75t-32.5 64q-47 52 -140 52h-155v-576h155q93 0 140 52q22 23 32.5 64t12.5 75t2 97zM496 933l-126 -153h-68
l-125 153h69l90 -104l91 104h69z" />
    <glyph glyph-name="dcaron" unicode="&#x10f;" horiz-adv-x="545" 
d="M455 0h-71v59q-29 -37 -62 -51t-78 -14q-77 0 -120 43q-60 61 -60 209q0 149 60 209q43 43 120 43q45 0 77.5 -13.5t61.5 -49.5v277h72v-712zM383 246q0 41 -4.5 71t-16.5 58.5t-38 43.5t-64 15q-31 0 -54 -10.5t-36.5 -27.5t-21 -43t-10 -50.5t-2.5 -56.5t2.5 -56.5
t10 -50.5t21 -43t36.5 -27.5t54 -10.5q38 0 64 15t38 43.5t16.5 58.5t4.5 71zM626 719l-51 -152h-58l39 152h70z" />
    <glyph glyph-name="Dcroat" unicode="&#x110;" horiz-adv-x="687" 
d="M611 356q0 -69 -2.5 -109.5t-17 -90.5t-43.5 -81q-69 -75 -187 -75h-244v330h-78v59h78v323h244q118 0 187 -75q29 -32 44 -82.5t17 -88.5t2 -110zM535 356q0 63 -2 97t-12.5 75t-32.5 64q-47 52 -140 52h-155v-255h162v-59h-162v-262h155q93 0 140 52q22 23 32.5 64
t12.5 75t2 97z" />
    <glyph glyph-name="dcroat" unicode="&#x111;" horiz-adv-x="545" 
d="M455 0h-71v59q-29 -37 -62 -51t-78 -14q-77 0 -120 43q-60 61 -60 209q0 149 60 209q43 43 120 43q45 0 77.5 -13.5t61.5 -49.5v137h-82v48h82v92h72v-92h68v-48h-68v-572zM383 246q0 41 -4.5 71t-16.5 58.5t-38 43.5t-64 15q-31 0 -54 -10.5t-36.5 -27.5t-21 -43
t-10 -50.5t-2.5 -56.5t2.5 -56.5t10 -50.5t21 -43t36.5 -27.5t54 -10.5q38 0 64 15t38 43.5t16.5 58.5t4.5 71z" />
    <glyph glyph-name="Emacron" unicode="&#x112;" horiz-adv-x="600" 
d="M545 0h-442v712h442v-68h-366v-251h312v-68h-312v-257h366v-68zM161 798v57h301v-57h-301z" />
    <glyph glyph-name="emacron" unicode="&#x113;" 
d="M467 227h-332q0 -82 37 -126t108 -44q42 0 70.5 13t58.5 43l49 -43q-40 -40 -80 -58t-100 -18q-102 0 -158.5 62.5t-56.5 189.5q0 119 54 185.5t148 66.5q95 0 148.5 -63.5t53.5 -175.5v-32zM396 281q-4 57 -16 82q-35 74 -115 74t-115 -74q-12 -26 -15 -82h261zM415 602
h-301v56h301v-56z" />
    <glyph glyph-name="Ebreve" unicode="&#x114;" horiz-adv-x="600" 
d="M545 0h-442v712h442v-68h-366v-251h312v-68h-312v-257h366v-68zM478 933q-12 -139 -165 -139t-165 139h56q5 -40 34 -61.5t75 -21.5t75 21.5t34 61.5h56z" />
    <glyph glyph-name="ebreve" unicode="&#x115;" 
d="M467 227h-332q0 -82 37 -126t108 -44q42 0 70.5 13t58.5 43l49 -43q-40 -40 -80 -58t-100 -18q-102 0 -158.5 62.5t-56.5 189.5q0 119 54 185.5t148 66.5q95 0 148.5 -63.5t53.5 -175.5v-32zM396 281q-4 57 -16 82q-35 74 -115 74t-115 -74q-12 -26 -15 -82h261zM432 729
q-12 -139 -165 -139t-165 139h56q5 -40 34 -61.5t75 -21.5t75 21.5t34 61.5h56z" />
    <glyph glyph-name="Edotaccent" unicode="&#x116;" horiz-adv-x="600" 
d="M545 0h-442v712h442v-68h-366v-251h312v-68h-312v-257h366v-68zM274 797v76h75v-76h-75z" />
    <glyph glyph-name="edotaccent" unicode="&#x117;" 
d="M467 227h-332q0 -82 37 -126t108 -44q42 0 70.5 13t58.5 43l49 -43q-40 -40 -80 -58t-100 -18q-102 0 -158.5 62.5t-56.5 189.5q0 119 54 185.5t148 66.5q95 0 148.5 -63.5t53.5 -175.5v-32zM396 281q-4 57 -16 82q-35 74 -115 74t-115 -74q-12 -26 -15 -82h261zM226 610
v77h75v-77h-75z" />
    <glyph glyph-name="Eogonek" unicode="&#x118;" horiz-adv-x="600" 
d="M545 0h-442v712h442v-68h-366v-251h312v-68h-312v-257h366v-68zM545 -67l-59 -149h-79l71 149h67z" />
    <glyph glyph-name="eogonek" unicode="&#x119;" 
d="M467 227h-332q0 -82 37 -126t108 -44q42 0 70.5 13t58.5 43l49 -43q-40 -40 -80 -58t-100 -18q-102 0 -158.5 62.5t-56.5 189.5q0 119 54 185.5t148 66.5q95 0 148.5 -63.5t53.5 -175.5v-32zM396 281q-4 57 -16 82q-35 74 -115 74t-115 -74q-12 -26 -15 -82h261zM369 -67
l-59 -149h-79l71 149h67z" />
    <glyph glyph-name="Ecaron" unicode="&#x11a;" horiz-adv-x="600" 
d="M545 0h-442v712h442v-68h-366v-251h312v-68h-312v-257h366v-68zM471 933l-126 -153h-68l-125 153h69l90 -104l91 104h69z" />
    <glyph glyph-name="ecaron" unicode="&#x11b;" 
d="M467 227h-332q0 -82 37 -126t108 -44q42 0 70.5 13t58.5 43l49 -43q-40 -40 -80 -58t-100 -18q-102 0 -158.5 62.5t-56.5 189.5q0 119 54 185.5t148 66.5q95 0 148.5 -63.5t53.5 -175.5v-32zM396 281q-4 57 -16 82q-35 74 -115 74t-115 -74q-12 -26 -15 -82h261zM424 747
l-125 -153h-68l-126 153h69l91 -105l90 105h69z" />
    <glyph glyph-name="Gcircumflex" unicode="&#x11c;" horiz-adv-x="650" 
d="M576 259q0 -63 -13.5 -104t-47.5 -79q-75 -82 -190 -82q-108 0 -178 70q-47 47 -59 103t-12 189t12 189t59 103q70 70 178 70q99 0 166.5 -59.5t82.5 -153.5h-76q-15 68 -60.5 106.5t-112.5 38.5q-75 0 -123 -50q-32 -33 -41 -80.5t-9 -163.5t9 -163.5t41 -80.5
q48 -50 123 -50q85 0 135 61q40 50 40 129v55h-175v65h251v-113zM484 780h-69l-90 105l-91 -105h-69l126 153h68z" />
    <glyph glyph-name="gcircumflex" unicode="&#x11d;" horiz-adv-x="543" 
d="M453 -15q0 -93 -55 -152t-150 -59q-54 0 -90.5 15t-76.5 51l47 46q30 -27 54 -38t64 -11q68 0 101.5 42t33.5 109v77q-50 -64 -138 -64q-75 0 -119 44q-60 60 -60 205t60 205q43 43 120 43q89 0 138 -64v58h71v-507zM381 250q0 39 -4.5 68t-16.5 57.5t-37.5 43.5
t-63.5 15t-64 -15t-38 -43.5t-16.5 -57.5t-4.5 -68t4.5 -68t16.5 -57.5t38 -43.5t64 -15t63.5 15t37.5 43.5t16.5 57.5t4.5 68zM419 594h-69l-91 104l-90 -104h-69l125 153h68z" />
    <glyph glyph-name="Gbreve" unicode="&#x11e;" horiz-adv-x="650" 
d="M576 259q0 -63 -13.5 -104t-47.5 -79q-75 -82 -190 -82q-108 0 -178 70q-47 47 -59 103t-12 189t12 189t59 103q70 70 178 70q99 0 166.5 -59.5t82.5 -153.5h-76q-15 68 -60.5 106.5t-112.5 38.5q-75 0 -123 -50q-32 -33 -41 -80.5t-9 -163.5t9 -163.5t41 -80.5
q48 -50 123 -50q85 0 135 61q40 50 40 129v55h-175v65h251v-113zM490 933q-12 -139 -165 -139t-165 139h56q5 -40 34 -61.5t75 -21.5t75 21.5t34 61.5h56z" />
    <glyph glyph-name="gbreve" unicode="&#x11f;" horiz-adv-x="543" 
d="M453 -15q0 -93 -55 -152t-150 -59q-54 0 -90.5 15t-76.5 51l47 46q30 -27 54 -38t64 -11q68 0 101.5 42t33.5 109v77q-50 -64 -138 -64q-75 0 -119 44q-60 60 -60 205t60 205q43 43 120 43q89 0 138 -64v58h71v-507zM381 250q0 39 -4.5 68t-16.5 57.5t-37.5 43.5
t-63.5 15t-64 -15t-38 -43.5t-16.5 -57.5t-4.5 -68t4.5 -68t16.5 -57.5t38 -43.5t64 -15t63.5 15t37.5 43.5t16.5 57.5t4.5 68zM424 709q-12 -139 -165 -139t-165 139h56q5 -40 34 -61.5t75 -21.5t75 21.5t34 61.5h56z" />
    <glyph glyph-name="Gdotaccent" unicode="&#x120;" horiz-adv-x="650" 
d="M576 259q0 -63 -13.5 -104t-47.5 -79q-75 -82 -190 -82q-108 0 -178 70q-47 47 -59 103t-12 189t12 189t59 103q70 70 178 70q99 0 166.5 -59.5t82.5 -153.5h-76q-15 68 -60.5 106.5t-112.5 38.5q-75 0 -123 -50q-32 -33 -41 -80.5t-9 -163.5t9 -163.5t41 -80.5
q48 -50 123 -50q85 0 135 61q40 50 40 129v55h-175v65h251v-113zM286 797v76h75v-76h-75z" />
    <glyph glyph-name="gdotaccent" unicode="&#x121;" horiz-adv-x="543" 
d="M453 -15q0 -93 -55 -152t-150 -59q-54 0 -90.5 15t-76.5 51l47 46q30 -27 54 -38t64 -11q68 0 101.5 42t33.5 109v77q-50 -64 -138 -64q-75 0 -119 44q-60 60 -60 205t60 205q43 43 120 43q89 0 138 -64v58h71v-507zM381 250q0 39 -4.5 68t-16.5 57.5t-37.5 43.5
t-63.5 15t-64 -15t-38 -43.5t-16.5 -57.5t-4.5 -68t4.5 -68t16.5 -57.5t38 -43.5t64 -15t63.5 15t37.5 43.5t16.5 57.5t4.5 68zM220 610v77h75v-77h-75z" />
    <glyph glyph-name="Gcommaaccent" unicode="&#x122;" horiz-adv-x="650" 
d="M576 259q0 -63 -13.5 -104t-47.5 -79q-75 -82 -190 -82q-108 0 -178 70q-47 47 -59 103t-12 189t12 189t59 103q70 70 178 70q99 0 166.5 -59.5t82.5 -153.5h-76q-15 68 -60.5 106.5t-112.5 38.5q-75 0 -123 -50q-32 -33 -41 -80.5t-9 -163.5t9 -163.5t41 -80.5
q48 -50 123 -50q85 0 135 61q40 50 40 129v55h-175v65h251v-113zM329 -216h-78l71 149h66z" />
    <glyph glyph-name="gcommaaccent" unicode="&#x123;" horiz-adv-x="543" 
d="M453 -15q0 -93 -55 -152t-150 -59q-54 0 -90.5 15t-76.5 51l47 46q30 -27 54 -38t64 -11q68 0 101.5 42t33.5 109v77q-50 -64 -138 -64q-75 0 -119 44q-60 60 -60 205t60 205q43 43 120 43q89 0 138 -64v58h71v-507zM381 250q0 39 -4.5 68t-16.5 57.5t-37.5 43.5
t-63.5 15t-64 -15t-38 -43.5t-16.5 -57.5t-4.5 -68t4.5 -68t16.5 -57.5t38 -43.5t64 -15t63.5 15t37.5 43.5t16.5 57.5t4.5 68zM396 747l-108 -153h-66l88 153h86z" />
    <glyph glyph-name="Hcircumflex" unicode="&#x124;" horiz-adv-x="696" 
d="M593 0h-76v325h-338v-325h-76v712h76v-319h338v319h76v-712zM507 780h-69l-90 105l-91 -105h-69l126 153h68z" />
    <glyph glyph-name="hcircumflex" unicode="&#x125;" horiz-adv-x="562" 
d="M477 0h-72v304q0 64 -31.5 97t-88.5 33q-58 0 -90.5 -33t-32.5 -97v-304h-72v712h72v-274q54 60 138 60q83 0 130 -49t47 -133v-316zM287 780h-69l-91 104l-90 -104h-69l125 153h68z" />
    <glyph glyph-name="Hbar" unicode="&#x126;" horiz-adv-x="718" 
d="M678 515h-74v-515h-76v325h-338v-325h-76v515h-74v58h74v139h76v-139h338v139h76v-139h74v-58zM528 393v122h-338v-122h338z" />
    <glyph glyph-name="hbar" unicode="&#x127;" horiz-adv-x="562" 
d="M477 0h-72v304q0 63 -31.5 96.5t-88.5 33.5t-90 -33.5t-33 -96.5v-304h-72v572h-60v48h60v92h72v-92h124v-48h-124v-134q53 60 138 60q83 0 130 -49t47 -133v-316z" />
    <glyph glyph-name="Itilde" unicode="&#x128;" horiz-adv-x="282" 
d="M179 0h-76v712h76v-712zM298 844q-51 -50 -95 -50q-32 0 -71 23q-36 21 -56 21q-27 0 -59 -32l-37 36q51 51 95 51q33 0 71 -24q32 -20 56 -20q27 0 59 32z" />
    <glyph glyph-name="itilde" unicode="&#x129;" horiz-adv-x="252" 
d="M162 0h-72v492h72v-492zM285 658q-50 -51 -95 -51q-30 0 -71 24q-35 20 -56 20q-27 0 -59 -32l-37 36q51 51 95 51q33 0 71 -24q35 -20 56 -20q27 0 59 32z" />
    <glyph glyph-name="Imacron" unicode="&#x12a;" horiz-adv-x="282" 
d="M179 0h-76v712h76v-712zM-9 798v57h301v-57h-301z" />
    <glyph glyph-name="imacron" unicode="&#x12b;" horiz-adv-x="252" 
d="M162 0h-72v492h72v-492zM278 602h-301v56h301v-56z" />
    <glyph glyph-name="Ibreve" unicode="&#x12c;" horiz-adv-x="282" 
d="M179 0h-76v712h76v-712zM305 933q-12 -139 -165 -139t-165 139h56q5 -40 34 -61.5t75 -21.5t75 21.5t34 61.5h56z" />
    <glyph glyph-name="ibreve" unicode="&#x12d;" horiz-adv-x="252" 
d="M162 0h-72v492h72v-492zM291 729q-12 -139 -165 -139t-165 139h56q5 -40 34 -61.5t75 -21.5t75 21.5t34 61.5h56z" />
    <glyph glyph-name="Iogonek" unicode="&#x12e;" horiz-adv-x="282" 
d="M179 0h-76v712h76v-712zM170 -67l-59 -149h-79l71 149h67z" />
    <glyph glyph-name="iogonek" unicode="&#x12f;" horiz-adv-x="252" 
d="M162 0h-72v492h72v-492zM167 632h-81v81h81v-81zM158 -67l-59 -149h-79l71 149h67z" />
    <glyph glyph-name="Idotaccent" unicode="&#x130;" horiz-adv-x="282" 
d="M179 0h-76v712h76v-712zM103 797v76h75v-76h-75z" />
    <glyph glyph-name="dotlessi" unicode="&#x131;" horiz-adv-x="252" 
d="M162 0h-72v492h72v-492z" />
    <glyph glyph-name="IJ" unicode="&#x132;" horiz-adv-x="783" 
d="M179 0h-76v712h76v-712zM690 216q0 -102 -61.5 -162t-160.5 -60t-163 64l51 51q23 -23 47.5 -35t64.5 -12q70 0 108 42.5t38 121.5v486h76v-496z" />
    <glyph glyph-name="ij" unicode="&#x133;" horiz-adv-x="506" 
d="M162 0h-72v492h72v-492zM167 632h-81v81h81v-81zM415 -89q0 -59 -31.5 -95.5t-93.5 -36.5h-52v63h39q36 0 51 17.5t15 54.5v578h72v-581zM420 632h-81v81h81v-81z" />
    <glyph glyph-name="Jcircumflex" unicode="&#x134;" horiz-adv-x="501" 
d="M408 216q0 -102 -61.5 -162t-160.5 -60t-163 64l51 51q23 -23 47.5 -35t64.5 -12q70 0 108 42.5t38 121.5v486h76v-496zM529 780h-69l-90 105l-91 -105h-69l126 153h68z" />
    <glyph glyph-name="jcircumflex" unicode="&#x135;" horiz-adv-x="253" 
d="M162 -89q0 -59 -31.5 -95.5t-93.5 -36.5h-52v63h39q36 0 51 17.5t15 54.5v578h72v-581zM286 594h-69l-91 104l-90 -104h-69l125 153h68z" />
    <glyph glyph-name="Kcommaaccent" unicode="&#x136;" horiz-adv-x="650" 
d="M636 0h-90l-217 379l-150 -180v-199h-76v712h76v-409l332 409h93l-224 -275zM328 -216h-78l71 149h66z" />
    <glyph glyph-name="kcommaaccent" unicode="&#x137;" horiz-adv-x="536" 
d="M503 0h-89l-156 252l-96 -110v-142h-72v712h72v-476l222 256h90l-167 -188zM271 -216h-78l71 149h66z" />
    <glyph glyph-name="kgreenlandic" unicode="&#x138;" horiz-adv-x="536" 
d="M503 0h-89l-156 252l-96 -110v-142h-72v492h72v-256l222 256h90l-167 -188z" />
    <glyph glyph-name="Lacute" unicode="&#x139;" horiz-adv-x="573" 
d="M543 0h-440v712h76v-644h364v-68zM275 934l-105 -154h-69l91 154h83z" />
    <glyph glyph-name="lacute" unicode="&#x13a;" horiz-adv-x="294" 
d="M265 0h-52q-62 0 -93.5 36t-31.5 95v581h72v-578q0 -37 15 -54.5t51 -17.5h39v-62zM261 934l-105 -154h-69l91 154h83z" />
    <glyph glyph-name="Lcommaaccent" unicode="&#x13b;" horiz-adv-x="573" 
d="M543 0h-440v712h76v-644h364v-68zM289 -216h-78l71 149h66z" />
    <glyph glyph-name="lcommaaccent" unicode="&#x13c;" horiz-adv-x="294" 
d="M265 0h-52q-62 0 -93.5 36t-31.5 95v581h72v-578q0 -37 15 -54.5t51 -17.5h39v-62zM152 -216h-78l71 149h66z" />
    <glyph glyph-name="Lcaron" unicode="&#x13d;" horiz-adv-x="573" 
d="M543 0h-440v712h76v-644h364v-68zM405 712l-51 -152h-58l39 152h70z" />
    <glyph glyph-name="lcaron" unicode="&#x13e;" horiz-adv-x="294" 
d="M265 0h-52q-62 0 -93.5 36t-31.5 95v581h72v-578q0 -37 15 -54.5t51 -17.5h39v-62zM331 719l-51 -152h-58l39 152h70z" />
    <glyph glyph-name="Ldot" unicode="&#x13f;" horiz-adv-x="573" 
d="M543 0h-440v712h76v-644h364v-68zM389 320v76h75v-76h-75z" />
    <glyph glyph-name="ldot" unicode="&#x140;" horiz-adv-x="294" 
d="M265 0h-52q-62 0 -93.5 36t-31.5 95v581h72v-578q0 -37 15 -54.5t51 -17.5h39v-62zM233 231v77h75v-77h-75z" />
    <glyph glyph-name="Lslash" unicode="&#x141;" horiz-adv-x="582" 
d="M552 0h-440v289l-73 -46v67l73 46v356h77v-308l154 98v-66l-154 -98v-270h363v-68z" />
    <glyph glyph-name="lslash" unicode="&#x142;" horiz-adv-x="315" 
d="M278 0h-52q-62 0 -94 36t-32 95v211l-63 -39v62l63 39v308h72v-264l81 50v-62l-81 -50v-252q0 -37 15 -54.5t51 -17.5h40v-62z" />
    <glyph glyph-name="Nacute" unicode="&#x143;" horiz-adv-x="732" 
d="M629 0h-72l-378 571v-571h-76v712h72l378 -569v569h76v-712zM489 934l-105 -154h-69l91 154h83z" />
    <glyph glyph-name="nacute" unicode="&#x144;" horiz-adv-x="562" 
d="M477 0h-72v303q0 64 -32 97.5t-89 33.5t-89.5 -34t-32.5 -97v-303h-72v492h72v-54q52 60 138 60q80 0 126 -46q51 -50 51 -137v-315zM405 747l-105 -153h-69l91 153h83z" />
    <glyph glyph-name="Ncommaaccent" unicode="&#x145;" horiz-adv-x="732" 
d="M629 0h-72l-378 571v-571h-76v712h72l378 -569v569h76v-712zM359 -216h-78l71 149h66z" />
    <glyph glyph-name="ncommaaccent" unicode="&#x146;" horiz-adv-x="562" 
d="M477 0h-72v303q0 64 -32 97.5t-89 33.5t-89.5 -34t-32.5 -97v-303h-72v492h72v-54q52 60 138 60q80 0 126 -46q51 -50 51 -137v-315zM284 -216h-78l71 149h66z" />
    <glyph glyph-name="Ncaron" unicode="&#x147;" horiz-adv-x="732" 
d="M629 0h-72l-378 571v-571h-76v712h72l378 -569v569h76v-712zM526 933l-126 -153h-68l-125 153h69l90 -104l91 104h69z" />
    <glyph glyph-name="ncaron" unicode="&#x148;" horiz-adv-x="562" 
d="M477 0h-72v303q0 64 -32 97.5t-89 33.5t-89.5 -34t-32.5 -97v-303h-72v492h72v-54q52 60 138 60q80 0 126 -46q51 -50 51 -137v-315zM440 747l-125 -153h-68l-126 153h69l91 -105l90 105h69z" />
    <glyph glyph-name="napostrophe" unicode="&#x149;" horiz-adv-x="562" 
d="M477 0h-72v303q0 64 -32 97.5t-89 33.5t-89.5 -34t-32.5 -97v-303h-72v492h72v-54q52 60 138 60q80 0 126 -46q51 -50 51 -137v-315zM90 594l-68 -65v190h68v-125z" />
    <glyph glyph-name="Eng" unicode="&#x14a;" horiz-adv-x="732" 
d="M629 -84q0 -59 -31.5 -95.5t-93.5 -36.5h-52v63h37q34 0 49 17.5t15 54.5v87l-374 565v-571h-76v712h72l378 -569v569h76v-796z" />
    <glyph glyph-name="eng" unicode="&#x14b;" horiz-adv-x="562" 
d="M477 -84q0 -59 -31.5 -95.5t-93.5 -36.5h-52v63h39q36 0 51 17.5t15 54.5v384q0 64 -32 97.5t-89 33.5t-89.5 -34t-32.5 -97v-303h-72v492h72v-54q52 60 138 60q80 0 126 -46q51 -50 51 -137v-399z" />
    <glyph glyph-name="Omacron" unicode="&#x14c;" horiz-adv-x="650" 
d="M574 356q0 -132 -12 -188t-60 -104q-70 -70 -177 -70q-108 0 -178 70q-47 47 -59 103t-12 189t12 189t59 103q70 70 178 70q107 0 177 -70q48 -48 60 -104t12 -188zM498 356q0 116 -9 163.5t-41 80.5q-50 50 -123 50t-123 -50q-32 -33 -41 -80.5t-9 -163.5t9 -163.5
t41 -80.5q50 -50 123 -50t123 50q32 33 41 80.5t9 163.5zM173 798v57h301v-57h-301z" />
    <glyph glyph-name="omacron" unicode="&#x14d;" 
d="M466 246q0 -135 -60 -196q-54 -56 -141 -56t-141 56q-60 61 -60 196q0 136 60 196q54 56 141 56t141 -56q60 -60 60 -196zM394 246q0 113 -39 152q-36 36 -90 36q-53 0 -89 -36q-40 -40 -40 -152t40 -152q36 -36 89 -36q54 0 90 36q39 40 39 152zM416 602h-301v56h301
v-56z" />
    <glyph glyph-name="Obreve" unicode="&#x14e;" horiz-adv-x="650" 
d="M574 356q0 -132 -12 -188t-60 -104q-70 -70 -177 -70q-108 0 -178 70q-47 47 -59 103t-12 189t12 189t59 103q70 70 178 70q107 0 177 -70q48 -48 60 -104t12 -188zM498 356q0 116 -9 163.5t-41 80.5q-50 50 -123 50t-123 -50q-32 -33 -41 -80.5t-9 -163.5t9 -163.5
t41 -80.5q50 -50 123 -50t123 50q32 33 41 80.5t9 163.5zM490 933q-12 -139 -165 -139t-165 139h56q5 -40 34 -61.5t75 -21.5t75 21.5t34 61.5h56z" />
    <glyph glyph-name="obreve" unicode="&#x14f;" 
d="M466 246q0 -135 -60 -196q-54 -56 -141 -56t-141 56q-60 61 -60 196q0 136 60 196q54 56 141 56t141 -56q60 -60 60 -196zM394 246q0 113 -39 152q-36 36 -90 36q-53 0 -89 -36q-40 -40 -40 -152t40 -152q36 -36 89 -36q54 0 90 36q39 40 39 152zM430 729
q-12 -139 -165 -139t-165 139h56q5 -40 34 -61.5t75 -21.5t75 21.5t34 61.5h56z" />
    <glyph glyph-name="Ohungarumlaut" unicode="&#x150;" horiz-adv-x="650" 
d="M574 356q0 -132 -12 -188t-60 -104q-70 -70 -177 -70q-108 0 -178 70q-47 47 -59 103t-12 189t12 189t59 103q70 70 178 70q107 0 177 -70q48 -48 60 -104t12 -188zM498 356q0 116 -9 163.5t-41 80.5q-50 50 -123 50t-123 -50q-32 -33 -41 -80.5t-9 -163.5t9 -163.5
t41 -80.5q50 -50 123 -50t123 50q32 33 41 80.5t9 163.5zM379 934l-108 -153h-66l89 153h85zM542 934l-109 -153h-65l89 153h85z" />
    <glyph glyph-name="ohungarumlaut" unicode="&#x151;" 
d="M466 246q0 -135 -60 -196q-54 -56 -141 -56t-141 56q-60 61 -60 196q0 136 60 196q54 56 141 56t141 -56q60 -60 60 -196zM394 246q0 113 -39 152q-36 36 -90 36q-53 0 -89 -36q-40 -40 -40 -152t40 -152q36 -36 89 -36q54 0 90 36q39 40 39 152zM319 747l-108 -153h-66
l89 153h85zM482 747l-109 -153h-65l89 153h85z" />
    <glyph glyph-name="OE" unicode="&#x152;" horiz-adv-x="989" 
d="M324 -6q-107 0 -177 70q-47 47 -59 103t-12 189t12 189t59 103q70 70 177 70q108 0 173 -80v74h434v-67h-358v-254h305v-64h-305v-260h358v-67h-434v74q-65 -80 -173 -80zM325 62q74 0 123 51q32 33 40.5 79t8.5 164t-8.5 164t-40.5 79q-49 51 -123 51q-75 0 -123 -50
q-32 -33 -41 -80.5t-9 -163.5t9 -163.5t41 -80.5q48 -50 123 -50z" />
    <glyph glyph-name="oe" unicode="&#x153;" horiz-adv-x="861" 
d="M798 227h-332q0 -82 37 -126t108 -44q42 0 70.5 13t58.5 43l49 -43q-40 -40 -80 -58t-100 -18q-124 0 -177 95q-23 -45 -67 -70t-100 -25q-87 0 -141 56q-60 61 -60 196q0 136 60 196q54 56 141 56q118 0 168 -95q49 95 163 95q95 0 148.5 -64t53.5 -174v-33zM727 281
q-4 57 -16 82q-35 74 -115 74t-115 -74q-12 -26 -15 -82h261zM394 246q0 113 -39 152q-36 36 -90 36q-53 0 -89 -36q-40 -40 -40 -152t40 -152q36 -36 89 -36q54 0 90 36q39 40 39 152z" />
    <glyph glyph-name="Racute" unicode="&#x154;" horiz-adv-x="656" 
d="M601 0h-89l-162 316h-171v-316h-76v712h273q94 0 152.5 -53.5t58.5 -144.5q0 -76 -42 -126t-113 -65zM511 513q0 63 -39 97t-103 34h-190v-261h190q65 0 103.5 33.5t38.5 96.5zM451 934l-105 -154h-69l91 154h83z" />
    <glyph glyph-name="racute" unicode="&#x155;" horiz-adv-x="421" 
d="M418 452l-53 -54q-20 20 -38.5 28t-46.5 8q-53 0 -85.5 -37.5t-32.5 -94.5v-302h-72v492h72v-60q20 31 57.5 48.5t80.5 17.5q72 0 118 -46zM335 747l-105 -153h-69l91 153h83z" />
    <glyph glyph-name="Rcommaaccent" unicode="&#x156;" horiz-adv-x="656" 
d="M601 0h-89l-162 316h-171v-316h-76v712h273q94 0 152.5 -53.5t58.5 -144.5q0 -76 -42 -126t-113 -65zM511 513q0 63 -39 97t-103 34h-190v-261h190q65 0 103.5 33.5t38.5 96.5zM331 -216h-78l71 149h66z" />
    <glyph glyph-name="rcommaaccent" unicode="&#x157;" horiz-adv-x="421" 
d="M418 452l-53 -54q-20 20 -38.5 28t-46.5 8q-53 0 -85.5 -37.5t-32.5 -94.5v-302h-72v492h72v-60q20 31 57.5 48.5t80.5 17.5q72 0 118 -46zM101 -216h-78l71 149h66z" />
    <glyph glyph-name="Rcaron" unicode="&#x158;" horiz-adv-x="656" 
d="M601 0h-89l-162 316h-171v-316h-76v712h273q94 0 152.5 -53.5t58.5 -144.5q0 -76 -42 -126t-113 -65zM511 513q0 63 -39 97t-103 34h-190v-261h190q65 0 103.5 33.5t38.5 96.5zM488 933l-126 -153h-68l-125 153h69l90 -104l91 104h69z" />
    <glyph glyph-name="rcaron" unicode="&#x159;" horiz-adv-x="421" 
d="M418 452l-53 -54q-20 20 -38.5 28t-46.5 8q-53 0 -85.5 -37.5t-32.5 -94.5v-302h-72v492h72v-60q20 31 57.5 48.5t80.5 17.5q72 0 118 -46zM390 747l-125 -153h-68l-126 153h69l91 -105l90 105h69z" />
    <glyph glyph-name="Sacute" unicode="&#x15a;" horiz-adv-x="588" 
d="M532 196q0 -93 -67 -147.5t-179 -54.5q-80 0 -137 22t-106 72l51 51q43 -43 87.5 -60t106.5 -17q79 0 124 34.5t45 97.5q0 58 -35 89q-27 25 -93 35l-83 12q-84 13 -130 54q-55 49 -55 134q0 91 61.5 145.5t166.5 54.5q67 0 116.5 -18.5t95.5 -59.5l-49 -49
q-65 62 -166 62q-71 0 -111 -36t-40 -97q0 -55 32 -83q31 -27 93 -37l83 -13q50 -8 77.5 -18.5t51.5 -32.5q60 -52 60 -140zM417 934l-105 -154h-69l91 154h83z" />
    <glyph glyph-name="sacute" unicode="&#x15b;" horiz-adv-x="496" 
d="M445 144q0 -70 -54.5 -110t-145.5 -40q-130 0 -202 71l48 48q54 -57 153 -57q62 0 96.5 22t34.5 65q0 65 -82 72l-81 7q-147 12 -147 132q0 66 50 105t131 39q111 0 177 -53l-47 -47q-51 39 -131 39q-53 0 -81.5 -21t-28.5 -60q0 -33 21 -50t67 -22l77 -7
q70 -7 107.5 -37t37.5 -96zM372 747l-105 -153h-69l91 153h83z" />
    <glyph glyph-name="Scircumflex" unicode="&#x15c;" horiz-adv-x="588" 
d="M532 196q0 -93 -67 -147.5t-179 -54.5q-80 0 -137 22t-106 72l51 51q43 -43 87.5 -60t106.5 -17q79 0 124 34.5t45 97.5q0 58 -35 89q-27 25 -93 35l-83 12q-84 13 -130 54q-55 49 -55 134q0 91 61.5 145.5t166.5 54.5q67 0 116.5 -18.5t95.5 -59.5l-49 -49
q-65 62 -166 62q-71 0 -111 -36t-40 -97q0 -55 32 -83q31 -27 93 -37l83 -13q50 -8 77.5 -18.5t51.5 -32.5q60 -52 60 -140zM448 780h-69l-90 105l-91 -105h-69l126 153h68z" />
    <glyph glyph-name="scircumflex" unicode="&#x15d;" horiz-adv-x="496" 
d="M445 144q0 -70 -54.5 -110t-145.5 -40q-130 0 -202 71l48 48q54 -57 153 -57q62 0 96.5 22t34.5 65q0 65 -82 72l-81 7q-147 12 -147 132q0 66 50 105t131 39q111 0 177 -53l-47 -47q-51 39 -131 39q-53 0 -81.5 -21t-28.5 -60q0 -33 21 -50t67 -22l77 -7
q70 -7 107.5 -37t37.5 -96zM406 594h-69l-91 104l-90 -104h-69l125 153h68z" />
    <glyph glyph-name="Scedilla" unicode="&#x15e;" horiz-adv-x="588" 
d="M532 196q0 -93 -67 -147.5t-179 -54.5q-80 0 -137 22t-106 72l51 51q43 -43 87.5 -60t106.5 -17q79 0 124 34.5t45 97.5q0 58 -35 89q-27 25 -93 35l-83 12q-84 13 -130 54q-55 49 -55 134q0 91 61.5 145.5t166.5 54.5q67 0 116.5 -18.5t95.5 -59.5l-49 -49
q-65 62 -166 62q-71 0 -111 -36t-40 -97q0 -55 32 -83q31 -27 93 -37l83 -13q50 -8 77.5 -18.5t51.5 -32.5q60 -52 60 -140zM357 -67l-59 -149h-79l71 149h67z" />
    <glyph glyph-name="scedilla" unicode="&#x15f;" horiz-adv-x="496" 
d="M445 144q0 -70 -54.5 -110t-145.5 -40q-130 0 -202 71l48 48q54 -57 153 -57q62 0 96.5 22t34.5 65q0 65 -82 72l-81 7q-147 12 -147 132q0 66 50 105t131 39q111 0 177 -53l-47 -47q-51 39 -131 39q-53 0 -81.5 -21t-28.5 -60q0 -33 21 -50t67 -22l77 -7
q70 -7 107.5 -37t37.5 -96zM311 -67l-59 -149h-79l71 149h67z" />
    <glyph glyph-name="Scaron" unicode="&#x160;" horiz-adv-x="588" 
d="M532 196q0 -93 -67 -147.5t-179 -54.5q-80 0 -137 22t-106 72l51 51q43 -43 87.5 -60t106.5 -17q79 0 124 34.5t45 97.5q0 58 -35 89q-27 25 -93 35l-83 12q-84 13 -130 54q-55 49 -55 134q0 91 61.5 145.5t166.5 54.5q67 0 116.5 -18.5t95.5 -59.5l-49 -49
q-65 62 -166 62q-71 0 -111 -36t-40 -97q0 -55 32 -83q31 -27 93 -37l83 -13q50 -8 77.5 -18.5t51.5 -32.5q60 -52 60 -140zM449 933l-126 -153h-68l-125 153h69l90 -104l91 104h69z" />
    <glyph glyph-name="scaron" unicode="&#x161;" horiz-adv-x="496" 
d="M445 144q0 -70 -54.5 -110t-145.5 -40q-130 0 -202 71l48 48q54 -57 153 -57q62 0 96.5 22t34.5 65q0 65 -82 72l-81 7q-147 12 -147 132q0 66 50 105t131 39q111 0 177 -53l-47 -47q-51 39 -131 39q-53 0 -81.5 -21t-28.5 -60q0 -33 21 -50t67 -22l77 -7
q70 -7 107.5 -37t37.5 -96zM405 747l-125 -153h-68l-126 153h69l91 -105l90 105h69z" />
    <glyph glyph-name="Tcommaaccent" unicode="&#x162;" horiz-adv-x="548" 
d="M518 644h-206v-644h-76v644h-206v68h488v-68zM308 -67l-59 -149h-79l71 149h67z" />
    <glyph glyph-name="tcommaaccent" unicode="&#x163;" horiz-adv-x="332" 
d="M279 0h-51q-61 0 -93.5 37t-32.5 95v305h-62v55h62v151h72v-151h105v-55h-105v-303q0 -72 67 -72h38v-62zM229 -67l-59 -149h-79l71 149h67z" />
    <glyph glyph-name="Tcaron" unicode="&#x164;" horiz-adv-x="548" 
d="M518 644h-206v-644h-76v644h-206v68h488v-68zM434 933l-126 -153h-68l-125 153h69l90 -104l91 104h69z" />
    <glyph glyph-name="tcaron" unicode="&#x165;" horiz-adv-x="332" 
d="M279 0h-51q-61 0 -93.5 37t-32.5 95v305h-62v55h62v151h72v-151h105v-55h-105v-303q0 -72 67 -72h38v-62zM345 719l-51 -152h-58l39 152h70z" />
    <glyph glyph-name="Tbar" unicode="&#x166;" horiz-adv-x="548" 
d="M518 644h-206v-255h120v-59h-120v-330h-76v330h-120v59h120v255h-206v68h488v-68z" />
    <glyph glyph-name="tbar" unicode="&#x167;" horiz-adv-x="332" 
d="M279 0h-51q-61 0 -93.5 37t-32.5 95v111h-62v55h62v139h-62v55h62v151h72v-151h105v-55h-105v-139h105v-55h-105v-109q0 -72 67 -72h38v-62z" />
    <glyph glyph-name="Utilde" unicode="&#x168;" horiz-adv-x="683" 
d="M590 235q0 -106 -70.5 -173.5t-178.5 -67.5t-178 67.5t-70 173.5v477h76v-471q0 -81 47 -130t125 -49t125.5 49t47.5 130v471h76v-477zM500 844q-51 -50 -95 -50q-32 0 -71 23q-36 21 -56 21q-27 0 -59 -32l-37 36q51 51 95 51q33 0 71 -24q32 -20 56 -20q27 0 59 32z
" />
    <glyph glyph-name="utilde" unicode="&#x169;" horiz-adv-x="562" 
d="M472 0h-71v55q-53 -61 -139 -61q-81 0 -127 46q-50 49 -50 138v314h72v-303q0 -64 31.5 -97.5t88.5 -33.5t90 34t33 97v303h72v-492zM436 658q-50 -51 -95 -51q-30 0 -71 24q-35 20 -56 20q-27 0 -59 -32l-37 36q51 51 95 51q33 0 71 -24q35 -20 56 -20q27 0 59 32z" />
    <glyph glyph-name="Umacron" unicode="&#x16a;" horiz-adv-x="683" 
d="M590 235q0 -106 -70.5 -173.5t-178.5 -67.5t-178 67.5t-70 173.5v477h76v-471q0 -81 47 -130t125 -49t125.5 49t47.5 130v471h76v-477zM190 798v57h301v-57h-301z" />
    <glyph glyph-name="umacron" unicode="&#x16b;" horiz-adv-x="562" 
d="M472 0h-71v55q-53 -61 -139 -61q-81 0 -127 46q-50 49 -50 138v314h72v-303q0 -64 31.5 -97.5t88.5 -33.5t90 34t33 97v303h72v-492zM431 602h-301v56h301v-56z" />
    <glyph glyph-name="Ubreve" unicode="&#x16c;" horiz-adv-x="683" 
d="M590 235q0 -106 -70.5 -173.5t-178.5 -67.5t-178 67.5t-70 173.5v477h76v-471q0 -81 47 -130t125 -49t125.5 49t47.5 130v471h76v-477zM506 933q-12 -139 -165 -139t-165 139h56q5 -40 34 -61.5t75 -21.5t75 21.5t34 61.5h56z" />
    <glyph glyph-name="ubreve" unicode="&#x16d;" horiz-adv-x="562" 
d="M472 0h-71v55q-53 -61 -139 -61q-81 0 -127 46q-50 49 -50 138v314h72v-303q0 -64 31.5 -97.5t88.5 -33.5t90 34t33 97v303h72v-492zM442 729q-12 -139 -165 -139t-165 139h56q5 -40 34 -61.5t75 -21.5t75 21.5t34 61.5h56z" />
    <glyph glyph-name="Uring" unicode="&#x16e;" horiz-adv-x="683" 
d="M590 235q0 -106 -70.5 -173.5t-178.5 -67.5t-178 67.5t-70 173.5v477h76v-471q0 -81 47 -130t125 -49t125.5 49t47.5 130v471h76v-477zM459 874q0 -49 -34.5 -84t-83.5 -35t-83.5 35t-34.5 84t34.5 83.5t83.5 34.5t83.5 -34.5t34.5 -83.5zM410 874q0 28 -20 48t-49 20
t-49 -20t-20 -48t20 -48.5t49 -20.5t49 20.5t20 48.5z" />
    <glyph glyph-name="uring" unicode="&#x16f;" horiz-adv-x="562" 
d="M472 0h-71v55q-53 -61 -139 -61q-81 0 -127 46q-50 49 -50 138v314h72v-303q0 -64 31.5 -97.5t88.5 -33.5t90 34t33 97v303h72v-492zM399 687q0 -49 -34.5 -84t-83.5 -35t-83.5 35t-34.5 84t34.5 83.5t83.5 34.5t83.5 -34.5t34.5 -83.5zM350 687q0 28 -20 48t-49 20
t-49 -20t-20 -48q0 -29 20 -49t49 -20t49 20t20 49z" />
    <glyph glyph-name="Uhungarumlaut" unicode="&#x170;" horiz-adv-x="683" 
d="M590 235q0 -106 -70.5 -173.5t-178.5 -67.5t-178 67.5t-70 173.5v477h76v-471q0 -81 47 -130t125 -49t125.5 49t47.5 130v471h76v-477zM395 934l-108 -153h-66l89 153h85zM558 934l-109 -153h-65l89 153h85z" />
    <glyph glyph-name="uhungarumlaut" unicode="&#x171;" horiz-adv-x="562" 
d="M472 0h-71v55q-53 -61 -139 -61q-81 0 -127 46q-50 49 -50 138v314h72v-303q0 -64 31.5 -97.5t88.5 -33.5t90 34t33 97v303h72v-492zM335 747l-108 -153h-66l89 153h85zM498 747l-109 -153h-65l89 153h85z" />
    <glyph glyph-name="Uogonek" unicode="&#x172;" horiz-adv-x="683" 
d="M590 235q0 -106 -70.5 -173.5t-178.5 -67.5t-178 67.5t-70 173.5v477h76v-471q0 -81 47 -130t125 -49t125.5 49t47.5 130v471h76v-477zM478 -67l-59 -149h-79l71 149h67z" />
    <glyph glyph-name="uogonek" unicode="&#x173;" horiz-adv-x="562" 
d="M472 0h-71v55q-53 -61 -139 -61q-81 0 -127 46q-50 49 -50 138v314h72v-303q0 -64 31.5 -97.5t88.5 -33.5t90 34t33 97v303h72v-492zM468 -67l-59 -149h-79l71 149h67z" />
    <glyph glyph-name="Wcircumflex" unicode="&#x174;" horiz-adv-x="854" 
d="M838 712l-182 -712h-71l-158 570l-158 -570h-71l-182 712h81l139 -574l157 574h68l157 -574l139 574h81zM586 780h-69l-90 105l-91 -105h-69l126 153h68z" />
    <glyph glyph-name="wcircumflex" unicode="&#x175;" horiz-adv-x="724" 
d="M713 492l-155 -492h-67l-129 382l-128 -382h-67l-156 492h78l113 -395l129 395h62l130 -395l112 395h78zM522 594h-69l-91 104l-90 -104h-69l125 153h68z" />
    <glyph glyph-name="Ycircumflex" unicode="&#x176;" horiz-adv-x="514" 
d="M506 712l-210 -418v-294h-76v294l-212 418h82l168 -341l166 341h82zM416 780h-69l-90 105l-91 -105h-69l126 153h68z" />
    <glyph glyph-name="ycircumflex" unicode="&#x177;" horiz-adv-x="447" 
d="M436 492l-224 -611q-14 -39 -35 -58q-35 -34 -96 -34h-31v64h22q36 0 52.5 13t28.5 48l35 96l-177 482h78l135 -395l134 395h78zM383 594h-69l-91 104l-90 -104h-69l125 153h68z" />
    <glyph glyph-name="Ydieresis" unicode="&#x178;" horiz-adv-x="514" 
d="M506 712l-210 -418v-294h-76v294l-212 418h82l168 -341l166 341h82zM399 789h-72v89h72v-89zM187 789h-72v89h72v-89z" />
    <glyph glyph-name="Zacute" unicode="&#x179;" horiz-adv-x="556" 
d="M499 0h-442v72l356 572h-342v68h428v-64l-359 -580h359v-68zM401 934l-105 -154h-69l91 154h83z" />
    <glyph glyph-name="zacute" unicode="&#x17a;" horiz-adv-x="459" 
d="M407 0h-357v62l274 366h-259v64h342v-61l-275 -367h275v-64zM354 747l-105 -153h-69l91 153h83z" />
    <glyph glyph-name="Zdotaccent" unicode="&#x17b;" horiz-adv-x="556" 
d="M499 0h-442v72l356 572h-342v68h428v-64l-359 -580h359v-68zM239 797v76h75v-76h-75z" />
    <glyph glyph-name="zdotaccent" unicode="&#x17c;" horiz-adv-x="459" 
d="M407 0h-357v62l274 366h-259v64h342v-61l-275 -367h275v-64zM192 610v77h75v-77h-75z" />
    <glyph glyph-name="Zcaron" unicode="&#x17d;" horiz-adv-x="556" 
d="M499 0h-442v72l356 572h-342v68h428v-64l-359 -580h359v-68zM444 933l-126 -153h-68l-125 153h69l90 -104l91 104h69z" />
    <glyph glyph-name="zcaron" unicode="&#x17e;" horiz-adv-x="459" 
d="M407 0h-357v62l274 366h-259v64h342v-61l-275 -367h275v-64zM395 747l-125 -153h-68l-126 153h69l91 -105l90 105h69z" />
    <glyph glyph-name="longs" unicode="&#x17f;" horiz-adv-x="252" 
d="M215 712h52v-62h-39q-36 0 -51 -17.5t-15 -54.5v-578h-72v581q0 59 31.5 95t93.5 36z" />
    <glyph glyph-name="uni018F" unicode="&#x18f;" horiz-adv-x="650" 
d="M74 260v113h424q-1 106 -10 150t-40 76q-49 51 -123 51q-66 0 -112 -38.5t-61 -106.5h-76q16 96 82.5 154.5t166.5 58.5q108 0 182 -74q46 -46 56.5 -101.5t10.5 -186.5t-10.5 -186.5t-56.5 -101.5q-74 -74 -182 -74q-114 0 -190 82q-61 65 -61 184zM150 306v-54
q0 -81 40 -129q50 -61 135 -61q75 0 123 50q29 29 38.5 69t11.5 125h-348z" />
    <glyph glyph-name="florin" unicode="&#x192;" horiz-adv-x="403" 
d="M373 652h-50q-66 0 -79 -72l-34 -196h105v-54h-115l-97 -550h-72l97 550h-98v54h108l34 198q10 58 49.5 95t99.5 37h52v-62z" />
    <glyph glyph-name="uni01B5" unicode="&#x1b5;" horiz-adv-x="556" 
d="M499 0h-442v72l160 258h-97v59h134l159 255h-342v68h428v-64l-161 -259h98v-59h-134l-162 -262h359v-68z" />
    <glyph glyph-name="uni01B6" unicode="&#x1b6;" horiz-adv-x="459" 
d="M407 0h-357v62l120 160h-52v48h88l118 158h-259v64h342v-61l-121 -161h53v-48h-89l-118 -158h275v-64z" />
    <glyph glyph-name="uni01C4" unicode="&#x1c4;" horiz-adv-x="1229" 
d="M597 356q0 -72 -2 -110t-17 -88.5t-44 -82.5q-69 -75 -187 -75h-244v712h244q118 0 187 -75q29 -32 44 -82.5t17 -88.5t2 -110zM521 356q0 63 -2 97t-12.5 75t-32.5 64q-47 52 -140 52h-155v-576h155q93 0 140 52q22 23 32.5 64t12.5 75t2 97zM1172 0h-442v72l356 572
h-342v68h428v-64l-359 -580h359v-68zM1117 933l-126 -153h-68l-125 153h69l90 -104l91 104h69z" />
    <glyph glyph-name="uni01C5" unicode="&#x1c5;" horiz-adv-x="1132" 
d="M597 356q0 -72 -2 -110t-17 -88.5t-44 -82.5q-69 -75 -187 -75h-244v712h244q118 0 187 -75q29 -32 44 -82.5t17 -88.5t2 -110zM521 356q0 63 -2 97t-12.5 75t-32.5 64q-47 52 -140 52h-155v-576h155q93 0 140 52q22 23 32.5 64t12.5 75t2 97zM1080 0h-357v62l274 366
h-259v64h342v-61l-275 -367h275v-64zM1068 747l-125 -153h-68l-126 153h69l91 -105l90 105h69z" />
    <glyph glyph-name="uni01C6" unicode="&#x1c6;" horiz-adv-x="1004" 
d="M455 0h-71v59q-29 -37 -62 -51t-78 -14q-77 0 -120 43q-60 61 -60 209q0 149 60 209q43 43 120 43q45 0 77.5 -13.5t61.5 -49.5v277h72v-712zM383 246q0 41 -4.5 71t-16.5 58.5t-38 43.5t-64 15q-31 0 -54 -10.5t-36.5 -27.5t-21 -43t-10 -50.5t-2.5 -56.5t2.5 -56.5
t10 -50.5t21 -43t36.5 -27.5t54 -10.5q38 0 64 15t38 43.5t16.5 58.5t4.5 71zM952 0h-357v62l274 366h-259v64h342v-61l-275 -367h275v-64zM940 747l-125 -153h-68l-126 153h69l91 -105l90 105h69z" />
    <glyph glyph-name="uni01C7" unicode="&#x1c7;" horiz-adv-x="1074" 
d="M543 0h-440v712h76v-644h364v-68zM981 216q0 -102 -61.5 -162t-160.5 -60t-163 64l51 51q23 -23 47.5 -35t64.5 -12q70 0 108 42.5t38 121.5v486h76v-496z" />
    <glyph glyph-name="uni01C8" unicode="&#x1c8;" horiz-adv-x="826" 
d="M543 0h-440v712h76v-644h364v-68zM735 -89q0 -59 -31.5 -95.5t-93.5 -36.5h-52v63h39q36 0 51 17.5t15 54.5v578h72v-581zM740 632h-81v81h81v-81z" />
    <glyph glyph-name="uni01C9" unicode="&#x1c9;" horiz-adv-x="550" 
d="M265 0h-52q-62 0 -93.5 36t-31.5 95v581h72v-578q0 -37 15 -54.5t51 -17.5h39v-62zM459 -89q0 -59 -31.5 -95.5t-93.5 -36.5h-52v63h39q36 0 51 17.5t15 54.5v578h72v-581zM464 632h-81v81h81v-81z" />
    <glyph glyph-name="uni01CA" unicode="&#x1ca;" horiz-adv-x="1233" 
d="M629 0h-72l-378 571v-571h-76v712h72l378 -569v569h76v-712zM1140 216q0 -102 -61.5 -162t-160.5 -60t-163 64l51 51q23 -23 47.5 -35t64.5 -12q70 0 108 42.5t38 121.5v486h76v-496z" />
    <glyph glyph-name="uni01CB" unicode="&#x1cb;" horiz-adv-x="985" 
d="M629 0h-72l-378 571v-571h-76v712h72l378 -569v569h76v-712zM894 -89q0 -59 -31.5 -95.5t-93.5 -36.5h-52v63h39q36 0 51 17.5t15 54.5v578h72v-581zM899 632h-81v81h81v-81z" />
    <glyph glyph-name="uni01CC" unicode="&#x1cc;" horiz-adv-x="815" 
d="M477 0h-72v303q0 64 -32 97.5t-89 33.5t-89.5 -34t-32.5 -97v-303h-72v492h72v-54q52 60 138 60q80 0 126 -46q51 -50 51 -137v-315zM724 -89q0 -59 -31.5 -95.5t-93.5 -36.5h-52v63h39q36 0 51 17.5t15 54.5v578h72v-581zM729 632h-81v81h81v-81z" />
    <glyph glyph-name="uni01F1" unicode="&#x1f1;" horiz-adv-x="1229" 
d="M597 356q0 -72 -2 -110t-17 -88.5t-44 -82.5q-69 -75 -187 -75h-244v712h244q118 0 187 -75q29 -32 44 -82.5t17 -88.5t2 -110zM521 356q0 63 -2 97t-12.5 75t-32.5 64q-47 52 -140 52h-155v-576h155q93 0 140 52q22 23 32.5 64t12.5 75t2 97zM1172 0h-442v72l356 572
h-342v68h428v-64l-359 -580h359v-68z" />
    <glyph glyph-name="uni01F2" unicode="&#x1f2;" horiz-adv-x="1132" 
d="M597 356q0 -72 -2 -110t-17 -88.5t-44 -82.5q-69 -75 -187 -75h-244v712h244q118 0 187 -75q29 -32 44 -82.5t17 -88.5t2 -110zM521 356q0 63 -2 97t-12.5 75t-32.5 64q-47 52 -140 52h-155v-576h155q93 0 140 52q22 23 32.5 64t12.5 75t2 97zM1080 0h-357v62l274 366
h-259v64h342v-61l-275 -367h275v-64z" />
    <glyph glyph-name="uni01F3" unicode="&#x1f3;" horiz-adv-x="1004" 
d="M455 0h-71v59q-29 -37 -62 -51t-78 -14q-77 0 -120 43q-60 61 -60 209q0 149 60 209q43 43 120 43q45 0 77.5 -13.5t61.5 -49.5v277h72v-712zM383 246q0 41 -4.5 71t-16.5 58.5t-38 43.5t-64 15q-31 0 -54 -10.5t-36.5 -27.5t-21 -43t-10 -50.5t-2.5 -56.5t2.5 -56.5
t10 -50.5t21 -43t36.5 -27.5t54 -10.5q38 0 64 15t38 43.5t16.5 58.5t4.5 71zM952 0h-357v62l274 366h-259v64h342v-61l-275 -367h275v-64z" />
    <glyph glyph-name="Aringacute" unicode="&#x1fa;" horiz-adv-x="611" 
d="M599 0h-81l-57 161h-311l-57 -161h-81l262 712h64zM439 227l-132 376l-134 -376h266zM420 867q0 -49 -34.5 -84t-83.5 -35t-83.5 35t-34.5 84t34.5 83.5t83.5 34.5t83.5 -34.5t34.5 -83.5zM371 867q0 28 -20 48t-49 20t-49 -20t-20 -48q0 -29 20.5 -49t48.5 -20t48.5 20
t20.5 49zM425 1148l-105 -154h-69l91 154h83z" />
    <glyph glyph-name="aringacute" unicode="&#x1fb;" horiz-adv-x="526" 
d="M441 0h-72v47q-29 -29 -61 -41t-81 -12q-93 0 -139 45q-37 36 -37 100q0 66 44.5 104t126.5 38h147v47q0 55 -29.5 81.5t-96.5 26.5q-46 0 -73.5 -13t-50.5 -44l-49 45q31 42 71 58t103 16q197 0 197 -164v-334zM369 174v53h-137q-111 0 -111 -87q0 -84 114 -84
q73 0 109 33q25 24 25 85zM370 687q0 -49 -34.5 -84t-83.5 -35t-83.5 35t-34.5 84t34.5 83.5t83.5 34.5t83.5 -34.5t34.5 -83.5zM321 687q0 28 -20 48t-49 20t-49 -20t-20 -48q0 -29 20.5 -49t48.5 -20t48.5 20t20.5 49zM376 968l-105 -153h-69l91 153h83z" />
    <glyph glyph-name="AEacute" unicode="&#x1fc;" horiz-adv-x="922" 
d="M867 0h-441v169h-247l-88 -169h-83l376 712h483v-68h-366v-253h312v-68h-312v-255h366v-68zM426 235v409l-214 -409h214zM598 934l-105 -154h-69l91 154h83z" />
    <glyph glyph-name="aeacute" unicode="&#x1fd;" horiz-adv-x="835" 
d="M773 227h-333q0 -82 37.5 -126t108.5 -44q42 0 70.5 13t57.5 43l50 -43q-40 -40 -81 -58t-101 -18q-121 0 -175 85q-32 -47 -73.5 -66t-106.5 -19q-93 0 -139 45q-37 36 -37 100q0 66 44.5 104t126.5 38h147v47q0 55 -29.5 81.5t-96.5 26.5q-46 0 -73.5 -13t-50.5 -44
l-49 45q31 42 71 58t103 16q132 0 173 -77q51 77 154 77q95 0 148.5 -64t53.5 -175v-32zM369 227h-137q-111 0 -111 -87q0 -84 114 -84q73 0 109 33q25 24 25 85v53zM701 281q-3 53 -15 82q-14 34 -45 54t-70 20q-40 0 -71 -20t-44 -54q-12 -31 -16 -82h261zM542 747
l-105 -153h-69l91 153h83z" />
    <glyph glyph-name="Oslashacute" unicode="&#x1fe;" horiz-adv-x="650" 
d="M574 356q0 -134 -11.5 -188.5t-60.5 -103.5q-70 -70 -177 -70q-70 0 -126 31l-33 -69h-65l50 104q-50 49 -62.5 105t-12.5 191q0 133 12 189t59 103q70 70 178 70q74 0 125 -31l34 69h65l-50 -105q51 -49 63 -105t12 -190zM152 356q0 -102 6.5 -149t28.5 -77l234 492
q-40 28 -96 28q-75 0 -123 -50q-32 -33 -41 -80.5t-9 -163.5zM498 356q0 102 -6.5 148.5t-28.5 77.5l-234 -492q42 -28 96 -28q73 0 123 50q32 33 41 80.5t9 163.5zM448 934l-105 -154h-69l91 154h83z" />
    <glyph glyph-name="oslashacute" unicode="&#x1ff;" 
d="M466 246q0 -135 -60 -196q-56 -56 -141 -56q-59 0 -105 27l-38 -65h-57l57 96q-58 60 -58 194q0 135 60 196q56 56 141 56q59 0 105 -27l39 65h56l-57 -96q58 -60 58 -194zM394 246q0 94 -24 133l-177 -299q31 -22 72 -22q54 0 90 36q39 39 39 152zM337 413
q-30 21 -72 21q-53 0 -89 -36q-40 -40 -40 -152q0 -92 25 -133zM389 747l-105 -153h-69l91 153h83z" />
    <glyph glyph-name="Scommaaccent" unicode="&#x218;" horiz-adv-x="588" 
d="M532 196q0 -93 -67 -147.5t-179 -54.5q-80 0 -137 22t-106 72l51 51q43 -43 87.5 -60t106.5 -17q79 0 124 34.5t45 97.5q0 58 -35 89q-27 25 -93 35l-83 12q-84 13 -130 54q-55 49 -55 134q0 91 61.5 145.5t166.5 54.5q67 0 116.5 -18.5t95.5 -59.5l-49 -49
q-65 62 -166 62q-71 0 -111 -36t-40 -97q0 -55 32 -83q31 -27 93 -37l83 -13q50 -8 77.5 -18.5t51.5 -32.5q60 -52 60 -140zM283 -216h-78l71 149h66z" />
    <glyph glyph-name="scommaaccent" unicode="&#x219;" horiz-adv-x="496" 
d="M445 144q0 -70 -54.5 -110t-145.5 -40q-130 0 -202 71l48 48q54 -57 153 -57q62 0 96.5 22t34.5 65q0 65 -82 72l-81 7q-147 12 -147 132q0 66 50 105t131 39q111 0 177 -53l-47 -47q-51 39 -131 39q-53 0 -81.5 -21t-28.5 -60q0 -33 21 -50t67 -22l77 -7
q70 -7 107.5 -37t37.5 -96zM239 -216h-78l71 149h66z" />
    <glyph glyph-name="uni021A" unicode="&#x21a;" horiz-adv-x="548" 
d="M518 644h-206v-644h-76v644h-206v68h488v-68zM249 -216h-78l71 149h66z" />
    <glyph glyph-name="uni021B" unicode="&#x21b;" horiz-adv-x="332" 
d="M279 0h-51q-61 0 -93.5 37t-32.5 95v305h-62v55h62v151h72v-151h105v-55h-105v-303q0 -72 67 -72h38v-62zM169 -216h-78l71 149h66z" />
    <glyph glyph-name="uni0237" unicode="&#x237;" horiz-adv-x="253" 
d="M162 -89q0 -59 -31.5 -95.5t-93.5 -36.5h-52v63h39q36 0 51 17.5t15 54.5v578h72v-581z" />
    <glyph glyph-name="uni0259" unicode="&#x259;" 
d="M63 265h332q0 82 -37 126t-108 44q-42 0 -70.5 -13t-58.5 -43l-49 43q40 40 80 58t100 18q102 0 158.5 -62.5t56.5 -189.5q0 -119 -54 -185.5t-148 -66.5q-95 0 -148.5 63.5t-53.5 175.5v32zM134 211q4 -57 16 -82q35 -74 115 -74t115 74q12 26 15 82h-261z" />
    <glyph glyph-name="uni02BB" unicode="&#x2bb;" horiz-adv-x="263" 
d="M175 628h-87v84l87 79v-163z" />
    <glyph glyph-name="afii57929" unicode="&#x2bc;" horiz-adv-x="263" 
d="M175 628l-87 -79v163h87v-84z" />
    <glyph glyph-name="circumflex" unicode="&#x2c6;" horiz-adv-x="500" 
d="M409 594h-69l-90 104l-90 -104h-69l125 153h68z" />
    <glyph glyph-name="caron" unicode="&#x2c7;" horiz-adv-x="500" 
d="M409 747l-125 -153h-68l-125 153h69l90 -105l90 105h69z" />
    <glyph glyph-name="breve" unicode="&#x2d8;" horiz-adv-x="500" 
d="M415 729q-12 -139 -165 -139t-165 139h56q5 -40 34 -61.5t75 -21.5t75 21.5t34 61.5h56z" />
    <glyph glyph-name="dotaccent" unicode="&#x2d9;" horiz-adv-x="500" 
d="M212 610v77h75v-77h-75z" />
    <glyph glyph-name="ring" unicode="&#x2da;" horiz-adv-x="500" 
d="M368 687q0 -49 -34.5 -84t-83.5 -35t-83.5 35t-34.5 84t34.5 83.5t83.5 34.5t83.5 -34.5t34.5 -83.5zM319 687q0 28 -20 48t-49 20t-49 -20t-20 -48q0 -29 20.5 -49t48.5 -20t48.5 20t20.5 49z" />
    <glyph glyph-name="ogonek" unicode="&#x2db;" horiz-adv-x="500" 
d="M369 -67l-59 -149h-79l71 149h67z" />
    <glyph glyph-name="tilde" unicode="&#x2dc;" 
d="M422 658q-50 -51 -95 -51q-30 0 -71 24q-35 20 -56 20q-27 0 -59 -32l-37 36q51 51 95 51q34 0 71 -24q35 -20 56 -20q27 0 59 32z" />
    <glyph glyph-name="hungarumlaut" unicode="&#x2dd;" horiz-adv-x="500" 
d="M304 747l-108 -153h-66l89 153h85zM467 747l-109 -153h-65l89 153h85z" />
    <glyph glyph-name="uni037E" unicode="&#x37e;" horiz-adv-x="297" 
d="M205 -65l-88 -79v232h88v-153zM209 301h-94v94h94v-94z" />
    <glyph glyph-name="tonos" unicode="&#x384;" horiz-adv-x="255" 
d="M165 613l-76 -38v137h76v-99z" />
    <glyph glyph-name="dieresistonos" unicode="&#x385;" horiz-adv-x="488" 
d="M282 613l-76 -38v137h76v-99zM398 589h-72v90h72v-90zM161 589h-71v90h71v-90z" />
    <glyph glyph-name="Alphatonos" unicode="&#x386;" horiz-adv-x="611" 
d="M599 0h-81l-57 161h-311l-57 -161h-81l262 712h64zM439 227l-132 376l-134 -376h266zM78 613l-76 -38v137h76v-99z" />
    <glyph glyph-name="anoteleia" unicode="&#x387;" horiz-adv-x="270" 
d="M182 223h-94v94h94v-94z" />
    <glyph glyph-name="Epsilontonos" unicode="&#x388;" horiz-adv-x="600" 
d="M545 0h-442v712h442v-68h-366v-251h312v-68h-312v-257h366v-68zM18 613l-76 -38v137h76v-99z" />
    <glyph glyph-name="Etatonos" unicode="&#x389;" horiz-adv-x="696" 
d="M593 0h-76v325h-338v-325h-76v712h76v-319h338v319h76v-712zM18 613l-76 -38v137h76v-99z" />
    <glyph glyph-name="Iotatonos" unicode="&#x38a;" horiz-adv-x="282" 
d="M179 0h-76v712h76v-712zM18 613l-76 -38v137h76v-99z" />
    <glyph glyph-name="Omicrontonos" unicode="&#x38c;" horiz-adv-x="650" 
d="M574 356q0 -134 -11.5 -188.5t-60.5 -103.5q-70 -70 -177 -70q-108 0 -178 70q-47 47 -59 103t-12 189t12 189t59 103q70 70 178 70q107 0 177 -70q49 -49 60.5 -103.5t11.5 -188.5zM498 356q0 116 -9 163.5t-41 80.5q-50 50 -123 50q-75 0 -123 -50q-32 -33 -41 -80.5
t-9 -163.5t9 -163.5t41 -80.5q48 -50 123 -50q73 0 123 50q32 33 41 80.5t9 163.5zM38 613l-76 -38v137h76v-99z" />
    <glyph glyph-name="Upsilontonos" unicode="&#x38e;" horiz-adv-x="514" 
d="M506 712l-210 -418v-294h-76v294l-212 418h82l168 -341l166 341h82zM-32 613l-76 -38v137h76v-99z" />
    <glyph glyph-name="Omegatonos" unicode="&#x38f;" horiz-adv-x="650" 
d="M574 356q0 -90 -5 -139t-23 -83q-17 -36 -55 -67h83v-67h-195v63q63 30 92 77q27 43 27 214q0 117 -9 165t-41 80q-51 51 -123 51t-123 -51q-32 -32 -41 -80t-9 -165q0 -171 27 -214q30 -48 92 -77v-63h-195v67h83q-37 30 -56 67q-17 34 -22 83.5t-5 138.5q0 133 12 189
t59 103q70 70 178 70q107 0 177 -70q48 -48 60 -104t12 -188zM38 613l-76 -38v137h76v-99z" />
    <glyph glyph-name="iotadieresistonos" unicode="&#x390;" horiz-adv-x="297" 
d="M265 0h-52q-62 0 -93.5 35.5t-31.5 95.5v361h72v-358q0 -37 15 -54.5t51 -17.5h39v-62zM164 613l-76 -38v137h76v-99zM280 589h-72v90h72v-90zM43 589h-71v90h71v-90z" />
    <glyph glyph-name="Alpha" unicode="&#x391;" horiz-adv-x="611" 
d="M599 0h-81l-57 161h-311l-57 -161h-81l262 712h64zM439 227l-132 376l-134 -376h266z" />
    <glyph glyph-name="Beta" unicode="&#x392;" horiz-adv-x="668" 
d="M592 197q0 -95 -57.5 -146t-154.5 -51h-277v712h268q94 0 152 -51t58 -139q0 -55 -29.5 -97t-75.5 -59q53 -19 84.5 -63t31.5 -106zM516 199q0 60 -38.5 95t-104.5 35h-194v-261h194q66 0 104.5 35.5t38.5 95.5zM505 521q0 61 -38.5 92t-101.5 31h-186v-247h186
q62 0 101 31.5t39 92.5z" />
    <glyph glyph-name="Gamma" unicode="&#x393;" horiz-adv-x="549" 
d="M529 644h-350v-644h-76v712h426v-68z" />
    <glyph glyph-name="uni0394" unicode="&#x394;" horiz-adv-x="603" 
d="M594 0h-586l262 712h63zM495 66l-193 537l-194 -537h387z" />
    <glyph glyph-name="Epsilon" unicode="&#x395;" horiz-adv-x="600" 
d="M545 0h-442v712h442v-68h-366v-251h312v-68h-312v-257h366v-68z" />
    <glyph glyph-name="Zeta" unicode="&#x396;" horiz-adv-x="556" 
d="M499 0h-442v72l356 572h-342v68h428v-64l-359 -580h359v-68z" />
    <glyph glyph-name="Eta" unicode="&#x397;" horiz-adv-x="696" 
d="M593 0h-76v325h-338v-325h-76v712h76v-319h338v319h76v-712z" />
    <glyph glyph-name="Theta" unicode="&#x398;" horiz-adv-x="650" 
d="M574 356q0 -134 -11.5 -188.5t-60.5 -103.5q-70 -70 -177 -70q-108 0 -178 70q-47 47 -59 103t-12 189t12 189t59 103q70 70 178 70q107 0 177 -70q49 -49 60.5 -103.5t11.5 -188.5zM448 112q30 31 39.5 74t10.5 138h-346q1 -96 10.5 -139t39.5 -73q48 -50 123 -50
q73 0 123 50zM202 600q-30 -31 -39.5 -73.5t-10.5 -135.5h346q-1 93 -10.5 135.5t-39.5 73.5q-50 50 -123 50q-75 0 -123 -50z" />
    <glyph glyph-name="Iota" unicode="&#x399;" horiz-adv-x="282" 
d="M179 0h-76v712h76v-712z" />
    <glyph glyph-name="Kappa" unicode="&#x39a;" horiz-adv-x="650" 
d="M636 0h-90l-217 379l-150 -180v-199h-76v712h76v-409l332 409h93l-224 -275z" />
    <glyph glyph-name="Lambda" unicode="&#x39b;" horiz-adv-x="598" 
d="M568 0h-80l-188 604l-190 -604h-80l234 712h70z" />
    <glyph glyph-name="Mu" unicode="&#x39c;" horiz-adv-x="816" 
d="M713 0h-76v541l-195 -429h-65l-198 429v-541h-76v712h76l232 -505l226 505h76v-712z" />
    <glyph glyph-name="Nu" unicode="&#x39d;" horiz-adv-x="732" 
d="M629 0h-72l-378 571v-571h-76v712h72l378 -569v569h76v-712z" />
    <glyph glyph-name="Xi" unicode="&#x39e;" horiz-adv-x="573" 
d="M518 0h-463v68h193v257h-139v68h139v251h-193v68h463v-68h-194v-251h140v-68h-140v-257h194v-68z" />
    <glyph glyph-name="Omicron" unicode="&#x39f;" horiz-adv-x="650" 
d="M574 356q0 -134 -11.5 -188.5t-60.5 -103.5q-70 -70 -177 -70q-108 0 -178 70q-47 47 -59 103t-12 189t12 189t59 103q70 70 178 70q107 0 177 -70q49 -49 60.5 -103.5t11.5 -188.5zM498 356q0 116 -9 163.5t-41 80.5q-50 50 -123 50q-75 0 -123 -50q-32 -33 -41 -80.5
t-9 -163.5t9 -163.5t41 -80.5q48 -50 123 -50q73 0 123 50q32 33 41 80.5t9 163.5z" />
    <glyph glyph-name="Pi" unicode="&#x3a0;" horiz-adv-x="681" 
d="M578 0h-76v644h-323v-644h-76v712h475v-712z" />
    <glyph glyph-name="Rho" unicode="&#x3a1;" horiz-adv-x="630" 
d="M588 503q0 -95 -61 -152.5t-159 -57.5h-189v-293h-76v712h265q98 0 159 -57t61 -152zM512 503q0 69 -41 105t-110 36h-182v-283h182q69 0 110 36.5t41 105.5z" />
    <glyph glyph-name="Sigma" unicode="&#x3a3;" horiz-adv-x="557" 
d="M500 644h-339l168 -261l-189 -315h359v-68h-442v71l187 310l-172 269v62h428v-68z" />
    <glyph glyph-name="Tau" unicode="&#x3a4;" horiz-adv-x="548" 
d="M518 644h-206v-644h-76v644h-206v68h488v-68z" />
    <glyph glyph-name="Upsilon" unicode="&#x3a5;" horiz-adv-x="514" 
d="M506 712l-210 -418v-294h-76v294l-212 418h82l168 -341l166 341h82z" />
    <glyph glyph-name="Phi" unicode="&#x3a6;" horiz-adv-x="732" 
d="M670 361q0 -76 -12 -128.5t-53 -93.5q-77 -77 -201 -77v-62h-76v62q-124 0 -201 77q-41 41 -53 93.5t-12 128.5t12 128.5t53 93.5q77 77 201 77v52h76v-52q124 0 201 -77q41 -41 53 -93.5t12 -128.5zM594 361q0 41 -2 65t-13 57.5t-32 55.5q-52 53 -143 53v-462
q93 0 143 53q21 22 32 55.5t13 57.5t2 65zM328 130v462q-90 0 -142 -53q-31 -32 -39.5 -74.5t-8.5 -103.5q0 -40 2 -65t13.5 -58t32.5 -55q50 -53 142 -53z" />
    <glyph glyph-name="Chi" unicode="&#x3a7;" horiz-adv-x="551" 
d="M536 0h-88l-173 299l-174 -299h-86l218 365l-204 347h88l158 -281l158 281h88l-205 -347z" />
    <glyph glyph-name="Psi" unicode="&#x3a8;" horiz-adv-x="675" 
d="M623 370q0 -54 -14.5 -91t-48.5 -71q-74 -74 -182 -74h-2v-134h-76v134h-3q-108 0 -182 74q-34 34 -48.5 71t-14.5 91v342h76v-342q0 -42 11 -67.5t35 -50.5q48 -50 123 -50h3v510h76v-510h2q75 0 123 50q24 25 35 50.5t11 67.5v342h76v-342z" />
    <glyph glyph-name="uni03A9" unicode="&#x3a9;" horiz-adv-x="650" 
d="M574 356q0 -90 -5 -139t-23 -83q-17 -36 -55 -67h83v-67h-195v63q63 30 92 77q27 43 27 214q0 117 -9 165t-41 80q-51 51 -123 51t-123 -51q-32 -32 -41 -80t-9 -165q0 -171 27 -214q30 -48 92 -77v-63h-195v67h83q-37 30 -56 67q-17 34 -22 83.5t-5 138.5q0 133 12 189
t59 103q70 70 178 70q107 0 177 -70q48 -48 60 -104t12 -188z" />
    <glyph glyph-name="Iotadieresis" unicode="&#x3aa;" horiz-adv-x="282" 
d="M179 0h-76v712h76v-712zM285 789h-72v89h72v-89zM73 789h-72v89h72v-89z" />
    <glyph glyph-name="Upsilondieresis" unicode="&#x3ab;" horiz-adv-x="514" 
d="M506 712l-210 -418v-294h-76v294l-212 418h82l168 -341l166 341h82zM399 789h-72v89h72v-89zM187 789h-72v89h72v-89z" />
    <glyph glyph-name="alphatonos" unicode="&#x3ac;" horiz-adv-x="545" 
d="M455 0h-71v59q-29 -37 -62 -51t-78 -14q-77 0 -120 43q-60 61 -60 209q0 149 60 209q43 43 120 43q89 0 140 -64v58h71v-492zM383 246q0 41 -4.5 71t-16.5 58.5t-38 43.5t-64 15q-31 0 -54 -10.5t-36.5 -27.5t-21 -43t-10 -50.5t-2.5 -56.5t2.5 -56.5t10 -50.5t21 -43
t36.5 -27.5t54 -10.5q38 0 64 15t38 43.5t16.5 58.5t4.5 71zM304 613l-76 -38v137h76v-99z" />
    <glyph glyph-name="epsilontonos" unicode="&#x3ad;" horiz-adv-x="493" 
d="M450 73q-84 -79 -210 -79q-75 0 -126.5 37t-51.5 105q0 83 80 116q-71 28 -71 107q0 64 52 101.5t123 37.5q64 0 107 -16t85 -55l-45 -48q-64 58 -144 58q-40 0 -72 -22.5t-32 -57.5q0 -36 23.5 -57t67.5 -21h87v-57h-85q-54 0 -77.5 -23.5t-23.5 -59.5t30.5 -59.5
t75.5 -23.5q91 0 157 61zM294 613l-76 -38v137h76v-99z" />
    <glyph glyph-name="etatonos" unicode="&#x3ae;" horiz-adv-x="562" 
d="M477 0h-72v303q0 64 -32 97.5t-89 33.5t-89.5 -34t-32.5 -97v-303h-72v492h72v-54q52 60 138 60q80 0 126 -46q51 -50 51 -137v-315zM324 613l-76 -38v137h76v-99z" />
    <glyph glyph-name="iotatonos" unicode="&#x3af;" horiz-adv-x="297" 
d="M265 0h-52q-62 0 -93.5 35.5t-31.5 95.5v361h72v-358q0 -37 15 -54.5t51 -17.5h39v-62zM164 613l-76 -38v137h76v-99z" />
    <glyph glyph-name="upsilondieresistonos" unicode="&#x3b0;" horiz-adv-x="521" 
d="M453 245q0 -66 -10.5 -112.5t-46.5 -82.5q-56 -56 -136 -56q-79 0 -135 56q-36 36 -46.5 82.5t-10.5 112.5v247h71v-257q0 -33 1 -51.5t9.5 -45t24.5 -42.5q38 -38 86 -38t86 38q16 16 24.5 42.5t9.5 45t1 51.5v257h72v-247zM298 613l-76 -38v137h76v-99zM414 589h-72v90
h72v-90zM177 589h-71v90h71v-90z" />
    <glyph glyph-name="alpha" unicode="&#x3b1;" horiz-adv-x="545" 
d="M455 0h-71v59q-29 -37 -62 -51t-78 -14q-77 0 -120 43q-60 61 -60 209q0 149 60 209q43 43 120 43q89 0 140 -64v58h71v-492zM383 246q0 41 -4.5 71t-16.5 58.5t-38 43.5t-64 15q-31 0 -54 -10.5t-36.5 -27.5t-21 -43t-10 -50.5t-2.5 -56.5t2.5 -56.5t10 -50.5t21 -43
t36.5 -27.5t54 -10.5q38 0 64 15t38 43.5t16.5 58.5t4.5 71z" />
    <glyph glyph-name="beta" unicode="&#x3b2;" horiz-adv-x="553" 
d="M505 202q0 -84 -54.5 -146t-132.5 -62q-53 0 -89.5 13.5t-67.5 51.5v-59h-71v533q0 78 53.5 128.5t137.5 50.5q85 0 136 -44t51 -126q0 -54 -23.5 -98t-73.5 -58q134 -22 134 -184zM435 205q0 45 -13 75t-37.5 44.5t-50.5 19.5t-62 5h-59v57h61q125 0 125 126
q0 62 -32 91.5t-84 29.5q-60 0 -90.5 -38t-30.5 -101v-309q0 -62 33.5 -105.5t100.5 -43.5q69 0 104 44.5t35 104.5z" />
    <glyph glyph-name="gamma" unicode="&#x3b3;" horiz-adv-x="447" 
d="M435 492l-176 -487v-225h-71v225l-176 487h77l135 -398l134 398h77z" />
    <glyph glyph-name="delta" unicode="&#x3b4;" horiz-adv-x="531" 
d="M467 253q0 -142 -62 -205q-52 -54 -141 -54q-86 0 -138 54q-62 63 -62 198q0 128 60 189q51 53 130 53q34 0 57 -11l-193 175v60h306v-60h-217l158 -146q58 -54 80 -115.5t22 -137.5zM394 246q0 105 -37 147q-34 39 -89 39q-57 0 -92 -37q-40 -41 -40 -149t38 -149
q36 -39 91 -39q57 0 92 38q37 40 37 150z" />
    <glyph glyph-name="epsilon" unicode="&#x3b5;" horiz-adv-x="493" 
d="M450 73q-84 -79 -210 -79q-75 0 -126.5 37t-51.5 105q0 83 80 116q-71 28 -71 107q0 64 52 101.5t123 37.5q64 0 107 -16t85 -55l-45 -48q-64 58 -144 58q-40 0 -72 -22.5t-32 -57.5q0 -36 23.5 -57t67.5 -21h87v-57h-85q-54 0 -77.5 -23.5t-23.5 -59.5t30.5 -59.5
t75.5 -23.5q91 0 157 61z" />
    <glyph glyph-name="zeta" unicode="&#x3b6;" horiz-adv-x="470" 
d="M434 -45q0 -50 -32.5 -82.5t-104.5 -32.5v56q72 0 72 54q0 27 -18 38.5t-57 11.5h-48q-100 0 -147 29.5t-47 101.5q0 78 67 134q160 142 195 163h-232v64h343v-64l-152 -126l-43 -35t-37.5 -31.5l-26.5 -24.5t-22.5 -26t-10.5 -24t-5 -29q0 -38 31.5 -52t98.5 -14h39
q62 0 99.5 -27t37.5 -84z" />
    <glyph glyph-name="eta" unicode="&#x3b7;" horiz-adv-x="562" 
d="M477 0h-72v303q0 64 -32 97.5t-89 33.5t-89.5 -34t-32.5 -97v-303h-72v492h72v-54q52 60 138 60q80 0 126 -46q51 -50 51 -137v-315z" />
    <glyph glyph-name="theta" unicode="&#x3b8;" horiz-adv-x="552" 
d="M481 356q0 -77 -2 -118.5t-17.5 -98t-46.5 -87.5q-56 -58 -139 -58q-84 0 -139 58q-31 31 -46.5 87.5t-17.5 98t-2 118.5t2 118.5t17.5 98t46.5 87.5q55 58 139 58q83 0 139 -58q31 -31 46.5 -87.5t17.5 -98t2 -118.5zM408 342h-264q0 -101 8 -158.5t36 -86.5
q37 -39 88 -39t88 39q28 29 36 87t8 158zM408 404q0 166 -44 211q-37 39 -88 39t-88 -39q-44 -45 -44 -211h264z" />
    <glyph glyph-name="iota" unicode="&#x3b9;" horiz-adv-x="297" 
d="M265 0h-52q-62 0 -93.5 35.5t-31.5 95.5v361h72v-358q0 -37 15 -54.5t51 -17.5h39v-62z" />
    <glyph glyph-name="kappa" unicode="&#x3ba;" horiz-adv-x="536" 
d="M503 0h-89l-156 252l-96 -109v-143h-72v492h72v-256l222 256h89l-166 -188z" />
    <glyph glyph-name="lambda" unicode="&#x3bb;" horiz-adv-x="479" 
d="M487 0h-28q-52 0 -86 31q-23 22 -36 61l-97 302l-146 -394h-78l191 483l-37 117q-10 31 -25 41.5t-47 10.5h-18v62h23q50 0 80.5 -19.5t46.5 -67.5l167 -507q19 -58 67 -58h23v-62z" />
    <glyph glyph-name="uni03BC" unicode="&#x3bc;" horiz-adv-x="561" 
d="M471 0h-72v55q-53 -61 -138 -61q-66 0 -106 37v-251h-72v712h72v-303q0 -64 32 -97.5t89 -33.5t90 34t33 97v303h72v-492z" />
    <glyph glyph-name="nu" unicode="&#x3bd;" horiz-adv-x="447" 
d="M435 492l-180 -492h-63l-180 492h77l135 -395l134 395h77z" />
    <glyph glyph-name="xi" unicode="&#x3be;" horiz-adv-x="492" 
d="M472 615l-46 -45q-65 68 -140 68q-57 0 -90.5 -33.5t-33.5 -91.5q0 -113 122 -113h120v-63h-118q-57 0 -104 -37t-47 -106q0 -67 42 -98.5t108 -31.5h53q52 0 86 -27.5t34 -81.5q0 -50 -32.5 -82.5t-104.5 -32.5v56q71 0 71 54q0 27 -18 38.5t-56 11.5h-55
q-88 0 -145.5 53t-57.5 138q0 67 34 115t90 65q-43 13 -69.5 52t-26.5 90q0 82 55.5 134.5t142.5 52.5q109 0 186 -85z" />
    <glyph glyph-name="omicron" unicode="&#x3bf;" 
d="M466 246q0 -135 -60 -196q-54 -56 -141 -56t-141 56q-60 61 -60 196q0 136 60 196q54 56 141 56t141 -56q60 -60 60 -196zM394 246q0 113 -39 152q-36 36 -90 36q-53 0 -89 -36q-40 -40 -40 -152t40 -152q36 -36 89 -36q54 0 90 36q39 40 39 152z" />
    <glyph glyph-name="pi" unicode="&#x3c0;" horiz-adv-x="564" 
d="M479 0h-69v427h-250v-427h-70v492h389v-492z" />
    <glyph glyph-name="rho" unicode="&#x3c1;" horiz-adv-x="517" 
d="M453 245q0 -145 -66 -208q-45 -43 -121 -43q-74 0 -130 62v-276h-72v495q0 112 58 170q53 53 135 53q94 0 146 -63q50 -61 50 -190zM381 246q0 106 -30 147q-30 40 -93 40q-57 0 -87 -38q-35 -43 -35 -146q0 -99 25 -139q33 -51 97 -51q38 0 63.5 15.5t38 44.5t17 58.5
t4.5 68.5z" />
    <glyph glyph-name="sigma1" unicode="&#x3c2;" horiz-adv-x="490" 
d="M443 425l-49 -46q-28 31 -53 43t-60 12q-75 0 -114 -56q-32 -45 -32 -132q0 -80 31 -125q38 -54 123 -56q148 -2 148 -110q0 -50 -33 -82.5t-105 -32.5v56q72 0 72 54q0 32 -22 41t-61 9q-105 1 -165 63.5t-60 182.5q0 122 60 187t158 65q52 0 88.5 -16t73.5 -57z" />
    <glyph glyph-name="sigma" unicode="&#x3c3;" horiz-adv-x="549" 
d="M484 430h-90q73 -57 73 -184q0 -135 -60 -196q-54 -56 -141 -56t-141 56q-60 61 -60 196q0 65 11.5 111t46.5 81q54 54 141 54h220v-62zM395 246q0 107 -41 149q-35 35 -90 35q-53 0 -89 -36q-24 -25 -31 -60t-7 -88q0 -112 39 -152q36 -36 90 -36t89 36q40 40 40 152z
" />
    <glyph glyph-name="tau" unicode="&#x3c4;" horiz-adv-x="378" 
d="M346 428h-121v-428h-72v428h-121v64h314v-64z" />
    <glyph glyph-name="upsilon" unicode="&#x3c5;" horiz-adv-x="521" 
d="M453 245q0 -66 -10.5 -112.5t-46.5 -82.5q-56 -56 -136 -56q-79 0 -135 56q-36 36 -46.5 82.5t-10.5 112.5v247h71v-257q0 -33 1 -51.5t9.5 -45t24.5 -42.5q38 -38 86 -38t86 38q16 16 24.5 42.5t9.5 45t1 51.5v257h72v-247z" />
    <glyph glyph-name="phi" unicode="&#x3c6;" horiz-adv-x="659" 
d="M595 250q0 -127 -51.5 -191.5t-178.5 -64.5v-214h-72v214q-229 3 -229 254q0 174 130 243l22 -60q-80 -51 -80 -186q0 -40 5.5 -69.5t21.5 -57.5t48.5 -43t81.5 -17v434h83q116 0 167.5 -59.5t51.5 -182.5zM522 253q0 44 -5 72t-21 53.5t-48 37.5t-83 12v-370q52 1 85 16
t48 44.5t19.5 58.5t4.5 76z" />
    <glyph glyph-name="chi" unicode="&#x3c7;" horiz-adv-x="478" 
d="M445 0h-87l-118 191l-120 -191h-87l167 251l-160 241h87l113 -182l111 182h87l-160 -241z" />
    <glyph glyph-name="psi" unicode="&#x3c8;" horiz-adv-x="641" 
d="M573 246q0 -124 -50 -186t-167 -65v-215h-73v215q-117 3 -166 64.5t-49 186.5v246h72v-246q0 -96 29 -139t114 -46v431h73v-431q86 3 115 46t29 139v246h73v-246z" />
    <glyph glyph-name="omega" unicode="&#x3c9;" horiz-adv-x="723" 
d="M659 242q0 -114 -35 -175q-42 -73 -136 -73q-46 0 -78.5 26t-48.5 67q-16 -41 -48.5 -67t-77.5 -26q-94 0 -136 73q-35 61 -35 175q0 53 13 106t37 81q55 65 128 69v-66q-23 -2 -45 -18t-34 -35q-16 -26 -22 -53.5t-6 -83.5q0 -96 24 -139q26 -45 76 -45q61 0 82 79
q8 34 8 98v126h73v-143q0 -50 7 -81q18 -79 83 -79q50 0 76 45q23 41 23 139q0 57 -6 84t-21 53q-11 19 -34 35t-46 18v66q73 -4 128 -69q24 -28 37.5 -81.5t13.5 -105.5z" />
    <glyph glyph-name="iotadieresis" unicode="&#x3ca;" horiz-adv-x="297" 
d="M265 0h-52q-62 0 -93.5 35.5t-31.5 95.5v361h72v-358q0 -37 15 -54.5t51 -17.5h39v-62zM269 602h-72v89h72v-89zM57 602h-72v89h72v-89z" />
    <glyph glyph-name="upsilondieresis" unicode="&#x3cb;" horiz-adv-x="521" 
d="M453 245q0 -66 -10.5 -112.5t-46.5 -82.5q-56 -56 -136 -56q-79 0 -135 56q-36 36 -46.5 82.5t-10.5 112.5v247h71v-257q0 -33 1 -51.5t9.5 -45t24.5 -42.5q38 -38 86 -38t86 38q16 16 24.5 42.5t9.5 45t1 51.5v257h72v-247zM407 602h-72v89h72v-89zM195 602h-72v89h72
v-89z" />
    <glyph glyph-name="omicrontonos" unicode="&#x3cc;" 
d="M466 246q0 -135 -60 -196q-54 -56 -141 -56t-141 56q-60 61 -60 196q0 136 60 196q54 56 141 56t141 -56q60 -60 60 -196zM394 246q0 113 -39 152q-36 36 -90 36q-53 0 -89 -36q-40 -40 -40 -152t40 -152q36 -36 89 -36q54 0 90 36q39 40 39 152zM304 613l-76 -38v137h76
v-99z" />
    <glyph glyph-name="upsilontonos" unicode="&#x3cd;" horiz-adv-x="521" 
d="M453 245q0 -66 -10.5 -112.5t-46.5 -82.5q-56 -56 -136 -56q-79 0 -135 56q-36 36 -46.5 82.5t-10.5 112.5v247h71v-257q0 -33 1 -51.5t9.5 -45t24.5 -42.5q38 -38 86 -38t86 38q16 16 24.5 42.5t9.5 45t1 51.5v257h72v-247zM294 613l-76 -38v137h76v-99z" />
    <glyph glyph-name="omegatonos" unicode="&#x3ce;" horiz-adv-x="723" 
d="M659 242q0 -114 -35 -175q-42 -73 -136 -73q-46 0 -78.5 26t-48.5 67q-16 -41 -48.5 -67t-77.5 -26q-94 0 -136 73q-35 61 -35 175q0 53 13 106t37 81q55 65 128 69v-66q-23 -2 -45 -18t-34 -35q-16 -26 -22 -53.5t-6 -83.5q0 -96 24 -139q26 -45 76 -45q61 0 82 79
q8 34 8 98v126h73v-143q0 -50 7 -81q18 -79 83 -79q50 0 76 45q23 41 23 139q0 57 -6 84t-21 53q-11 19 -34 35t-46 18v66q73 -4 128 -69q24 -28 37.5 -81.5t13.5 -105.5zM394 613l-76 -38v137h76v-99z" />
    <glyph glyph-name="uni03D0" unicode="&#x3d0;" horiz-adv-x="553" 
d="M505 202q0 -84 -54.5 -146t-132.5 -62q-53 0 -89 13t-67 51v-278h-72v753q0 78 53.5 128.5t137.5 50.5q85 0 136 -44t51 -126q0 -54 -23.5 -98t-73.5 -58q134 -22 134 -184zM435 205q0 45 -13 75t-37.5 44.5t-50.5 19.5t-62 5h-59v57h61q125 0 125 126q0 62 -32 91.5
t-84 29.5q-60 0 -90.5 -38t-30.5 -101v-309q0 -62 33.5 -105.5t100.5 -43.5q69 0 104 44.5t35 104.5z" />
    <glyph glyph-name="uni0400" unicode="&#x400;" horiz-adv-x="600" 
d="M364 780h-69l-105 154h83zM545 0h-442v712h442v-68h-366v-251h312v-68h-312v-257h366v-68z" />
    <glyph glyph-name="afii10023" unicode="&#x401;" horiz-adv-x="600" 
d="M545 0h-442v712h442v-68h-366v-251h312v-68h-312v-257h366v-68zM455 789h-72v89h72v-89zM243 789h-72v89h72v-89z" />
    <glyph glyph-name="afii10051" unicode="&#x402;" horiz-adv-x="744" 
d="M656 218q0 -102 -59.5 -160t-159.5 -58h-41v67h33q73 0 112 37.5t39 112.5t-39 113t-112 38h-152v-368h-76v644h-175v68h487v-68h-236v-209h160q100 0 159.5 -57.5t59.5 -159.5z" />
    <glyph glyph-name="afii10052" unicode="&#x403;" horiz-adv-x="569" 
d="M538 644h-352v-644h-76v712h428v-68zM439 934l-105 -154h-69l91 154h83z" />
    <glyph glyph-name="afii10053" unicode="&#x404;" horiz-adv-x="637" 
d="M572 206q-19 -99 -85 -155.5t-162 -56.5q-108 0 -178 70q-47 47 -59 103t-12 189t12 189t59 103q70 70 178 70q97 0 162.5 -56t84.5 -156h-77q-14 67 -59 106t-111 39q-75 0 -124 -51q-30 -31 -39.5 -73.5t-9.5 -134.5h268v-67h-268q0 -96 9.5 -139.5t39.5 -73.5
q49 -51 124 -51q66 0 111.5 39t60.5 106h75z" />
    <glyph glyph-name="afii10054" unicode="&#x405;" horiz-adv-x="588" 
d="M532 196q0 -93 -67 -147.5t-179 -54.5q-80 0 -137 22t-106 72l51 51q43 -43 87.5 -60t106.5 -17q79 0 124 34.5t45 97.5q0 58 -35 89q-27 25 -93 35l-83 12q-84 13 -130 54q-55 49 -55 134q0 91 61.5 145.5t166.5 54.5q67 0 116.5 -18.5t95.5 -59.5l-49 -49
q-65 62 -166 62q-71 0 -111 -36t-40 -97q0 -55 32 -83q31 -27 93 -37l83 -13q50 -8 77.5 -18.5t51.5 -32.5q60 -52 60 -140z" />
    <glyph glyph-name="afii10055" unicode="&#x406;" horiz-adv-x="282" 
d="M179 0h-76v712h76v-712z" />
    <glyph glyph-name="afii10056" unicode="&#x407;" horiz-adv-x="282" 
d="M179 0h-76v712h76v-712zM283 789h-72v89h72v-89zM71 789h-72v89h72v-89z" />
    <glyph glyph-name="afii10057" unicode="&#x408;" horiz-adv-x="501" 
d="M408 216q0 -102 -61.5 -162t-160.5 -60t-163 64l51 51q23 -23 47.5 -35t64.5 -12q70 0 108 42.5t38 121.5v486h76v-496z" />
    <glyph glyph-name="afii10058" unicode="&#x409;" horiz-adv-x="1025" 
d="M909 209q0 67 -40 104.5t-111 37.5h-184v-283h184q71 0 111 37t40 104zM182 712h392v-293h192q99 0 159 -57.5t60 -152.5q0 -94 -60 -151.5t-159 -57.5h-268v644h-242v-244q0 -218 -51 -309t-157 -91h-36v68h19q36 0 61.5 14.5t46.5 51.5t32 109t11 180v289z" />
    <glyph glyph-name="afii10059" unicode="&#x40a;" horiz-adv-x="1043" 
d="M1003 209q0 -94 -60 -151.5t-159 -57.5h-268v351h-337v-351h-76v712h76v-293h337v293h76v-293h192q99 0 159 -57.5t60 -152.5zM927 209q0 67 -40 104.5t-111 37.5h-184v-283h184q71 0 111 37t40 104z" />
    <glyph glyph-name="afii10060" unicode="&#x40b;" horiz-adv-x="744" 
d="M656 0h-76v227q0 67 -40 104t-111 37h-152v-368h-76v644h-175v68h487v-68h-236v-209h160q99 0 159 -57t60 -151v-227z" />
    <glyph glyph-name="afii10061" unicode="&#x40c;" horiz-adv-x="611" 
d="M183 0h-76v712h76v-712zM612 0h-101l-327 372l305 340h96l-312 -338zM451 934l-105 -154h-69l91 154h83z" />
    <glyph glyph-name="uni040D" unicode="&#x40d;" horiz-adv-x="716" 
d="M613 0h-76v581l-362 -581h-72v712h76v-580l362 580h72v-712zM396 780h-69l-105 154h83z" />
    <glyph glyph-name="afii10062" unicode="&#x40e;" horiz-adv-x="546" 
d="M429 883q-8 -126 -146 -126t-146 126h64q6 -74 82 -74t82 74h64zM537 712l-258 -601q-48 -111 -140 -111h-62v68h45q36 0 57 16.5t37 54.5l29 67l-235 506h81l192 -421l173 421h81z" />
    <glyph glyph-name="afii10145" unicode="&#x40f;" horiz-adv-x="696" 
d="M592 0h-206v-172h-75v172h-208v712h76v-644h337v644h76v-712z" />
    <glyph glyph-name="afii10017" unicode="&#x410;" horiz-adv-x="611" 
d="M599 0h-81l-57 161h-311l-57 -161h-81l262 712h64zM439 227l-132 376l-134 -376h266z" />
    <glyph glyph-name="afii10018" unicode="&#x411;" horiz-adv-x="656" 
d="M591 209q0 -94 -60 -151.5t-159 -57.5h-269v712h444v-68h-368v-225h193q99 0 159 -57.5t60 -152.5zM515 209q0 67 -39.5 104.5t-110.5 37.5h-186v-283h186q71 0 110.5 37t39.5 104z" />
    <glyph glyph-name="afii10019" unicode="&#x412;" horiz-adv-x="668" 
d="M592 195q0 -91 -56.5 -143t-155.5 -52h-277v712h268q94 0 152 -51.5t58 -135.5q0 -77 -52 -126q-17 -17 -53 -33q42 -18 63 -39q53 -51 53 -132zM505 521q0 58 -37 90.5t-103 32.5h-186v-247h186q66 0 103 33t37 91zM516 199q0 60 -38.5 95t-104.5 35h-194v-261h194
q66 0 104.5 35.5t38.5 95.5z" />
    <glyph glyph-name="afii10020" unicode="&#x413;" horiz-adv-x="569" 
d="M538 644h-352v-644h-76v712h428v-68z" />
    <glyph glyph-name="afii10021" unicode="&#x414;" horiz-adv-x="694" 
d="M26 68h63q90 141 90 404v240h389v-644h85v-240h-75v172h-477v-172h-75v240zM174 68h318v576h-241v-219q0 -222 -77 -357z" />
    <glyph glyph-name="afii10022" unicode="&#x415;" horiz-adv-x="600" 
d="M545 0h-442v712h442v-68h-366v-251h312v-68h-312v-257h366v-68z" />
    <glyph glyph-name="afii10024" unicode="&#x416;" horiz-adv-x="902" 
d="M903 0h-100l-313 372l290 340h96l-299 -338zM99 0h-100l326 374l-300 338h96l291 -340zM489 0h-76v712h76v-712z" />
    <glyph glyph-name="afii10025" unicode="&#x417;" horiz-adv-x="616" 
d="M303 -6q-94 0 -159.5 56.5t-82.5 155.5h75q14 -67 59.5 -106t111.5 -39q69 0 113 37t44 100q0 133 -145 133h-90v66h93q62 0 96.5 33.5t34.5 95.5q0 60 -39 93t-106 33q-66 0 -110.5 -39.5t-59.5 -106.5h-76q17 100 83 156t164 56q97 0 158.5 -51.5t61.5 -137.5
q0 -115 -103 -162q114 -42 114 -171q0 -91 -67 -146.5t-170 -55.5z" />
    <glyph glyph-name="afii10026" unicode="&#x418;" horiz-adv-x="716" 
d="M613 0h-76v581l-362 -581h-72v712h76v-580l362 580h72v-712z" />
    <glyph glyph-name="afii10027" unicode="&#x419;" horiz-adv-x="716" 
d="M504 883q-8 -126 -146 -126t-146 126h64q6 -74 82 -74t82 74h64zM613 0h-76v581l-362 -581h-72v712h76v-580l362 580h72v-712z" />
    <glyph glyph-name="afii10028" unicode="&#x41a;" horiz-adv-x="611" 
d="M183 0h-76v712h76v-712zM612 0h-101l-327 372l305 340h96l-312 -338z" />
    <glyph glyph-name="afii10029" unicode="&#x41b;" horiz-adv-x="677" 
d="M574 0h-76v644h-242v-244q0 -218 -51 -309t-157 -91h-36v68h19q36 0 61.5 14.5t46.5 51.5t32 109t11 180v289h392v-712z" />
    <glyph glyph-name="afii10030" unicode="&#x41c;" horiz-adv-x="816" 
d="M713 0h-76v541l-195 -429h-65l-198 429v-541h-76v712h76l232 -505l226 505h76v-712z" />
    <glyph glyph-name="afii10031" unicode="&#x41d;" horiz-adv-x="696" 
d="M593 0h-76v325h-338v-325h-76v712h76v-319h338v319h76v-712z" />
    <glyph glyph-name="afii10032" unicode="&#x41e;" horiz-adv-x="650" 
d="M574 356q0 -132 -12 -188t-60 -104q-70 -70 -177 -70q-108 0 -178 70q-47 47 -59 103t-12 189t12 189t59 103q70 70 178 70q107 0 177 -70q48 -48 60 -104t12 -188zM498 356q0 116 -9 163.5t-41 80.5q-50 50 -123 50t-123 -50q-32 -33 -41 -80.5t-9 -163.5t9 -163.5
t41 -80.5q50 -50 123 -50t123 50q32 33 41 80.5t9 163.5z" />
    <glyph glyph-name="afii10033" unicode="&#x41f;" horiz-adv-x="696" 
d="M592 0h-76v644h-337v-644h-76v712h489v-712z" />
    <glyph glyph-name="afii10034" unicode="&#x420;" horiz-adv-x="630" 
d="M588 503q0 -95 -61.5 -152.5t-158.5 -57.5h-189v-293h-76v712h265q98 0 159 -57.5t61 -151.5zM512 503q0 69 -40.5 105t-109.5 36h-183v-283h183q69 0 109.5 36.5t40.5 105.5z" />
    <glyph glyph-name="afii10035" unicode="&#x421;" horiz-adv-x="637" 
d="M572 206q-19 -99 -85 -155.5t-162 -56.5q-108 0 -178 70q-47 47 -59 103t-12 189t12 189t59 103q70 70 178 70q97 0 162.5 -56t84.5 -156h-78q-14 67 -58.5 105.5t-110.5 38.5q-73 0 -123 -50q-32 -33 -41 -80.5t-9 -163.5t9 -163.5t41 -80.5q50 -50 123 -50
q66 0 111.5 38.5t59.5 105.5h76z" />
    <glyph glyph-name="afii10036" unicode="&#x422;" horiz-adv-x="548" 
d="M518 644h-206v-644h-76v644h-206v68h488v-68z" />
    <glyph glyph-name="afii10037" unicode="&#x423;" horiz-adv-x="546" 
d="M537 712l-258 -601q-48 -111 -140 -111h-62v68h45q36 0 57 16.5t37 54.5l29 67l-235 506h81l192 -421l173 421h81z" />
    <glyph glyph-name="afii10038" unicode="&#x424;" horiz-adv-x="779" 
d="M428 606v-453q119 3 169.5 59.5t50.5 166.5q0 111 -49 167.5t-171 59.5zM352 153v453q-123 -3 -172 -59.5t-49 -167.5q0 -110 50.5 -166.5t170.5 -59.5zM428 -4h-76v92q-155 5 -226 78.5t-71 215.5q0 141 72 212.5t225 76.5v67h76v-67q153 -5 224.5 -76.5t71.5 -212.5
q0 -143 -71 -216t-225 -78v-92z" />
    <glyph glyph-name="afii10039" unicode="&#x425;" horiz-adv-x="551" 
d="M536 0h-88l-173 299l-174 -299h-86l218 365l-204 347h88l158 -281l158 281h88l-205 -347z" />
    <glyph glyph-name="afii10040" unicode="&#x426;" horiz-adv-x="718" 
d="M677 -172h-75v172h-499v712h76v-644h337v644h76v-644h85v-240z" />
    <glyph glyph-name="afii10041" unicode="&#x427;" horiz-adv-x="645" 
d="M542 0h-76v291q-132 -27 -201 -27q-82 0 -135.5 42.5t-53.5 135.5v270h76v-256q0 -124 132 -124q57 0 182 25v355h76v-712z" />
    <glyph glyph-name="afii10042" unicode="&#x428;" horiz-adv-x="997" 
d="M894 0h-791v712h76v-644h281v644h77v-644h281v644h76v-712z" />
    <glyph glyph-name="afii10043" unicode="&#x429;" horiz-adv-x="1019" 
d="M978 -172h-75v172h-800v712h76v-644h281v644h77v-644h281v644h76v-644h84v-240z" />
    <glyph glyph-name="afii10044" unicode="&#x42a;" horiz-adv-x="727" 
d="M687 209q0 -94 -60 -151.5t-159 -57.5h-268v644h-170v68h247v-293h191q99 0 159 -57.5t60 -152.5zM611 209q0 67 -39.5 104.5t-110.5 37.5h-184v-283h184q71 0 110.5 37t39.5 104z" />
    <glyph glyph-name="afii10045" unicode="&#x42b;" horiz-adv-x="864" 
d="M761 0h-76v712h76v-712zM590 209q0 -94 -60.5 -151.5t-159.5 -57.5h-267v712h76v-293h191q100 0 160 -57.5t60 -152.5zM513 209q0 67 -39.5 104.5t-110.5 37.5h-184v-283h184q71 0 110.5 37t39.5 104z" />
    <glyph glyph-name="afii10046" unicode="&#x42c;" horiz-adv-x="630" 
d="M590 209q0 -94 -60.5 -151.5t-159.5 -57.5h-267v712h76v-293h191q100 0 160 -57.5t60 -152.5zM513 209q0 67 -39.5 104.5t-110.5 37.5h-184v-283h184q71 0 110.5 37t39.5 104z" />
    <glyph glyph-name="afii10047" unicode="&#x42d;" horiz-adv-x="637" 
d="M65 206h76q14 -67 59.5 -105.5t111.5 -38.5q73 0 123 50q30 30 39.5 73.5t10.5 139.5h-269v67h269q-1 92 -10.5 134.5t-39.5 73.5q-50 50 -123 50q-66 0 -110.5 -38.5t-58.5 -105.5h-78q19 100 84.5 156t162.5 56q108 0 178 -70q47 -47 59 -103t12 -189t-12 -189
t-59 -103q-70 -70 -178 -70q-96 0 -162 56.5t-85 155.5z" />
    <glyph glyph-name="afii10048" unicode="&#x42e;" horiz-adv-x="903" 
d="M828 356q0 -134 -11.5 -188.5t-60.5 -103.5q-70 -70 -177 -70q-108 0 -178 70q-45 44 -57.5 96t-13.5 165h-151v-325h-76v712h76v-319h151q1 108 14 159.5t57 95.5q70 70 178 70q107 0 177 -70q49 -49 60.5 -103.5t11.5 -188.5zM752 356q0 116 -9 163.5t-41 80.5
q-50 50 -123 50q-75 0 -123 -50q-32 -33 -41 -80.5t-9 -163.5t9 -163.5t41 -80.5q48 -50 123 -50q73 0 123 50q32 33 41 80.5t9 163.5z" />
    <glyph glyph-name="afii10049" unicode="&#x42f;" horiz-adv-x="655" 
d="M300 293l-155 -293h-89l164 304q-71 17 -112 70t-41 129q0 95 60.5 152t159.5 57h265v-712h-76v293h-176zM476 361v284h-182q-71 0 -111 -37.5t-40 -104.5t40 -104.5t111 -37.5h182z" />
    <glyph glyph-name="afii10065" unicode="&#x430;" horiz-adv-x="526" 
d="M441 0h-72v47q-29 -29 -61 -41t-81 -12q-93 0 -139 45q-37 36 -37 100q0 66 44.5 104t126.5 38h147v47q0 55 -29.5 81.5t-96.5 26.5q-46 0 -73.5 -13t-50.5 -44l-49 45q31 42 71 58t103 16q197 0 197 -164v-334zM369 174v53h-137q-111 0 -111 -87q0 -84 114 -84
q73 0 109 33q25 24 25 85z" />
    <glyph glyph-name="afii10066" unicode="&#x431;" horiz-adv-x="533" 
d="M273 58q54 0 88 36q39 42 39 148q0 115 -38 154q-36 38 -89 38q-54 0 -90 -38q-41 -44 -41 -152q0 -106 42 -150q34 -36 89 -36zM273 -6q-68 0 -116 34.5t-68 96.5q-18 57 -18 218q0 151 12 207t57 98q21 20 47 33t61.5 19.5t58 9t68 4.5t59.5 3v-65q-8 -1 -72 -4.5
t-104.5 -13t-66.5 -31.5q-32 -28 -43.5 -70.5t-11.5 -110.5q18 33 59 53t89 20q76 0 123 -44q64 -60 64 -204q0 -139 -60 -199q-52 -54 -138 -54z" />
    <glyph glyph-name="afii10067" unicode="&#x432;" horiz-adv-x="539" 
d="M472 136q0 -63 -39 -99.5t-108 -36.5h-234v492h228q65 0 105 -35.5t40 -93.5q0 -80 -78 -108q86 -32 86 -119zM393 357q0 73 -87 73h-144v-147h144q87 0 87 74zM401 143q0 37 -23.5 59t-65.5 22h-150v-162h150q42 0 65.5 22t23.5 59z" />
    <glyph glyph-name="afii10068" unicode="&#x433;" horiz-adv-x="417" 
d="M406 430h-240v-430h-72v492h312v-62z" />
    <glyph glyph-name="afii10069" unicode="&#x434;" horiz-adv-x="556" 
d="M523 -147h-70v147h-366v-147h-69v209h58q33 74 49 144t16 192v94h309v-430h73v-209zM378 62v368h-168v-93q-1 -150 -56 -275h224z" />
    <glyph glyph-name="afii10070" unicode="&#x435;" 
d="M467 227h-332q0 -82 37 -126t108 -44q42 0 70.5 13t58.5 43l49 -43q-40 -40 -80 -58t-100 -18q-102 0 -158.5 62.5t-56.5 189.5q0 119 54 185.5t148 66.5q95 0 148.5 -63.5t53.5 -175.5v-32zM396 281q-4 57 -16 82q-35 74 -115 74t-115 -74q-12 -26 -15 -82h261z" />
    <glyph glyph-name="afii10072" unicode="&#x436;" horiz-adv-x="717" 
d="M711 0h-91l-225 255l209 237h87l-211 -232zM394 0h-71v492h71v-492zM97 0h-91l231 260l-211 232h88l208 -237z" />
    <glyph glyph-name="afii10073" unicode="&#x437;" horiz-adv-x="482" 
d="M415 139q0 -65 -54.5 -104.5t-131.5 -39.5q-120 0 -197 70l45 47q33 -30 65.5 -42.5t78.5 -12.5q48 0 86 23.5t38 61.5q0 40 -27.5 61t-73.5 21h-72v60h73q41 0 66.5 21t25.5 58t-29.5 56t-81.5 19q-73 0 -132 -41l-41 48q73 53 180 53q76 0 125 -35.5t49 -97.5
q0 -37 -20.5 -67t-57.5 -43q39 -12 62.5 -43t23.5 -73z" />
    <glyph glyph-name="afii10074" unicode="&#x438;" horiz-adv-x="577" 
d="M487 0h-72v381l-253 -381h-71v492h71v-379l253 379h72v-492z" />
    <glyph glyph-name="afii10075" unicode="&#x439;" horiz-adv-x="577" 
d="M435 704q-8 -126 -146 -126t-146 126h64q6 -75 82 -75t82 75h64zM487 0h-72v381l-253 -381h-71v492h71v-379l253 379h72v-492z" />
    <glyph glyph-name="afii10076" unicode="&#x43a;" horiz-adv-x="499" 
d="M166 0h-72v492h72v-492zM493 0h-93l-233 255l217 237h89l-221 -232z" />
    <glyph glyph-name="afii10077" unicode="&#x43b;" horiz-adv-x="546" 
d="M456 0h-72v430h-174v-170q0 -145 -41 -202.5t-115 -57.5h-33v62h16q16 0 28 3t27.5 15.5t25 34.5t16.5 64.5t7 101.5v211h315v-492z" />
    <glyph glyph-name="afii10078" unicode="&#x43c;" horiz-adv-x="656" 
d="M565 0h-72v350l-137 -272h-55l-139 272v-350h-71v492h71l167 -331l165 331h71v-492z" />
    <glyph glyph-name="afii10079" unicode="&#x43d;" horiz-adv-x="561" 
d="M471 0h-72v223h-238v-223h-71v492h71v-207h238v207h72v-492z" />
    <glyph glyph-name="afii10080" unicode="&#x43e;" 
d="M466 246q0 -135 -60 -196q-54 -56 -141 -56t-141 56q-60 61 -60 196q0 136 60 196q54 56 141 56t141 -56q60 -60 60 -196zM394 246q0 113 -39 152q-36 36 -90 36q-53 0 -89 -36q-40 -40 -40 -152t40 -152q36 -36 89 -36q54 0 90 36q39 40 39 152z" />
    <glyph glyph-name="afii10081" unicode="&#x43f;" horiz-adv-x="556" 
d="M471 0h-72v430h-238v-430h-71v492h381v-492z" />
    <glyph glyph-name="afii10082" unicode="&#x440;" horiz-adv-x="545" 
d="M481 246q0 -148 -60 -209q-43 -43 -120 -43q-88 0 -139 64v-278h-72v712h72v-58q51 64 139 64q77 0 120 -43q60 -60 60 -209zM409 246q0 41 -4.5 71t-16.5 58.5t-38 43.5t-64 15q-31 0 -54 -10.5t-36.5 -27.5t-21 -43t-10 -50.5t-2.5 -56.5t2.5 -56.5t10 -50.5t21 -43
t36.5 -27.5t54 -10.5q38 0 64 15t38 43.5t16.5 58.5t4.5 71z" />
    <glyph glyph-name="afii10083" unicode="&#x441;" horiz-adv-x="490" 
d="M443 67q-41 -43 -76 -58q-36 -15 -83 -15q-103 0 -162 67t-59 185t59 185t162 67q47 0 83 -15q35 -15 76 -58l-49 -46q-33 34 -56 44q-25 11 -55 11q-148 0 -148 -188t147 -188q31 0 54 10q24 11 58 46z" />
    <glyph glyph-name="afii10084" unicode="&#x442;" horiz-adv-x="423" 
d="M413 430h-161v-430h-72v430h-169v62h402v-62z" />
    <glyph glyph-name="afii10085" unicode="&#x443;" horiz-adv-x="447" 
d="M436 492l-224 -611q-34 -92 -131 -92h-31v64h22q35 0 51.5 12t29.5 49l35 96l-177 482h78l135 -395l134 395h78z" />
    <glyph glyph-name="afii10086" unicode="&#x444;" horiz-adv-x="690" 
d="M630 247q0 -119 -65 -183t-184 -70v-214h-72v214q-119 6 -184 70t-65 183t65 182t184 69v214h72v-214q119 -6 184 -69t65 -182zM558 246q0 85 -43 135t-134 53v-376q86 2 131.5 52t45.5 136zM309 58v376q-91 -3 -134 -53t-43 -135q0 -86 45.5 -136t131.5 -52z" />
    <glyph glyph-name="afii10087" unicode="&#x445;" horiz-adv-x="478" 
d="M445 0h-87l-118 191l-120 -191h-87l167 251l-160 241h87l113 -182l111 182h87l-160 -241z" />
    <glyph glyph-name="afii10088" unicode="&#x446;" horiz-adv-x="579" 
d="M546 -147h-70v147h-385v492h71v-430h238v430h72v-430h74v-209z" />
    <glyph glyph-name="afii10089" unicode="&#x447;" horiz-adv-x="523" 
d="M433 0h-72v192q-88 -19 -148 -19q-67 0 -105 35t-38 105v179h72v-166q0 -47 21 -67.5t64 -20.5q56 0 134 16v238h72v-492z" />
    <glyph glyph-name="afii10090" unicode="&#x448;" horiz-adv-x="801" 
d="M710 0h-619v492h71v-430h202v430h72v-430h202v430h72v-492z" />
    <glyph glyph-name="afii10091" unicode="&#x449;" horiz-adv-x="816" 
d="M784 -147h-70v147h-623v492h71v-430h202v430h72v-430h202v430h72v-430h74v-209z" />
    <glyph glyph-name="afii10092" unicode="&#x44a;" horiz-adv-x="563" 
d="M523 148q0 -67 -43 -107.5t-113 -40.5h-219v430h-137v62h208v-195h148q71 0 113.5 -41t42.5 -108zM451 148q0 41 -23.5 63.5t-68.5 22.5h-140v-172h140q45 0 68.5 22.5t23.5 63.5z" />
    <glyph glyph-name="afii10093" unicode="&#x44b;" horiz-adv-x="718" 
d="M617 0h-72v492h72v-492zM466 148q0 -67 -43 -107.5t-113 -40.5h-219v492h71v-195h148q71 0 113.5 -41t42.5 -108zM394 148q0 41 -23.5 63.5t-68.5 22.5h-140v-172h140q45 0 68.5 22.5t23.5 63.5z" />
    <glyph glyph-name="afii10094" unicode="&#x44c;" horiz-adv-x="506" 
d="M466 148q0 -67 -43 -107.5t-113 -40.5h-219v492h71v-195h148q71 0 113.5 -41t42.5 -108zM394 148q0 41 -23.5 63.5t-68.5 22.5h-140v-172h140q45 0 68.5 22.5t23.5 63.5z" />
    <glyph glyph-name="afii10095" unicode="&#x44d;" horiz-adv-x="490" 
d="M426 247q0 -119 -58 -186t-162 -67q-52 0 -86.5 16.5t-72.5 56.5l48 46q28 -30 52.5 -43t60.5 -13q73 0 109 47.5t38 122.5h-202v54h201q-5 70 -42 112t-105 42q-35 0 -59.5 -13.5t-52.5 -42.5l-48 46q38 40 72.5 56.5t86.5 16.5q103 0 161.5 -66.5t58.5 -184.5z" />
    <glyph glyph-name="afii10096" unicode="&#x44e;" horiz-adv-x="728" 
d="M664 246q0 -135 -60 -196q-54 -56 -141 -56t-141 56q-57 57 -60 172h-100v-222h-71v492h71v-209h101q5 105 59 159q54 56 141 56t141 -56q60 -60 60 -196zM592 246q0 113 -39 152q-36 36 -90 36q-53 0 -89 -36q-40 -40 -40 -152t40 -152q34 -36 89 -36q54 0 90 36
q39 40 39 152z" />
    <glyph glyph-name="afii10097" unicode="&#x44f;" horiz-adv-x="527" 
d="M365 252v181h-139q-47 0 -72.5 -23.5t-25.5 -67.5q0 -43 25.5 -66.5t72.5 -23.5h139zM140 0h-83l115 202q-53 11 -84 49t-31 94q0 66 42.5 106.5t112.5 40.5h224v-492h-71v193h-118z" />
    <glyph glyph-name="uni0450" unicode="&#x450;" 
d="M467 227h-332q0 -82 37 -126t108 -44q42 0 70.5 13t58.5 43l49 -43q-40 -40 -80 -58t-100 -18q-102 0 -158.5 62.5t-56.5 189.5q0 119 54 185.5t148 66.5q95 0 148.5 -63.5t53.5 -175.5v-32zM396 281q-4 57 -16 82q-35 74 -115 74t-115 -74q-12 -26 -15 -82h261zM318 594
h-69l-105 153h83z" />
    <glyph glyph-name="afii10071" unicode="&#x451;" 
d="M467 227h-332q0 -82 37 -126t108 -44q42 0 70.5 13t58.5 43l49 -43q-40 -40 -80 -58t-100 -18q-102 0 -158.5 62.5t-56.5 189.5q0 119 54 185.5t148 66.5q95 0 148.5 -63.5t53.5 -175.5v-32zM396 281q-4 57 -16 82q-35 74 -115 74t-115 -74q-12 -26 -15 -82h261zM410 602
h-72v89h72v-89zM198 602h-72v89h72v-89z" />
    <glyph glyph-name="afii10099" unicode="&#x452;" horiz-adv-x="562" 
d="M477 -70q0 -66 -36.5 -108.5t-109.5 -42.5h-48v62h36q40 0 63 26t23 66v365q0 131 -116 131q-58 0 -92.5 -35t-34.5 -96v-298h-71v562h-58v54h58v96h71v-96h248v-54h-248v-130q61 61 143 61q81 0 126.5 -49t45.5 -134v-380z" />
    <glyph glyph-name="afii10100" unicode="&#x453;" horiz-adv-x="417" 
d="M406 430h-240v-430h-72v492h312v-62zM344 747l-105 -153h-69l91 153h83z" />
    <glyph glyph-name="afii10101" unicode="&#x454;" horiz-adv-x="490" 
d="M443 67q-38 -40 -72.5 -56.5t-87.5 -16.5q-104 0 -162 67t-58 186q0 118 58.5 184.5t161.5 66.5q53 0 87 -16.5t73 -56.5l-48 -46q-29 30 -53.5 43t-59.5 13q-68 0 -104.5 -42t-41.5 -112h209v-54h-210q2 -76 37.5 -123t109.5 -47q36 0 60.5 13t52.5 43z" />
    <glyph glyph-name="afii10102" unicode="&#x455;" horiz-adv-x="496" 
d="M445 144q0 -70 -54.5 -110t-145.5 -40q-128 0 -202 71l48 48q54 -57 153 -57q62 0 96.5 22t34.5 65q0 65 -82 72l-81 7q-147 12 -147 132q0 66 50.5 105t130.5 39q112 0 177 -53l-47 -47q-51 39 -131 39q-53 0 -81.5 -21.5t-28.5 -59.5q0 -65 86 -72l79 -7
q70 -6 107.5 -37t37.5 -96z" />
    <glyph glyph-name="afii10103" unicode="&#x456;" horiz-adv-x="253" 
d="M162 0h-72v492h72v-492zM167 632h-81v81h81v-81z" />
    <glyph glyph-name="afii10104" unicode="&#x457;" horiz-adv-x="253" 
d="M162 0h-72v492h72v-492zM269 602h-72v89h72v-89zM57 602h-72v89h72v-89z" />
    <glyph glyph-name="afii10105" unicode="&#x458;" horiz-adv-x="253" 
d="M162 -89q0 -59 -31.5 -95.5t-93.5 -36.5h-52v63h39q36 0 51 17.5t15 54.5v578h72v-581zM167 632h-81v81h81v-81z" />
    <glyph glyph-name="afii10106" unicode="&#x459;" horiz-adv-x="801" 
d="M689 148q0 41 -23.5 63.5t-68.5 22.5h-140v-172h140q45 0 68.5 22.5t23.5 63.5zM141 492h316v-195h148q71 0 113.5 -41t42.5 -108t-43 -107.5t-113 -40.5h-219v430h-176v-170q0 -145 -41 -202.5t-115 -57.5h-33v62h16q16 0 28 3t27.5 15.5t25 34.5t16.5 64.5t7 101.5v211
z" />
    <glyph glyph-name="afii10107" unicode="&#x45a;" horiz-adv-x="816" 
d="M776 148q0 -67 -43 -107.5t-113 -40.5h-220v234h-238v-234h-71v492h71v-195h238v195h72v-195h148q71 0 113.5 -41t42.5 -108zM704 148q0 41 -23.5 63.5t-68.5 22.5h-140v-172h140q45 0 68.5 22.5t23.5 63.5z" />
    <glyph glyph-name="afii10108" unicode="&#x45b;" horiz-adv-x="562" 
d="M477 0h-72v298q0 63 -31 97t-89 34t-90.5 -34.5t-32.5 -96.5v-298h-71v562h-58v54h58v96h71v-96h248v-54h-248v-130q32 32 63.5 46.5t75.5 14.5q81 0 128.5 -49.5t47.5 -133.5v-310z" />
    <glyph glyph-name="afii10109" unicode="&#x45c;" horiz-adv-x="499" 
d="M166 0h-72v492h72v-492zM493 0h-93l-233 255l217 237h89l-221 -232zM386 747l-105 -153h-69l91 153h83z" />
    <glyph glyph-name="uni045D" unicode="&#x45d;" horiz-adv-x="577" 
d="M487 0h-72v381l-253 -381h-71v492h71v-379l253 379h72v-492zM328 594h-69l-105 153h83z" />
    <glyph glyph-name="afii10110" unicode="&#x45e;" horiz-adv-x="447" 
d="M370 704q-8 -126 -146 -126t-146 126h64q6 -75 82 -75t82 75h64zM436 492l-224 -611q-34 -92 -131 -92h-31v64h22q35 0 51.5 12t29.5 49l35 96l-177 482h78l135 -395l134 395h78z" />
    <glyph glyph-name="afii10193" unicode="&#x45f;" horiz-adv-x="563" 
d="M472 0h-156v-147h-70v147h-155v492h71v-430h238v430h72v-492z" />
    <glyph glyph-name="afii10146" unicode="&#x462;" horiz-adv-x="644" 
d="M604 209q0 -94 -60.5 -151.5t-159.5 -57.5h-267v552h-78v59h78v101h76v-101h162v-59h-162v-133h191q100 0 160 -57.5t60 -152.5zM527 209q0 67 -39.5 104.5t-110.5 37.5h-184v-283h184q71 0 110.5 37t39.5 104z" />
    <glyph glyph-name="afii10194" unicode="&#x463;" horiz-adv-x="506" 
d="M466 148q0 -67 -43 -107.5t-113 -40.5h-219v390h-68v48h68v54h71v-54h83v-48h-83v-93h148q71 0 113.5 -41t42.5 -108zM394 148q0 41 -23.5 63.5t-68.5 22.5h-140v-172h140q45 0 68.5 22.5t23.5 63.5z" />
    <glyph glyph-name="afii10147" unicode="&#x472;" horiz-adv-x="650" 
d="M574 356q0 -134 -11.5 -188.5t-60.5 -103.5q-70 -70 -177 -70q-108 0 -178 70q-47 47 -59 103t-12 189t12 189t59 103q70 70 178 70q107 0 177 -70q49 -49 60.5 -103.5t11.5 -188.5zM448 112q30 31 39.5 74t10.5 138h-346q1 -96 10.5 -139t39.5 -73q48 -50 123 -50
q73 0 123 50zM202 600q-30 -31 -39.5 -73.5t-10.5 -135.5h346q-1 93 -10.5 135.5t-39.5 73.5q-50 50 -123 50q-75 0 -123 -50z" />
    <glyph glyph-name="afii10195" unicode="&#x473;" 
d="M466 246q0 -135 -60 -196q-56 -56 -141 -56t-141 56q-60 61 -60 196t60 196q56 56 141 56t141 -56q60 -61 60 -196zM355 94q37 37 39 133h-258q2 -95 40 -133q36 -36 89 -36q54 0 90 36zM176 398q-34 -34 -40 -117h257q-4 81 -38 117q-36 36 -90 36q-53 0 -89 -36z" />
    <glyph glyph-name="afii10148" unicode="&#x474;" horiz-adv-x="546" 
d="M273 136l149 465q17 52 52.5 81.5t87.5 29.5h62v-68h-37q-37 0 -59 -16.5t-35 -54.5l-189 -573h-62l-234 712h80z" />
    <glyph glyph-name="afii10196" unicode="&#x475;" horiz-adv-x="447" 
d="M390 367l-135 -367h-64l-180 492h78l134 -395l104 303q32 92 131 92h31v-64h-18q-35 0 -51.5 -12t-29.5 -49z" />
    <glyph glyph-name="afii10050" unicode="&#x490;" horiz-adv-x="569" 
d="M538 644h-352v-644h-76v712h353v172h75v-240z" />
    <glyph glyph-name="afii10098" unicode="&#x491;" horiz-adv-x="417" 
d="M406 430h-240v-430h-72v492h242v142h70v-204z" />
    <glyph glyph-name="uni0492" unicode="&#x492;" horiz-adv-x="576" 
d="M545 644h-352v-255h162v-59h-162v-330h-76v330h-78v59h78v323h428v-68z" />
    <glyph glyph-name="uni0493" unicode="&#x493;" horiz-adv-x="417" 
d="M406 430h-240v-136h82v-48h-82v-246h-72v246h-68v48h68v198h312v-62z" />
    <glyph glyph-name="uni0496" unicode="&#x496;" horiz-adv-x="902" 
d="M876 712l-299 -338l266 -306h60v-240h-75v172h-25l-313 372l290 340h96zM99 0h-100l326 374l-300 338h96l291 -340zM489 0h-76v712h76v-712z" />
    <glyph glyph-name="uni0497" unicode="&#x497;" horiz-adv-x="715" 
d="M691 492l-211 -232l176 -198h55v-209h-70v147h-21l-225 255l209 237h87zM97 0h-91l231 260l-211 232h88l208 -237zM394 0h-71v492h71v-492z" />
    <glyph glyph-name="uni049A" unicode="&#x49a;" horiz-adv-x="610" 
d="M585 712l-312 -338l277 -306h62v-240h-75v172h-26l-327 372l305 340h96zM183 0h-76v712h76v-712z" />
    <glyph glyph-name="uni049B" unicode="&#x49b;" horiz-adv-x="498" 
d="M473 492l-221 -232l183 -198h58v-209h-70v147h-23l-233 255l217 237h89zM166 0h-72v492h72v-492z" />
    <glyph glyph-name="uni049C" unicode="&#x49c;" horiz-adv-x="662" 
d="M663 0h-99l-246 334h-29v-156h-63v156h-43v-334h-76v712h76v-311h43v156h63v-156h27l226 311h95l-257 -342z" />
    <glyph glyph-name="uni049D" unicode="&#x49d;" horiz-adv-x="552" 
d="M546 0h-93l-161 224h-26v-130h-61v130h-39v-224h-72v492h72v-208h39v130h61v-130h25l146 208h89l-170 -232z" />
    <glyph glyph-name="uni04A2" unicode="&#x4a2;" horiz-adv-x="696" 
d="M593 712v-644h37v-240h-75v172h-38v325h-338v-325h-76v712h76v-319h338v319h76z" />
    <glyph glyph-name="uni04A3" unicode="&#x4a3;" horiz-adv-x="562" 
d="M472 492v-430h34v-209h-70v147h-36v223h-238v-223h-71v492h71v-207h238v207h72z" />
    <glyph glyph-name="uni04AE" unicode="&#x4ae;" horiz-adv-x="514" 
d="M506 712l-210 -418v-294h-76v294l-212 418h82l168 -341l166 341h82z" />
    <glyph glyph-name="uni04AF" unicode="&#x4af;" horiz-adv-x="447" 
d="M435 492l-176 -487v-225h-71v225l-176 487h77l135 -398l134 398h77z" />
    <glyph glyph-name="uni04B0" unicode="&#x4b0;" horiz-adv-x="514" 
d="M506 712l-210 -418h72v-48h-72v-246h-76v246h-74v48h74l-212 418h82l168 -341l166 341h82z" />
    <glyph glyph-name="uni04B1" unicode="&#x4b1;" horiz-adv-x="447" 
d="M435 492l-176 -487h75v-48h-75v-177h-71v177h-76v48h76l-176 487h77l135 -398l134 398h77z" />
    <glyph glyph-name="uni04B2" unicode="&#x4b2;" horiz-adv-x="551" 
d="M521 712l-205 -347l179 -297h41v-240h-75v172h-13l-173 299l-174 -299h-86l218 365l-204 347h88l158 -281l158 281h88z" />
    <glyph glyph-name="uni04B3" unicode="&#x4b3;" horiz-adv-x="478" 
d="M438 492l-160 -241l125 -189h42v-209h-70v147h-17l-118 191l-120 -191h-87l167 251l-160 241h87l113 -182l111 182h87z" />
    <glyph glyph-name="uni04B6" unicode="&#x4b6;" horiz-adv-x="645" 
d="M542 712v-644h37v-240h-75v172h-38v291q-132 -27 -201 -27q-82 0 -135.5 42.5t-53.5 135.5v270h76v-256q0 -124 132 -124q57 0 182 25v355h76z" />
    <glyph glyph-name="uni04B7" unicode="&#x4b7;" horiz-adv-x="523" 
d="M433 492v-430h34v-209h-70v147h-36v192q-88 -19 -148 -19q-67 0 -105 35t-38 105v179h72v-166q0 -47 21 -67.5t64 -20.5q56 0 134 16v238h72z" />
    <glyph glyph-name="uni04B8" unicode="&#x4b8;" horiz-adv-x="649" 
d="M344 108h-65v156h-12q-83 0 -137 42.5t-54 135.5v270h76v-256q0 -122 127 -124v156h65v-152q65 7 126 21v355h76v-712h-76v291q-64 -13 -126 -21v-162z" />
    <glyph glyph-name="uni04B9" unicode="&#x4b9;" horiz-adv-x="536" 
d="M287 46h-58v127h-10q-69 0 -109 35t-40 105v179h72v-166q0 -84 87 -87v127h58v-125q47 4 87 13v238h72v-492h-72v192q-46 -10 -87 -15v-131z" />
    <glyph glyph-name="uni04BA" unicode="&#x4ba;" horiz-adv-x="645" 
d="M103 712h76v-291q132 27 201 27q82 0 135.5 -42.5t53.5 -135.5v-270h-76v256q0 124 -132 124q-57 0 -182 -25v-355h-76v712z" />
    <glyph glyph-name="uni04BB" unicode="&#x4bb;" horiz-adv-x="523" 
d="M90 492h72v-192q88 19 148 19q67 0 105 -35t38 -105v-179h-72v166q0 47 -21 67.5t-64 20.5q-56 0 -134 -16v-238h-72v492z" />
    <glyph glyph-name="uni04C0" unicode="&#x4c0;" horiz-adv-x="282" 
d="M179 0h-76v712h76v-712z" />
    <glyph glyph-name="uni04CF" unicode="&#x4cf;" horiz-adv-x="248" 
d="M160 0h-72v712h72v-712z" />
    <glyph glyph-name="uni04D8" unicode="&#x4d8;" horiz-adv-x="650" 
d="M74 260v113h424q-1 106 -10 150t-40 76q-49 51 -123 51q-66 0 -112 -38.5t-61 -106.5h-76q16 96 82.5 154.5t166.5 58.5q108 0 182 -74q46 -46 56.5 -101.5t10.5 -186.5t-10.5 -186.5t-56.5 -101.5q-74 -74 -182 -74q-114 0 -190 82q-61 65 -61 184zM150 306v-54
q0 -81 40 -129q50 -61 135 -61q75 0 123 50q29 29 38.5 69t11.5 125h-348z" />
    <glyph glyph-name="afii10846" unicode="&#x4d9;" 
d="M63 265h332q0 82 -37 126t-108 44q-42 0 -70.5 -13t-58.5 -43l-49 43q40 40 80 58t100 18q102 0 158.5 -62.5t56.5 -189.5q0 -119 -54 -185.5t-148 -66.5q-95 0 -148.5 63.5t-53.5 175.5v32zM134 211q4 -54 16 -82q31 -74 115 -74q40 0 70.5 19.5t44.5 54.5q12 30 15 82
h-261z" />
    <glyph glyph-name="uni04E2" unicode="&#x4e2;" horiz-adv-x="716" 
d="M613 0h-76v581l-362 -581h-72v712h76v-580l362 580h72v-712zM208 798v57h301v-57h-301z" />
    <glyph glyph-name="uni04E3" unicode="&#x4e3;" horiz-adv-x="577" 
d="M487 0h-72v381l-253 -381h-71v492h71v-379l253 379h72v-492zM440 602h-301v56h301v-56z" />
    <glyph glyph-name="uni04E8" unicode="&#x4e8;" horiz-adv-x="650" 
d="M574 356q0 -134 -11.5 -188.5t-60.5 -103.5q-70 -70 -177 -70q-108 0 -178 70q-47 47 -59 103t-12 189t12 189t59 103q70 70 178 70q107 0 177 -70q49 -49 60.5 -103.5t11.5 -188.5zM448 112q30 31 39.5 74t10.5 138h-346q1 -96 10.5 -139t39.5 -73q48 -50 123 -50
q73 0 123 50zM202 600q-30 -31 -39.5 -73.5t-10.5 -135.5h346q-1 93 -10.5 135.5t-39.5 73.5q-50 50 -123 50q-75 0 -123 -50z" />
    <glyph glyph-name="uni04E9" unicode="&#x4e9;" 
d="M466 246q0 -135 -60 -196q-56 -56 -141 -56t-141 56q-60 61 -60 196t60 196q56 56 141 56t141 -56q60 -61 60 -196zM355 94q37 37 39 133h-258q2 -95 40 -133q36 -36 89 -36q54 0 90 36zM176 398q-34 -34 -40 -117h257q-4 81 -38 117q-36 36 -90 36q-53 0 -89 -36z" />
    <glyph glyph-name="uni04EE" unicode="&#x4ee;" horiz-adv-x="546" 
d="M537 712l-258 -601q-48 -111 -140 -111h-62v68h45q36 0 57 16.5t37 54.5l29 67l-235 506h81l192 -421l173 421h81zM132 798v57h301v-57h-301z" />
    <glyph glyph-name="uni04EF" unicode="&#x4ef;" horiz-adv-x="447" 
d="M436 492l-224 -611q-34 -92 -131 -92h-31v64h22q35 0 51.5 12t29.5 49l35 96l-177 482h78l135 -395l134 395h78zM374 602h-301v56h301v-56z" />
    <glyph glyph-name="Wgrave" unicode="&#x1e80;" horiz-adv-x="854" 
d="M838 712l-182 -712h-71l-158 570l-158 -570h-71l-182 712h81l139 -574l157 574h68l157 -574l139 574h81zM464 780h-69l-105 154h83z" />
    <glyph glyph-name="wgrave" unicode="&#x1e81;" horiz-adv-x="724" 
d="M713 492l-155 -492h-67l-129 382l-128 -382h-67l-156 492h78l113 -395l129 395h62l130 -395l112 395h78zM396 594h-69l-105 153h83z" />
    <glyph glyph-name="Wacute" unicode="&#x1e82;" horiz-adv-x="854" 
d="M838 712l-182 -712h-71l-158 570l-158 -570h-71l-182 712h81l139 -574l157 574h68l157 -574l139 574h81zM561 934l-105 -154h-69l91 154h83z" />
    <glyph glyph-name="wacute" unicode="&#x1e83;" horiz-adv-x="724" 
d="M713 492l-155 -492h-67l-129 382l-128 -382h-67l-156 492h78l113 -395l129 395h62l130 -395l112 395h78zM502 747l-105 -153h-69l91 153h83z" />
    <glyph glyph-name="Wdieresis" unicode="&#x1e84;" horiz-adv-x="854" 
d="M838 712l-182 -712h-71l-158 570l-158 -570h-71l-182 712h81l139 -574l157 574h68l157 -574l139 574h81zM569 789h-72v89h72v-89zM357 789h-72v89h72v-89z" />
    <glyph glyph-name="wdieresis" unicode="&#x1e85;" horiz-adv-x="724" 
d="M713 492l-155 -492h-67l-129 382l-128 -382h-67l-156 492h78l113 -395l129 395h62l130 -395l112 395h78zM504 602h-72v89h72v-89zM292 602h-72v89h72v-89z" />
    <glyph glyph-name="uni1E8A" unicode="&#x1e8a;" horiz-adv-x="551" 
d="M536 0h-88l-173 299l-174 -299h-86l218 365l-204 347h88l158 -281l158 281h88l-205 -347zM238 797v76h75v-76h-75z" />
    <glyph glyph-name="uni1E8B" unicode="&#x1e8b;" horiz-adv-x="478" 
d="M445 0h-87l-118 191l-120 -191h-87l167 251l-160 241h87l113 -182l111 182h87l-160 -241zM203 610v77h75v-77h-75z" />
    <glyph glyph-name="Ygrave" unicode="&#x1ef2;" horiz-adv-x="514" 
d="M506 712l-210 -418v-294h-76v294l-212 418h82l168 -341l166 341h82zM296 780h-69l-105 154h83z" />
    <glyph glyph-name="ygrave" unicode="&#x1ef3;" horiz-adv-x="447" 
d="M436 492l-224 -611q-14 -39 -35 -58q-35 -34 -96 -34h-31v64h22q36 0 52.5 13t28.5 48l35 96l-177 482h78l135 -395l134 395h78zM255 594h-69l-105 153h83z" />
    <glyph glyph-name="uni2007" unicode="&#x2007;" horiz-adv-x="522" 
 />
    <glyph glyph-name="uni2008" unicode="&#x2008;" horiz-adv-x="270" 
 />
    <glyph glyph-name="uni200B" unicode="&#x200b;" horiz-adv-x="0" 
 />
    <glyph glyph-name="endash" unicode="&#x2013;" horiz-adv-x="522" 
d="M470 236h-418v67h418v-67z" />
    <glyph glyph-name="emdash" unicode="&#x2014;" horiz-adv-x="914" 
d="M838 236h-762v68h762v-68z" />
    <glyph glyph-name="afii00208" unicode="&#x2015;" horiz-adv-x="914" 
d="M838 236h-762v68h762v-68z" />
    <glyph glyph-name="quoteleft" unicode="&#x2018;" horiz-adv-x="263" 
d="M175 628h-87v84l87 79v-163z" />
    <glyph glyph-name="quoteright" unicode="&#x2019;" horiz-adv-x="263" 
d="M175 628l-87 -79v163h87v-84z" />
    <glyph glyph-name="quotesinglbase" unicode="&#x201a;" horiz-adv-x="263" 
d="M175 0l-87 -79v163h87v-84z" />
    <glyph glyph-name="quotedblleft" unicode="&#x201c;" horiz-adv-x="434" 
d="M346 628h-88v84l88 79v-163zM175 628h-87v84l87 79v-163z" />
    <glyph glyph-name="quotedblright" unicode="&#x201d;" horiz-adv-x="434" 
d="M346 628l-88 -79v163h88v-84zM175 628l-87 -79v163h87v-84z" />
    <glyph glyph-name="quotedblbase" unicode="&#x201e;" horiz-adv-x="434" 
d="M346 0l-88 -79v163h88v-84zM175 0l-87 -79v163h87v-84z" />
    <glyph glyph-name="dagger" unicode="&#x2020;" horiz-adv-x="605" 
d="M531 445h-194v-445h-72v445h-191v64h191v203h72v-203h194v-64z" />
    <glyph glyph-name="daggerdbl" unicode="&#x2021;" horiz-adv-x="605" 
d="M531 -16h-194v-204h-72v204h-191v64h191v397h-191v64h191v203h72v-203h194v-64h-194v-397h194v-64z" />
    <glyph glyph-name="bullet" unicode="&#x2022;" horiz-adv-x="532" 
d="M429 334q0 -68 -47.5 -115.5t-115.5 -47.5t-115.5 47.5t-47.5 115.5t47.5 115.5t115.5 47.5t115.5 -47.5t47.5 -115.5z" />
    <glyph glyph-name="ellipsis" unicode="&#x2026;" horiz-adv-x="757" 
d="M669 0h-92v92h92v-92zM180 0h-92v92h92v-92zM424 0h-92v92h92v-92z" />
    <glyph glyph-name="perthousand" unicode="&#x2030;" horiz-adv-x="1179" 
d="M1115 128q0 -61 -38 -98t-97 -37t-97 37t-38 98v105q0 61 38 98t97 37t97 -37t38 -98v-105zM769 128q0 -61 -38 -98t-97 -37t-97 37t-38 98v105q0 61 38 98t97 37t97 -37t38 -98v-105zM335 479q0 -60 -38 -97t-97 -37t-97 37t-38 97v105q0 61 38 98t97 37t97 -37t38 -98
v-105zM614 712l-334 -712h-60l334 712h60zM712 130v101q0 87 -78 87t-78 -87v-101q0 -87 78 -87t78 87zM1058 130v101q0 87 -78 87t-78 -87v-101q0 -87 78 -87t78 87zM278 481v101q0 87 -78 87t-78 -87v-101q0 -86 78 -86t78 86z" />
    <glyph glyph-name="guilsinglleft" unicode="&#x2039;" horiz-adv-x="328" 
d="M250 58l-210 210l210 210v-90l-120 -120l120 -121v-89z" />
    <glyph glyph-name="guilsinglright" unicode="&#x203a;" horiz-adv-x="328" 
d="M288 268l-210 -210v89l121 121l-121 120v90z" />
    <glyph glyph-name="fraction" unicode="&#x2044;" horiz-adv-x="185" 
d="M289 712l-333 -712h-60l333 712h60z" />
    <glyph glyph-name="uni2070" unicode="&#x2070;" horiz-adv-x="318" 
d="M281 403q0 -55 -35 -88.5t-87 -33.5t-87 33.5t-35 88.5v191q0 55 35 88.5t87 33.5t87 -33.5t35 -88.5v-191zM224 404v189q0 32 -17.5 52t-47.5 20t-47 -19.5t-17 -52.5v-189q0 -32 17 -51.5t47 -19.5t47.5 19.5t17.5 51.5z" />
    <glyph glyph-name="uni2074" unicode="&#x2074;" horiz-adv-x="318" 
d="M298 350h-47v-65h-57v65h-172v52l151 310h62l-151 -310h110v105h57v-105h47v-52z" />
    <glyph glyph-name="uni2075" unicode="&#x2075;" horiz-adv-x="318" 
d="M285 427q0 -78 -35 -113q-33 -33 -89 -33q-58 0 -90 32q-29 29 -32 80h57q8 -60 65 -60q30 0 47 17q20 21 20 77q0 93 -64 93q-51 0 -63 -40h-53v232h227v-52h-174v-117q23 25 71 25q51 0 76 -27q37 -37 37 -114z" />
    <glyph glyph-name="uni2076" unicode="&#x2076;" horiz-adv-x="318" 
d="M284 411q0 -58 -34 -94t-90 -36t-90.5 34.5t-34.5 92.5q0 43 29 101l100 203h61l-92 -185q17 7 39 7q48 0 80 -34.5t32 -88.5zM226 409q0 34 -18 55.5t-49 21.5q-30 0 -48.5 -20.5t-18.5 -56.5q0 -35 18.5 -55.5t48.5 -20.5t48.5 20.5t18.5 55.5z" />
    <glyph glyph-name="uni2077" unicode="&#x2077;" horiz-adv-x="318" 
d="M290 661l-144 -376h-57l144 375h-140v-70h-54v122h251v-51z" />
    <glyph glyph-name="uni2078" unicode="&#x2078;" horiz-adv-x="318" 
d="M290 405q0 -56 -37.5 -90t-93.5 -34q-55 0 -92.5 34t-37.5 90q0 66 60 101q-53 34 -53 92q0 52 35.5 85t87.5 33q53 0 88.5 -33t35.5 -85q0 -60 -53 -92q60 -36 60 -101zM232 406q0 32 -21 53t-52 21t-51.5 -21t-20.5 -53q0 -31 20.5 -52t51.5 -21t52 20.5t21 52.5z
M225 597q0 30 -18 48.5t-48 18.5q-29 0 -47 -19t-18 -48t18.5 -48t46.5 -19q29 0 47.5 19t18.5 48z" />
    <glyph glyph-name="uni2079" unicode="&#x2079;" horiz-adv-x="318" 
d="M284 589q0 -37 -30 -100l-100 -204h-61l93 185q-21 -7 -40 -7q-48 0 -80 34.5t-32 88.5q0 58 34.5 94t90.5 36t90.5 -34.5t34.5 -92.5zM226 588q0 35 -18 55.5t-49 20.5q-30 0 -48.5 -20.5t-18.5 -55.5q0 -33 18 -55t49 -22q30 0 48.5 20.5t18.5 56.5z" />
    <glyph glyph-name="uni2080" unicode="&#x2080;" horiz-adv-x="318" 
d="M281 -32q0 -55 -35 -88.5t-87 -33.5t-87 33.5t-35 88.5v191q0 55 35 88.5t87 33.5t87 -33.5t35 -88.5v-191zM224 -31v189q0 32 -17.5 52t-47.5 20t-47 -19.5t-17 -52.5v-189q0 -32 17 -51.5t47 -19.5t47.5 19.5t17.5 51.5z" />
    <glyph glyph-name="uni2081" unicode="&#x2081;" horiz-adv-x="318" 
d="M207 -150h-57v363l-83 -73v66l83 71h57v-427z" />
    <glyph glyph-name="uni2082" unicode="&#x2082;" horiz-adv-x="318" 
d="M287 -150h-246v52l165 202q23 29 23 58q0 30 -17.5 48.5t-47.5 18.5q-28 0 -46.5 -16.5t-18.5 -50.5h-58q0 54 34.5 86.5t88.5 32.5q55 0 89 -32.5t34 -86.5q0 -44 -39 -92l-138 -168h177v-52z" />
    <glyph glyph-name="uni2083" unicode="&#x2083;" horiz-adv-x="318" 
d="M293 -30q0 -59 -36.5 -91.5t-92.5 -32.5q-55 0 -92 30t-39 89h58q2 -34 22.5 -50.5t50.5 -16.5q31 0 51.5 19.5t20.5 53.5t-19 53t-56 19h-9v51h9q33 0 50.5 18t17.5 49q0 32 -19 50t-47 18q-29 0 -47 -17t-20 -46h-57q3 53 38 84t86 31q55 0 89 -32.5t34 -86.5
q0 -66 -54 -91q61 -26 61 -101z" />
    <glyph glyph-name="uni2084" unicode="&#x2084;" horiz-adv-x="318" 
d="M298 -85h-47v-65h-57v65h-172v52l151 310h62l-151 -310h110v105h57v-105h47v-52z" />
    <glyph glyph-name="uni2085" unicode="&#x2085;" horiz-adv-x="318" 
d="M285 -8q0 -78 -35 -113q-33 -33 -89 -33q-58 0 -90 32q-29 29 -32 80h57q8 -60 65 -60q30 0 47 17q20 21 20 77q0 93 -64 93q-51 0 -63 -40h-53v232h227v-52h-174v-117q23 25 71 25q51 0 76 -27q37 -37 37 -114z" />
    <glyph glyph-name="uni2086" unicode="&#x2086;" horiz-adv-x="318" 
d="M284 -24q0 -58 -34 -94t-90 -36t-90.5 34.5t-34.5 92.5q0 43 29 101l100 203h61l-92 -185q17 7 39 7q48 0 80 -34.5t32 -88.5zM226 -26q0 34 -18 55.5t-49 21.5q-30 0 -48.5 -20.5t-18.5 -56.5q0 -35 18.5 -55.5t48.5 -20.5t48.5 20.5t18.5 55.5z" />
    <glyph glyph-name="uni2087" unicode="&#x2087;" horiz-adv-x="318" 
d="M290 226l-144 -376h-57l144 375h-140v-70h-54v122h251v-51z" />
    <glyph glyph-name="uni2088" unicode="&#x2088;" horiz-adv-x="318" 
d="M290 -30q0 -56 -37.5 -90t-93.5 -34q-55 0 -92.5 34t-37.5 90q0 66 60 101q-53 34 -53 92q0 52 35.5 85t87.5 33q53 0 88.5 -33t35.5 -85q0 -60 -53 -92q60 -36 60 -101zM232 -29q0 32 -21 53t-52 21t-51.5 -21t-20.5 -53q0 -31 20.5 -52t51.5 -21t52 21t21 52zM225 162
q0 30 -18 48.5t-48 18.5q-29 0 -47 -19t-18 -48t18.5 -48t46.5 -19q29 0 47.5 19t18.5 48z" />
    <glyph glyph-name="uni2089" unicode="&#x2089;" horiz-adv-x="318" 
d="M284 154q0 -37 -30 -100l-100 -204h-61l93 185q-21 -7 -40 -7q-48 0 -80 34.5t-32 88.5q0 58 34.5 94t90.5 36t90.5 -34.5t34.5 -92.5zM226 153q0 35 -18 55.5t-49 20.5q-30 0 -48.5 -20.5t-18.5 -55.5q0 -33 18 -55t49 -22q30 0 48.5 20.5t18.5 56.5z" />
    <glyph glyph-name="Euro" unicode="&#x20ac;" horiz-adv-x="678" 
d="M608 206q-18 -99 -84 -155.5t-163 -56.5q-107 0 -177 70q-38 38 -52.5 79.5t-17.5 116.5h-67v50h66v98h-66v49h67q3 71 18 112.5t52 78.5q70 70 177 70q98 0 163.5 -56t83.5 -156h-77q-14 67 -58.5 105.5t-111.5 38.5q-73 0 -123 -50q-24 -25 -34 -56t-13 -87h219v-49
h-221v-98h221v-50h-219q2 -59 12 -91t35 -57q50 -50 123 -50q67 0 112 38.5t60 105.5h75z" />
    <glyph glyph-name="uni20B4" unicode="&#x20b4;" horiz-adv-x="625" 
d="M540 457h38v-49h-62q-12 -15 -22 -24q-46 -40 -131 -54q-9 -2 -53.5 -8.5t-68.5 -11.5h337v-50h-410q-15 -26 -15 -66q0 -62 45 -97t123 -35q62 0 106.5 17.5t87.5 60.5l52 -52q-50 -50 -107 -72t-137 -22q-112 0 -179 54.5t-67 147.5q0 34 9 64h-39v50h64q14 17 26 27
q43 37 130 50l78 12q17 3 38 9h-336v49h410q16 25 16 63q0 60 -40 96t-110 36q-99 0 -166 -61l-49 49q46 42 95 60t117 18q105 0 166.5 -55t61.5 -146q0 -31 -8 -60z" />
    <glyph glyph-name="afii61352" unicode="&#x2116;" horiz-adv-x="947" 
d="M553 0h-67l-334 574v-574h-71v712h67l334 -573v573h71v-712zM888 269h-269v57h269v-57zM830 541q0 78 -23 101q-21 21 -52 21q-32 0 -53 -21q-23 -23 -23 -101t23 -101q21 -21 53 -21q31 0 52 21q23 23 23 101zM891 540q0 -98 -41 -139q-35 -37 -95 -37q-59 0 -96 37
q-41 41 -41 139t41 139q37 37 96 37q60 0 95 -37q41 -41 41 -139z" />
    <glyph glyph-name="trademark" unicode="&#x2122;" horiz-adv-x="839" 
d="M781 285h-57v308l-102 -202h-56l-102 202v-308h-58v427h58l130 -259l130 259h57v-427zM331 659h-119v-374h-58v374h-118v53h295v-53z" />
    <glyph glyph-name="Omega" unicode="&#x2126;" horiz-adv-x="650" 
d="M574 356q0 -90 -5 -139t-23 -83q-17 -36 -55 -67h83v-67h-195v63q63 30 92 77q27 43 27 214q0 117 -9 165t-41 80q-50 51 -123 51q-72 0 -123 -51q-32 -32 -41 -80t-9 -165q0 -171 27 -214q30 -48 92 -77v-63h-195v67h83q-37 30 -56 67q-17 34 -22 83.5t-5 138.5
q0 133 12 189t59 103q70 70 178 70q107 0 177 -70q48 -48 60 -104t12 -188z" />
    <glyph glyph-name="onethird" unicode="&#x2153;" horiz-adv-x="821" 
d="M207 285h-57v363l-83 -73v66l83 71h57v-427zM607 712l-333 -712h-60l333 712h60zM796 120q0 -59 -36.5 -91.5t-92.5 -32.5q-55 0 -92 30t-39 89h58q2 -34 22.5 -50.5t50.5 -16.5q31 0 51.5 19.5t20.5 53.5t-19 53t-56 19h-9v51h9q33 0 50.5 18t17.5 49q0 32 -19 50
t-47 18q-29 0 -47 -17t-20 -46h-57q3 53 38 84t86 31q55 0 89 -32.5t34 -86.5q0 -66 -54 -91q61 -26 61 -101z" />
    <glyph glyph-name="twothirds" unicode="&#x2154;" horiz-adv-x="821" 
d="M287 285h-246v52l165 202q23 29 23 58q0 30 -17.5 48.5t-47.5 18.5q-28 0 -46.5 -16.5t-18.5 -50.5h-58q0 54 34.5 86.5t88.5 32.5q55 0 89 -32.5t34 -86.5q0 -44 -39 -92l-138 -168h177v-52zM607 712l-333 -712h-60l333 712h60zM796 120q0 -59 -36.5 -91.5t-92.5 -32.5
q-55 0 -92 30t-39 89h58q2 -34 22.5 -50.5t50.5 -16.5q31 0 51.5 19.5t20.5 53.5t-19 53t-56 19h-9v51h9q33 0 50.5 18t17.5 49q0 32 -19 50t-47 18q-29 0 -47 -17t-20 -46h-57q3 53 38 84t86 31q55 0 89 -32.5t34 -86.5q0 -66 -54 -91q61 -26 61 -101z" />
    <glyph glyph-name="uni2155" unicode="&#x2155;" horiz-adv-x="821" 
d="M207 285h-57v363l-83 -73v66l83 71h57v-427zM607 712l-333 -712h-60l333 712h60zM788 142q0 -78 -35 -113q-33 -33 -89 -33q-58 0 -90 32q-29 29 -32 80h57q8 -60 65 -60q30 0 47 17q20 21 20 77q0 93 -64 93q-51 0 -63 -40h-53v232h227v-52h-174v-117q23 25 71 25
q51 0 76 -27q37 -37 37 -114z" />
    <glyph glyph-name="uni2156" unicode="&#x2156;" horiz-adv-x="821" 
d="M287 285h-246v52l165 202q23 29 23 58q0 30 -17.5 48.5t-47.5 18.5q-28 0 -46.5 -16.5t-18.5 -50.5h-58q0 54 34.5 86.5t88.5 32.5q55 0 89 -32.5t34 -86.5q0 -44 -39 -92l-138 -168h177v-52zM607 712l-333 -712h-60l333 712h60zM788 142q0 -78 -35 -113q-33 -33 -89 -33
q-58 0 -90 32q-29 29 -32 80h57q8 -60 65 -60q30 0 47 17q20 21 20 77q0 93 -64 93q-51 0 -63 -40h-53v232h227v-52h-174v-117q23 25 71 25q51 0 76 -27q37 -37 37 -114z" />
    <glyph glyph-name="uni2157" unicode="&#x2157;" horiz-adv-x="821" 
d="M293 405q0 -59 -36.5 -91.5t-92.5 -32.5q-55 0 -92 30t-39 89h58q2 -34 22.5 -50.5t50.5 -16.5q31 0 51.5 19.5t20.5 53.5t-19 53t-56 19h-9v51h9q33 0 50.5 18t17.5 49q0 32 -19 50t-47 18q-29 0 -47 -17t-20 -46h-57q3 53 38 84t86 31q55 0 89 -32.5t34 -86.5
q0 -66 -54 -91q61 -26 61 -101zM607 712l-333 -712h-60l333 712h60zM788 142q0 -78 -35 -113q-33 -33 -89 -33q-58 0 -90 32q-29 29 -32 80h57q8 -60 65 -60q30 0 47 17q20 21 20 77q0 93 -64 93q-51 0 -63 -40h-53v232h227v-52h-174v-117q23 25 71 25q51 0 76 -27
q37 -37 37 -114z" />
    <glyph glyph-name="uni2158" unicode="&#x2158;" horiz-adv-x="821" 
d="M298 350h-47v-65h-57v65h-172v52l151 310h62l-151 -310h110v105h57v-105h47v-52zM607 712l-333 -712h-60l333 712h60zM788 142q0 -78 -35 -113q-33 -33 -89 -33q-58 0 -90 32q-29 29 -32 80h57q8 -60 65 -60q30 0 47 17q20 21 20 77q0 93 -64 93q-51 0 -63 -40h-53v232
h227v-52h-174v-117q23 25 71 25q51 0 76 -27q37 -37 37 -114z" />
    <glyph glyph-name="uni2159" unicode="&#x2159;" horiz-adv-x="821" 
d="M207 285h-57v363l-83 -73v66l83 71h57v-427zM607 712l-333 -712h-60l333 712h60zM787 126q0 -58 -34 -94t-90 -36t-90.5 34.5t-34.5 92.5q0 43 29 101l100 203h61l-92 -185q17 7 39 7q48 0 80 -34.5t32 -88.5zM729 124q0 34 -18 55.5t-49 21.5q-30 0 -48.5 -20.5
t-18.5 -56.5q0 -35 18.5 -55.5t48.5 -20.5t48.5 20.5t18.5 55.5z" />
    <glyph glyph-name="uni215A" unicode="&#x215a;" horiz-adv-x="821" 
d="M285 427q0 -78 -35 -113q-33 -33 -89 -33q-58 0 -90 32q-29 29 -32 80h57q8 -60 65 -60q30 0 47 17q20 21 20 77q0 93 -64 93q-51 0 -63 -40h-53v232h227v-52h-174v-117q23 25 71 25q51 0 76 -27q37 -37 37 -114zM607 712l-333 -712h-60l333 712h60zM787 126
q0 -58 -34 -94t-90 -36t-90.5 34.5t-34.5 92.5q0 43 29 101l100 203h61l-92 -185q17 7 39 7q48 0 80 -34.5t32 -88.5zM729 124q0 34 -18 55.5t-49 21.5q-30 0 -48.5 -20.5t-18.5 -56.5q0 -35 18.5 -55.5t48.5 -20.5t48.5 20.5t18.5 55.5z" />
    <glyph glyph-name="oneeighth" unicode="&#x215b;" horiz-adv-x="821" 
d="M207 285h-57v363l-83 -73v66l83 71h57v-427zM607 712l-333 -712h-60l333 712h60zM793 120q0 -56 -37.5 -90t-93.5 -34q-55 0 -92.5 34t-37.5 90q0 66 60 101q-53 34 -53 92q0 52 35.5 85t87.5 33q53 0 88.5 -33t35.5 -85q0 -60 -53 -92q60 -36 60 -101zM735 121
q0 32 -21 53t-52 21t-51.5 -21t-20.5 -53q0 -31 20.5 -52t51.5 -21q32 0 52.5 21t20.5 52zM728 312q0 30 -18 48.5t-48 18.5q-29 0 -47 -19t-18 -48t18.5 -48t46.5 -19q29 0 47.5 19t18.5 48z" />
    <glyph glyph-name="threeeighths" unicode="&#x215c;" horiz-adv-x="821" 
d="M293 405q0 -59 -36.5 -91.5t-92.5 -32.5q-55 0 -92 30t-39 89h58q2 -34 22.5 -50.5t50.5 -16.5q31 0 51.5 19.5t20.5 53.5t-19 53t-56 19h-9v51h9q33 0 50.5 18t17.5 49q0 32 -19 50t-47 18q-29 0 -47 -17t-20 -46h-57q3 53 38 84t86 31q55 0 89 -32.5t34 -86.5
q0 -66 -54 -91q61 -26 61 -101zM607 712l-333 -712h-60l333 712h60zM793 120q0 -56 -37.5 -90t-93.5 -34q-55 0 -92.5 34t-37.5 90q0 66 60 101q-53 34 -53 92q0 52 35.5 85t87.5 33q53 0 88.5 -33t35.5 -85q0 -60 -53 -92q60 -36 60 -101zM735 121q0 32 -21 53t-52 21
t-51.5 -21t-20.5 -53q0 -31 20.5 -52t51.5 -21q32 0 52.5 21t20.5 52zM728 312q0 30 -18 48.5t-48 18.5q-29 0 -47 -19t-18 -48t18.5 -48t46.5 -19q29 0 47.5 19t18.5 48z" />
    <glyph glyph-name="fiveeighths" unicode="&#x215d;" horiz-adv-x="821" 
d="M285 427q0 -78 -35 -113q-33 -33 -89 -33q-58 0 -90 32q-29 29 -32 80h57q8 -60 65 -60q30 0 47 17q20 21 20 77q0 93 -64 93q-51 0 -63 -40h-53v232h227v-52h-174v-117q23 25 71 25q51 0 76 -27q37 -37 37 -114zM607 712l-333 -712h-60l333 712h60zM793 120
q0 -56 -37.5 -90t-93.5 -34q-55 0 -92.5 34t-37.5 90q0 66 60 101q-53 34 -53 92q0 52 35.5 85t87.5 33q53 0 88.5 -33t35.5 -85q0 -60 -53 -92q60 -36 60 -101zM735 121q0 32 -21 53t-52 21t-51.5 -21t-20.5 -53q0 -31 20.5 -52t51.5 -21q32 0 52.5 21t20.5 52zM728 312
q0 30 -18 48.5t-48 18.5q-29 0 -47 -19t-18 -48t18.5 -48t46.5 -19q29 0 47.5 19t18.5 48z" />
    <glyph glyph-name="seveneighths" unicode="&#x215e;" horiz-adv-x="821" 
d="M290 661l-144 -376h-57l144 375h-140v-70h-54v122h251v-51zM607 712l-333 -712h-60l333 712h60zM793 120q0 -56 -37.5 -90t-93.5 -34q-55 0 -92.5 34t-37.5 90q0 66 60 101q-53 34 -53 92q0 52 35.5 85t87.5 33q53 0 88.5 -33t35.5 -85q0 -60 -53 -92q60 -36 60 -101z
M735 121q0 32 -21 53t-52 21t-51.5 -21t-20.5 -53q0 -31 20.5 -52t51.5 -21q32 0 52.5 21t20.5 52zM728 312q0 30 -18 48.5t-48 18.5q-29 0 -47 -19t-18 -48t18.5 -48t46.5 -19q29 0 47.5 19t18.5 48z" />
    <glyph glyph-name="uni215F" unicode="&#x215f;" horiz-adv-x="503" 
d="M207 285h-57v363l-83 -73v66l83 71h57v-427zM607 712l-333 -712h-60l333 712h60z" />
    <glyph glyph-name="arrowleft" unicode="&#x2190;" horiz-adv-x="1027" 
d="M455 -130l-399 399l399 399h94l-365 -364h789v-70h-789l365 -364h-94z" />
    <glyph glyph-name="arrowup" unicode="&#x2191;" horiz-adv-x="1027" 
d="M115 328l399 399l399 -399v-94l-364 365v-789h-70v789l-364 -365v94z" />
    <glyph glyph-name="arrowright" unicode="&#x2192;" horiz-adv-x="1027" 
d="M480 -130l365 364h-789v70h789l-365 364h94l399 -399l-399 -399h-94z" />
    <glyph glyph-name="arrowdown" unicode="&#x2193;" horiz-adv-x="1027" 
d="M913 208l-399 -399l-399 399v94l364 -365v789h70v-789l364 365v-94z" />
    <glyph glyph-name="uni2196" unicode="&#x2196;" horiz-adv-x="1027" 
d="M189 28v565h565l66 -66h-515l558 -558l-50 -50l-557 558v-515z" />
    <glyph glyph-name="uni2197" unicode="&#x2197;" horiz-adv-x="1027" 
d="M298 593h565v-565l-66 -66v515l-558 -558l-50 50l558 557h-515z" />
    <glyph glyph-name="uni2198" unicode="&#x2198;" horiz-adv-x="1027" 
d="M842 -67h-564l-66 66l515 -1l-558 558l50 50l558 -558l-1 517l66 -68v-564z" />
    <glyph glyph-name="uni2199" unicode="&#x2199;" horiz-adv-x="1027" 
d="M858 556l-558 -558l515 1l-66 -66h-564v564l66 68l-1 -517l558 558z" />
    <glyph glyph-name="partialdiff" unicode="&#x2202;" horiz-adv-x="544" 
d="M453 244q0 -136 -57 -195q-52 -55 -136 -55q-85 0 -137 55q-57 59 -57 195q0 140 57 198q51 53 130 53q81 0 128 -58v70q0 64 -33.5 106.5t-101.5 42.5q-40 0 -63.5 -11.5t-54.5 -38.5l-46 46q40 36 76 51t90 15q98 0 151.5 -59t53.5 -157v-258zM381 244q0 112 -37 151
q-34 36 -84 36q-51 0 -85 -36q-37 -39 -37 -151q0 -111 37 -150q34 -36 85 -36q50 0 84 36q37 39 37 150z" />
    <glyph glyph-name="Delta" unicode="&#x2206;" horiz-adv-x="603" 
d="M594 0h-586l262 712h63zM495 66l-193 537l-194 -537h387z" />
    <glyph glyph-name="product" unicode="&#x220f;" horiz-adv-x="696" 
d="M593 -220h-76v912h-338v-912h-76v980h490v-980z" />
    <glyph glyph-name="summation" unicode="&#x2211;" horiz-adv-x="551" 
d="M500 -220h-443v65l202 438l-201 413v64h441v-68h-353l180 -375v-69l-182 -400h356v-68z" />
    <glyph glyph-name="minus" unicode="&#x2212;" horiz-adv-x="522" 
d="M470 236h-418v67h418v-67z" />
    <glyph glyph-name="uni2219" unicode="&#x2219;" horiz-adv-x="522" 
d="M424 334q0 -68 -48 -115.5t-115 -47.5t-115 47.5t-48 115.5t48 115.5t115 47.5t115 -47.5t48 -115.5z" />
    <glyph glyph-name="radical" unicode="&#x221a;" horiz-adv-x="562" 
d="M532 644h-89l-211 -644h-61l-163 492h79l115 -356l184 576h146v-68z" />
    <glyph glyph-name="infinity" unicode="&#x221e;" horiz-adv-x="808" 
d="M740 267q0 -69 -43.5 -114t-114.5 -45q-51 0 -92 24.5t-86 79.5q-45 -55 -86 -80t-91 -25q-71 0 -115.5 45.5t-44.5 114.5t44.5 114.5t115.5 45.5q49 0 90.5 -25.5t86.5 -80.5q46 56 86.5 81t91.5 25q71 0 114.5 -45.5t43.5 -114.5zM358 266q-41 50 -68 72t-61 22
q-41 0 -67 -26t-26 -68t26 -67.5t67 -25.5q34 0 61.5 22t67.5 71zM671 266q0 42 -25.5 67.5t-66.5 25.5q-34 0 -62 -22t-68 -71q40 -49 68 -71t62 -22q41 0 66.5 25.5t25.5 67.5z" />
    <glyph glyph-name="integral" unicode="&#x222b;" horiz-adv-x="372" 
d="M334 653h-38q-73 0 -73 -77v-654q0 -64 -36 -102t-100 -38h-50v62h39q73 0 73 77v654q0 64 36 102t100 38h49v-62z" />
    <glyph glyph-name="approxequal" unicode="&#x2248;" horiz-adv-x="539" 
d="M490 189q-41 -41 -67.5 -54.5t-61.5 -13.5q-37 0 -106 31q-52 24 -77 24q-22 0 -39 -8.5t-45 -36.5l-45 45q41 41 67.5 54.5t61.5 13.5q37 0 106 -31q52 -24 77 -24q22 0 39 8.5t45 36.5zM490 366q-41 -41 -67.5 -54.5t-61.5 -13.5q-34 0 -106 32q-50 23 -78 23
q-23 0 -39.5 -8t-44.5 -36l-44 44q41 41 67.5 55t61.5 14t105 -32q50 -23 78 -23q23 0 39.5 8t44.5 36z" />
    <glyph glyph-name="notequal" unicode="&#x2260;" horiz-adv-x="537" 
d="M485 151h-284l-103 -111l-46 40l67 71h-67v66h126l99 103h-225v67h284l104 111l45 -41l-67 -70h67v-67h-126l-98 -103h224v-66z" />
    <glyph glyph-name="lessequal" unicode="&#x2264;" horiz-adv-x="522" 
d="M426 134l-331 168v65l331 168v-77l-250 -124l250 -123v-77zM426 -16l-331 168v77l331 -168v-77z" />
    <glyph glyph-name="greaterequal" unicode="&#x2265;" horiz-adv-x="522" 
d="M426 302l-331 -168v77l250 123l-250 124v77l331 -168v-65zM426 152l-331 -168v77l331 168v-77z" />
    <glyph glyph-name="dotmath" unicode="&#x22c5;" horiz-adv-x="522" 
d="M308 223h-94v94h94v-94z" />
    <glyph glyph-name="lozenge" unicode="&#x25ca;" horiz-adv-x="649" 
d="M582 352l-257 -364l-258 364l258 364zM501 352l-176 253l-177 -253l177 -255z" />
    <glyph glyph-name="fi" unicode="&#xfb01;" horiz-adv-x="562" 
d="M283 437h-105v-437h-72v437h-63v55h63v90q0 58 32.5 95t92.5 37h52v-62h-39q-66 0 -66 -72v-88h105v-55zM472 0h-72v492h72v-492zM477 632h-81v81h81v-81z" />
    <glyph glyph-name="fl" unicode="&#xfb02;" horiz-adv-x="602" 
d="M283 437h-105v-437h-72v437h-63v55h63v90q0 58 32.5 95t92.5 37h52v-62h-39q-66 0 -66 -72v-88h105v-55zM573 0h-52q-62 0 -93.5 36t-31.5 95v581h72v-578q0 -37 15 -54.5t51 -17.5h39v-62z" />
    <glyph glyph-name="i.latn_TRK" horiz-adv-x="252" 
d="M162 0h-72v492h72v-492zM167 632h-81v81h81v-81z" />
    <glyph glyph-name="Ldot.latn_CAT" horiz-adv-x="573" 
d="M543 0h-440v712h76v-644h364v-68zM389 320v76h75v-76h-75z" />
    <glyph glyph-name="ldot.latn_CAT" horiz-adv-x="294" 
d="M265 0h-52q-62 0 -93.5 36t-31.5 95v581h72v-578q0 -37 15 -54.5t51 -17.5h39v-62zM233 231v77h75v-77h-75z" />
    <glyph glyph-name="zero.numr" horiz-adv-x="318" 
d="M281 403q0 -55 -35 -88.5t-87 -33.5t-87 33.5t-35 88.5v191q0 55 35 88.5t87 33.5t87 -33.5t35 -88.5v-191zM224 404v189q0 32 -17.5 52t-47.5 20t-47 -19.5t-17 -52.5v-189q0 -32 17 -51.5t47 -19.5t47.5 19.5t17.5 51.5z" />
    <glyph glyph-name="one.numr" horiz-adv-x="318" 
d="M207 285h-57v363l-83 -73v66l83 71h57v-427z" />
    <glyph glyph-name="two.numr" horiz-adv-x="318" 
d="M287 285h-246v52l165 202q23 29 23 58q0 30 -17.5 48.5t-47.5 18.5q-28 0 -46.5 -16.5t-18.5 -50.5h-58q0 54 34.5 86.5t88.5 32.5q55 0 89 -32.5t34 -86.5q0 -44 -39 -92l-138 -168h177v-52z" />
    <glyph glyph-name="three.numr" horiz-adv-x="318" 
d="M293 405q0 -59 -36.5 -91.5t-92.5 -32.5q-55 0 -92 30t-39 89h58q2 -34 22.5 -50.5t50.5 -16.5q31 0 51.5 19.5t20.5 53.5t-19 53t-56 19h-9v51h9q33 0 50.5 18t17.5 49q0 32 -19 50t-47 18q-29 0 -47 -17t-20 -46h-57q3 53 38 84t86 31q55 0 89 -32.5t34 -86.5
q0 -66 -54 -91q61 -26 61 -101z" />
    <glyph glyph-name="four.numr" horiz-adv-x="318" 
d="M298 350h-47v-65h-57v65h-172v52l151 310h62l-151 -310h110v105h57v-105h47v-52z" />
    <glyph glyph-name="five.numr" horiz-adv-x="318" 
d="M285 427q0 -78 -35 -113q-33 -33 -89 -33q-58 0 -90 32q-29 29 -32 80h57q8 -60 65 -60q30 0 47 17q20 21 20 77q0 93 -64 93q-51 0 -63 -40h-53v232h227v-52h-174v-117q23 25 71 25q51 0 76 -27q37 -37 37 -114z" />
    <glyph glyph-name="six.numr" horiz-adv-x="318" 
d="M284 411q0 -58 -34 -94t-90 -36t-90.5 34.5t-34.5 92.5q0 43 29 101l100 203h61l-92 -185q17 7 39 7q48 0 80 -34.5t32 -88.5zM226 409q0 34 -18 55.5t-49 21.5q-30 0 -48.5 -20.5t-18.5 -56.5q0 -35 18.5 -55.5t48.5 -20.5t48.5 20.5t18.5 55.5z" />
    <glyph glyph-name="seven.numr" horiz-adv-x="318" 
d="M290 661l-144 -376h-57l144 375h-140v-70h-54v122h251v-51z" />
    <glyph glyph-name="eight.numr" horiz-adv-x="318" 
d="M290 405q0 -56 -37.5 -90t-93.5 -34q-55 0 -92.5 34t-37.5 90q0 66 60 101q-53 34 -53 92q0 52 35.5 85t87.5 33q53 0 88.5 -33t35.5 -85q0 -60 -53 -92q60 -36 60 -101zM232 406q0 32 -21 53t-52 21t-51.5 -21t-20.5 -53q0 -31 20.5 -52t51.5 -21t52 20.5t21 52.5z
M225 597q0 30 -18 48.5t-48 18.5q-29 0 -47 -19t-18 -48t18.5 -48t46.5 -19q29 0 47.5 19t18.5 48z" />
    <glyph glyph-name="nine.numr" horiz-adv-x="318" 
d="M284 589q0 -37 -30 -100l-100 -204h-61l93 185q-21 -7 -40 -7q-48 0 -80 34.5t-32 88.5q0 58 34.5 94t90.5 36t90.5 -34.5t34.5 -92.5zM226 588q0 35 -18 55.5t-49 20.5q-30 0 -48.5 -20.5t-18.5 -55.5q0 -33 18 -55t49 -22q30 0 48.5 20.5t18.5 56.5z" />
    <glyph glyph-name="zero.dnom" horiz-adv-x="318" 
d="M281 118q0 -55 -35 -88.5t-87 -33.5t-87 33.5t-35 88.5v191q0 55 35 88.5t87 33.5t87 -33.5t35 -88.5v-191zM224 119v189q0 32 -17.5 52t-47.5 20t-47 -19.5t-17 -52.5v-189q0 -33 17 -52t47 -19t47.5 19.5t17.5 51.5z" />
    <glyph glyph-name="one.dnom" horiz-adv-x="318" 
d="M207 0h-57v363l-83 -73v66l83 71h57v-427z" />
    <glyph glyph-name="two.dnom" horiz-adv-x="318" 
d="M287 0h-246v52l165 202q23 29 23 58q0 30 -17.5 48.5t-47.5 18.5q-28 0 -46.5 -16.5t-18.5 -50.5h-58q0 54 34.5 86.5t88.5 32.5q55 0 89 -32.5t34 -86.5q0 -44 -39 -92l-138 -168h177v-52z" />
    <glyph glyph-name="three.dnom" horiz-adv-x="318" 
d="M293 120q0 -59 -36.5 -91.5t-92.5 -32.5q-55 0 -92 30t-39 89h58q2 -34 22.5 -50.5t50.5 -16.5q31 0 51.5 19.5t20.5 53.5t-19 53t-56 19h-9v51h9q33 0 50.5 18t17.5 49q0 32 -19 50t-47 18q-29 0 -47 -17t-20 -46h-57q3 53 38 84t86 31q55 0 89 -32.5t34 -86.5
q0 -66 -54 -91q61 -26 61 -101z" />
    <glyph glyph-name="four.dnom" horiz-adv-x="318" 
d="M298 65h-47v-65h-57v65h-172v52l151 310h62l-151 -310h110v105h57v-105h47v-52z" />
    <glyph glyph-name="five.dnom" horiz-adv-x="318" 
d="M285 142q0 -78 -35 -113q-33 -33 -89 -33q-58 0 -90 32q-29 29 -32 80h57q8 -60 65 -60q30 0 47 17q20 21 20 77q0 93 -64 93q-51 0 -63 -40h-53v232h227v-52h-174v-117q23 25 71 25q51 0 76 -27q37 -37 37 -114z" />
    <glyph glyph-name="six.dnom" horiz-adv-x="318" 
d="M284 126q0 -58 -34 -94t-90 -36t-90.5 34.5t-34.5 92.5q0 43 29 101l100 203h61l-92 -185q17 7 39 7q48 0 80 -34.5t32 -88.5zM226 124q0 34 -18 55.5t-49 21.5q-30 0 -48.5 -20.5t-18.5 -56.5q0 -35 18.5 -55.5t48.5 -20.5t48.5 20.5t18.5 55.5z" />
    <glyph glyph-name="seven.dnom" horiz-adv-x="318" 
d="M290 376l-144 -376h-57l144 375h-140v-70h-54v122h251v-51z" />
    <glyph glyph-name="eight.dnom" horiz-adv-x="318" 
d="M290 120q0 -56 -37.5 -90t-93.5 -34q-55 0 -92.5 34t-37.5 90q0 66 60 101q-53 34 -53 92q0 52 35.5 85t87.5 33q53 0 88.5 -33t35.5 -85q0 -60 -53 -92q60 -36 60 -101zM232 121q0 32 -21 53t-52 21t-51.5 -21t-20.5 -53q0 -31 20.5 -52t51.5 -21t52 21t21 52zM225 312
q0 30 -18 48.5t-48 18.5q-29 0 -47 -19t-18 -48t18.5 -48t46.5 -19q29 0 47.5 19t18.5 48z" />
    <glyph glyph-name="nine.dnom" horiz-adv-x="318" 
d="M284 304q0 -37 -30 -100l-100 -204h-61l93 185q-21 -7 -40 -7q-48 0 -80 34.5t-32 88.5q0 58 34.5 94t90.5 36t90.5 -34.5t34.5 -92.5zM226 303q0 35 -18 55.5t-49 20.5q-30 0 -48.5 -20.5t-18.5 -55.5q0 -33 18 -55t49 -22q30 0 48.5 20.5t18.5 56.5z" />
    <glyph glyph-name="space.frac" horiz-adv-x="49" 
 />
    <glyph glyph-name="zero.osf" horiz-adv-x="522" 
d="M456 190q0 -87 -55.5 -141.5t-139.5 -54.5t-139.5 54.5t-55.5 141.5v217q0 87 55.5 141.5t139.5 54.5t139.5 -54.5t55.5 -141.5v-217zM384 194v209q0 60 -32.5 98t-90.5 38t-90.5 -38t-32.5 -98v-209q0 -60 32.5 -98t90.5 -38t90.5 38t32.5 98z" />
    <glyph glyph-name="one.osf" horiz-adv-x="373" 
d="M256 0h-72v517l-133 -117v82l133 115h72v-597z" />
    <glyph glyph-name="two.osf" horiz-adv-x="506" 
d="M450 0h-409v64l251 242q68 66 68 134q0 51 -34.5 85t-87.5 34q-52 0 -87.5 -33.5t-35.5 -87.5h-72q0 80 55.5 132.5t139.5 52.5q86 0 140 -52t54 -130q0 -87 -92 -177l-204 -200h314v-64z" />
    <glyph glyph-name="three.osf" horiz-adv-x="515" 
d="M456 78q0 -95 -59 -148t-150 -53q-89 0 -147 47.5t-62 140.5h72q4 -63 42.5 -93t94.5 -30q60 0 98.5 36.5t38.5 100.5q0 138 -140 138h-14v63h14q64 0 95.5 33.5t31.5 95.5t-35 96t-89 34q-56 0 -89.5 -31.5t-38.5 -86.5h-72q6 84 61.5 133t138.5 49q87 0 141.5 -53
t54.5 -140q0 -114 -96 -158q109 -41 109 -174z" />
    <glyph glyph-name="four.osf" horiz-adv-x="541" 
d="M501 30h-91v-153h-71v153h-303v66l264 533h77l-265 -533h227v205h71v-205h91v-66z" />
    <glyph glyph-name="five.osf" horiz-adv-x="517" 
d="M453 120q0 -64 -11 -109t-46 -80q-53 -53 -142 -53q-92 0 -143 51q-44 45 -50 124h72q14 -111 121 -111q55 0 88 33q39 39 39 145q0 37 -4.5 64.5t-16.5 54t-37 40.5t-62 14q-46 0 -76.5 -19t-41.5 -51h-65v374h360v-64h-295v-226q44 49 128 49q78 0 123 -45
q59 -59 59 -191z" />
    <glyph glyph-name="six.osf" horiz-adv-x="527" 
d="M476 220q0 -99 -58 -162.5t-154 -63.5q-98 0 -155.5 60t-57.5 160q0 88 52 179l190 335h76l-180 -309q37 19 87 19q90 0 145 -61t55 -157zM404 216q0 69 -37.5 115.5t-103.5 46.5q-64 0 -102 -44t-38 -118q0 -73 38 -117t102 -44t102.5 44t38.5 117z" />
    <glyph glyph-name="seven.osf" horiz-adv-x="502" 
d="M467 533l-291 -656h-76l290 656h-274v-112h-71v176h422v-64z" />
    <glyph glyph-name="eight.osf" horiz-adv-x="538" 
d="M479 196q0 -89 -60 -145.5t-150 -56.5t-150 56.5t-60 145.5q0 112 107 173q-94 54 -94 158q0 83 56 137t141 54t141 -54t56 -137q0 -104 -94 -158q107 -61 107 -173zM407 197q0 59 -39.5 99t-98.5 40t-98.5 -40t-39.5 -99t39.5 -99t98.5 -40t98.5 40t39.5 99zM394 526
q0 56 -35 92t-90 36t-90 -36t-35 -92t35 -91.5t90 -35.5t90 35.5t35 91.5z" />
    <glyph glyph-name="nine.osf" horiz-adv-x="527" 
d="M476 383q0 -88 -52 -179l-190 -335h-76l180 309q-37 -19 -87 -19q-90 0 -145 61t-55 157q0 99 58 162.5t154 63.5q98 0 155.5 -60t57.5 -160zM404 381q0 73 -38 117t-102 44t-102.5 -44t-38.5 -117q0 -69 37.5 -115.5t103.5 -46.5q64 0 102 44t38 118z" />
    <glyph glyph-name="zero.lf" horiz-adv-x="522" 
d="M456 190q0 -87 -55.5 -141.5t-139.5 -54.5t-139.5 54.5t-55.5 141.5v332q0 87 55.5 141.5t139.5 54.5t139.5 -54.5t55.5 -141.5v-332zM384 194v324q0 60 -32.5 98t-90.5 38t-90.5 -38t-32.5 -98v-324q0 -60 32.5 -98t90.5 -38t90.5 38t32.5 98z" />
    <glyph glyph-name="one.lf" horiz-adv-x="372" 
d="M256 0h-72v632l-133 -117v82l133 115h72v-712z" />
    <glyph glyph-name="two.lf" horiz-adv-x="488" 
d="M434 0h-393v64l281 357q40 52 40 105q0 58 -33 93t-91 35q-54 0 -89 -32t-35 -97h-72q0 85 54 139t142 54t142 -52.5t54 -139.5q0 -41 -13 -73t-44 -71l-249 -318h306v-64z" />
    <glyph glyph-name="three.lf" horiz-adv-x="512" 
d="M456 194q0 -95 -59 -148t-150 -53q-89 0 -147 47.5t-62 140.5h72q4 -63 42.5 -93.5t94.5 -30.5q59 0 98 37t39 101q0 138 -140 138h-15v63h15q64 0 95.5 33.5t31.5 95.5t-35 96t-89 34q-56 0 -89.5 -32t-38.5 -87h-72q6 85 61.5 134t138.5 49q87 0 141.5 -53t54.5 -140
q0 -114 -96 -158q109 -41 109 -174z" />
    <glyph glyph-name="four.lf" horiz-adv-x="518" 
d="M478 113h-87v-113h-71v113h-284v65l257 534h77l-257 -534h207v202h71v-202h87v-65z" />
    <glyph glyph-name="five.lf" horiz-adv-x="517" 
d="M453 235q0 -64 -11 -109t-46 -80q-53 -53 -142 -53q-92 0 -143 51q-44 45 -50 124h72q14 -111 121 -111q55 0 88 33q39 39 39 145q0 37 -4.5 64.5t-16.5 54t-37 40.5t-62 14q-46 0 -76.5 -19t-41.5 -51h-65v374h360v-64h-295v-226q44 49 128 49q78 0 123 -45
q59 -59 59 -191z" />
    <glyph glyph-name="six.lf" horiz-adv-x="489" 
d="M442 205q0 -92 -54 -151.5t-143 -59.5q-90 0 -144 56t-54 149q0 70 45 160l175 353h74l-159 -320q33 15 75 15q83 0 134 -56.5t51 -145.5zM370 202q0 62 -33.5 103t-92.5 41q-57 0 -91 -39t-34 -105q0 -65 34 -104.5t91 -39.5t91.5 39.5t34.5 104.5z" />
    <glyph glyph-name="seven.lf" horiz-adv-x="471" 
d="M436 648l-247 -648h-76l247 648h-248v-112h-71v176h395v-64z" />
    <glyph glyph-name="eight.lf" horiz-adv-x="538" 
d="M479 196q0 -89 -60 -145.5t-150 -56.5t-150 56.5t-60 145.5q0 112 107 173q-93 53 -93 158q0 83 55.5 137t140.5 54t140.5 -54t55.5 -137q0 -105 -92 -158q106 -60 106 -173zM407 197q0 59 -39.5 99t-98.5 40t-98.5 -40t-39.5 -99t39.5 -99t98.5 -40t98.5 40t39.5 99z
M393 526q0 56 -34.5 92t-89.5 36t-89.5 -36t-34.5 -92t34.5 -91.5t89.5 -35.5t89.5 35.5t34.5 91.5z" />
    <glyph glyph-name="nine.lf" horiz-adv-x="489" 
d="M442 513q0 -70 -45 -160l-175 -353h-75l160 320q-33 -15 -76 -15q-82 0 -133 56.5t-51 145.5q0 92 54 151.5t143 59.5q90 0 144 -56t54 -149zM370 510q0 65 -34.5 104.5t-91.5 39.5t-91 -39.5t-34 -104.5q0 -62 33 -103t92 -41q57 0 91.5 39t34.5 105z" />
    <glyph glyph-name="zero.tosf" horiz-adv-x="522" 
d="M456 190q0 -87 -55.5 -141.5t-139.5 -54.5t-139.5 54.5t-55.5 141.5v217q0 87 55.5 141.5t139.5 54.5t139.5 -54.5t55.5 -141.5v-217zM384 194v209q0 60 -32.5 98t-90.5 38t-90.5 -38t-32.5 -98v-209q0 -60 32.5 -98t90.5 -38t90.5 38t32.5 98z" />
    <glyph glyph-name="one.tosf" horiz-adv-x="522" 
d="M330 0h-72v517l-133 -117v82l133 115h72v-597z" />
    <glyph glyph-name="two.tosf" horiz-adv-x="522" 
d="M468 0h-409v64l251 242q68 66 68 134q0 51 -34.5 85t-87.5 34q-52 0 -87.5 -33.5t-35.5 -87.5h-72q0 80 55.5 132.5t139.5 52.5q86 0 140 -52t54 -130q0 -87 -92 -177l-204 -200h314v-64z" />
    <glyph glyph-name="three.tosf" horiz-adv-x="522" 
d="M460 78q0 -95 -59 -148t-150 -53q-89 0 -147 47.5t-62 140.5h72q4 -63 42.5 -93t94.5 -30q60 0 98.5 36.5t38.5 100.5q0 138 -140 138h-14v63h14q64 0 95.5 33.5t31.5 95.5t-35 96t-89 34q-56 0 -89.5 -31.5t-38.5 -86.5h-72q6 84 61.5 133t138.5 49q87 0 141.5 -53
t54.5 -140q0 -114 -96 -158q109 -41 109 -174z" />
    <glyph glyph-name="four.tosf" horiz-adv-x="522" 
d="M495 30h-91v-153h-71v153h-303v66l264 533h77l-265 -533h227v205h71v-205h91v-66z" />
    <glyph glyph-name="five.tosf" horiz-adv-x="522" 
d="M457 120q0 -64 -11 -109t-46 -80q-53 -53 -142 -53q-92 0 -143 51q-44 45 -50 124h72q14 -111 121 -111q55 0 88 33q39 39 39 145q0 37 -4.5 64.5t-16.5 54t-37 40.5t-62 14q-46 0 -76.5 -19t-41.5 -51h-65v374h360v-64h-295v-226q44 49 128 49q78 0 123 -45
q59 -59 59 -191z" />
    <glyph glyph-name="six.tosf" horiz-adv-x="522" 
d="M475 220q0 -99 -58 -162.5t-154 -63.5q-98 0 -155.5 60t-57.5 160q0 88 52 179l190 335h76l-180 -309q37 19 87 19q90 0 145 -61t55 -157zM403 216q0 69 -37.5 115.5t-103.5 46.5q-64 0 -102 -44t-38 -118q0 -73 38 -117t102 -44t102.5 44t38.5 117z" />
    <glyph glyph-name="seven.tosf" horiz-adv-x="522" 
d="M482 533l-291 -656h-76l290 656h-274v-112h-71v176h422v-64z" />
    <glyph glyph-name="eight.tosf" horiz-adv-x="522" 
d="M471 196q0 -89 -60 -145.5t-150 -56.5t-150 56.5t-60 145.5q0 112 107 173q-94 54 -94 158q0 83 56 137t141 54t141 -54t56 -137q0 -104 -94 -158q107 -61 107 -173zM399 197q0 59 -39.5 99t-98.5 40t-98.5 -40t-39.5 -99t39.5 -99t98.5 -40t98.5 40t39.5 99zM386 526
q0 56 -35 92t-90 36t-90 -36t-35 -92t35 -91.5t90 -35.5t90 35.5t35 91.5z" />
    <glyph glyph-name="nine.tosf" horiz-adv-x="522" 
d="M472 383q0 -88 -52 -179l-190 -335h-76l180 309q-37 -19 -87 -19q-90 0 -145 61t-55 157q0 99 58 162.5t154 63.5q98 0 155.5 -60t57.5 -160zM400 381q0 73 -38 117t-102 44t-102.5 -44t-38.5 -117q0 -69 37.5 -115.5t103.5 -46.5q64 0 102 44t38 118z" />
    <glyph glyph-name="uni2007.tosf" horiz-adv-x="522" 
 />
    <glyph glyph-name="hyphen.case" horiz-adv-x="426" 
d="M350 322h-274v67h274v-67z" />
    <glyph glyph-name="exclamdown.case" horiz-adv-x="316" 
d="M184 0h-83l10 512h62zM185 628h-86v84h86v-84z" />
    <glyph glyph-name="guillemotleft.case" horiz-adv-x="554" 
d="M250 146l-210 210l210 210v-90l-120 -120l120 -121v-89zM476 146l-210 210l210 210v-90l-121 -120l121 -121v-89z" />
    <glyph glyph-name="uni00AD.case" horiz-adv-x="426" 
d="M350 322h-274v67h274v-67z" />
    <glyph glyph-name="guillemotright.case" horiz-adv-x="554" 
d="M514 356l-210 -210v89l120 121l-120 120v90zM288 356l-210 -210v89l121 121l-121 120v90z" />
    <glyph glyph-name="questiondown.case" horiz-adv-x="497" 
d="M421 177q0 -77 -53.5 -130t-133.5 -53t-134 52t-54 131q0 53 46 120l82 118q18 27 18 58v40h72v-41q0 -48 -32 -94l-81 -116q-33 -49 -33 -85q0 -50 33 -84t83 -34q52 0 83.5 34.5t31.5 83.5h72zM270 628h-85v84h85v-84z" />
    <glyph glyph-name="endash.case" horiz-adv-x="522" 
d="M470 322h-418v67h418v-67z" />
    <glyph glyph-name="emdash.case" horiz-adv-x="914" 
d="M838 322h-762v68h762v-68z" />
    <glyph glyph-name="afii00208.case" horiz-adv-x="914" 
d="M838 322h-762v68h762v-68z" />
    <glyph glyph-name="guilsinglleft.case" horiz-adv-x="328" 
d="M250 146l-210 210l210 210v-90l-120 -120l120 -121v-89z" />
    <glyph glyph-name="guilsinglright.case" horiz-adv-x="328" 
d="M288 356l-210 -210v89l121 121l-121 120v90z" />
    <glyph glyph-name="caroncomma.ss01" 
d="M620 596l-68 -65v190h68v-125z" />
    <glyph glyph-name="commaaccent.ss01" horiz-adv-x="264" 
d="M184 -133q0 -42 -28.5 -69t-75.5 -27v45q23 0 38.5 14.5t15.5 36.5t-15.5 36.5t-38.5 14.5v45q47 0 75.5 -27t28.5 -69z" />
    <glyph glyph-name="commaturn.ss01" horiz-adv-x="264" 
d="M169 557q-46 0 -75 27.5t-29 68.5q0 42 28.5 69t75.5 27v-44q-23 0 -38.5 -15t-15.5 -37q0 -21 15.5 -36t38.5 -15v-45z" />
    <glyph glyph-name="exclam.ss01" horiz-adv-x="316" 
d="M216 712l-13 -512h-58l-13 512h84zM224 47q0 -21 -14.5 -35.5t-35.5 -14.5t-36 14.5t-15 35.5t15 35.5t36 14.5t35.5 -14.5t14.5 -35.5z" />
    <glyph glyph-name="period.ss01" horiz-adv-x="272" 
d="M193 54q0 -23 -17 -40t-40 -17t-40 17t-17 40t17 40t40 17t40 -17t17 -40z" />
    <glyph glyph-name="colon.ss01" horiz-adv-x="299" 
d="M220 345q0 -23 -17 -40t-40 -17t-40 17t-17 40t17 40t40 17t40 -17t17 -40zM220 54q0 -23 -17 -40t-40 -17t-40 17t-17 40t17 40t40 17t40 -17t17 -40z" />
    <glyph glyph-name="semicolon.ss01" horiz-adv-x="297" 
d="M207 -65l-88 -79v232h88v-153zM220 345q0 -23 -17 -40t-40 -17t-40 17t-17 40t17 40t40 17t40 -17t17 -40z" />
    <glyph glyph-name="question.ss01" horiz-adv-x="497" 
d="M451 536q0 -55 -45 -121l-82 -118q-18 -27 -18 -58v-39h-72v40q0 50 31 94l81 117q33 49 33 85q0 51 -32.5 84.5t-82.5 33.5q-52 0 -84 -35t-32 -84h-72q0 77 54 130t134 53t133.5 -51.5t53.5 -130.5zM319 47q0 -21 -14.5 -35.5t-35.5 -14.5t-35.5 14.5t-14.5 35.5
t14.5 35.5t35.5 14.5t35.5 -14.5t14.5 -35.5z" />
    <glyph glyph-name="at.ss01" horiz-adv-x="950" 
d="M886 322q0 -121 -83 -207.5t-208 -86.5h-62l12 57q-51 -63 -123 -63q-63 0 -101.5 36t-38.5 105q0 39 9 84q24 128 83 179q50 45 120 45q85 0 112 -67l13 61h64l-78 -388q95 1 157 74.5t62 170.5q0 132 -87 214.5t-224 82.5q-155 0 -264 -110t-109 -267
q0 -167 104.5 -273.5t275.5 -106.5h50l-11 -54h-50q-189 0 -311 123t-122 311q0 183 127 309t310 126q166 0 269.5 -98.5t103.5 -256.5zM581 321q0 47 -24 69t-59 22q-45 0 -80 -33q-41 -39 -59 -133q-9 -47 -9 -74q0 -47 23.5 -69t58.5 -22q46 0 82 34q40 38 58 132
q9 47 9 74z" />
    <glyph glyph-name="C.ss01" horiz-adv-x="587" 
d="M525 81q-90 -87 -200 -87q-108 0 -178 70q-47 47 -59 103t-12 189t12 189t59 103q70 70 178 70q110 0 200 -87l-51 -51q-37 37 -69 53.5t-80 16.5q-73 0 -123 -50q-32 -33 -41 -80.5t-9 -163.5t9 -163.5t41 -80.5q50 -50 123 -50q48 0 80 16.5t69 53.5z" />
    <glyph glyph-name="G.ss01" horiz-adv-x="645" 
d="M575 260q0 -120 -61 -184q-76 -82 -189 -82q-108 0 -178 70q-47 47 -59 103t-12 189t12 189t59 103q70 70 178 70q67 0 114.5 -23t98.5 -74l-51 -51q-42 42 -76.5 61t-85.5 19q-75 0 -123 -50q-32 -33 -41 -80.5t-9 -163.5t9 -163.5t41 -80.5q48 -50 123 -50q84 0 134 61
q40 48 40 130v54h-174v65h250v-112z" />
    <glyph glyph-name="i.ss01" horiz-adv-x="253" 
d="M162 0h-72v492h72v-492zM176 677q0 -20 -15 -34.5t-35 -14.5t-34.5 14.5t-14.5 34.5t14.5 34.5t34.5 14.5t35 -14.5t15 -34.5z" />
    <glyph glyph-name="j.ss01" horiz-adv-x="253" 
d="M162 -89q0 -59 -31.5 -95.5t-93.5 -36.5h-52v63h39q36 0 51 17.5t15 54.5v578h72v-581zM176 677q0 -20 -15 -34.5t-35 -14.5t-34.5 14.5t-14.5 34.5t14.5 34.5t34.5 14.5t35 -14.5t15 -34.5z" />
    <glyph glyph-name="exclamdown.ss01" horiz-adv-x="316" 
d="M191 -220h-84l13 512h58zM199 445q0 -21 -14.5 -35.5t-35.5 -14.5t-35.5 14.5t-14.5 35.5t14.5 35.5t35.5 14.5t35.5 -14.5t14.5 -35.5z" />
    <glyph glyph-name="dieresis.ss01" horiz-adv-x="500" 
d="M401 645q0 -19 -13 -32t-32 -13t-32 13t-13 32t13 32.5t32 13.5t32 -13.5t13 -32.5zM189 645q0 -19 -13 -32t-32 -13t-32 13t-13 32t13 32.5t32 13.5t32 -13.5t13 -32.5z" />
    <glyph glyph-name="periodcentered.ss01" horiz-adv-x="272" 
d="M193 267q0 -23 -17 -40t-40 -17t-40 17t-17 40t17 39.5t40 16.5t40 -16.5t17 -39.5z" />
    <glyph glyph-name="cedilla.ss01" horiz-adv-x="500" 
d="M322 -133q0 -42 -28.5 -69t-75.5 -27v45q23 0 38.5 14.5t15.5 36.5t-15.5 36.5t-38.5 14.5v45q47 0 75.5 -27t28.5 -69z" />
    <glyph glyph-name="questiondown.ss01" horiz-adv-x="497" 
d="M427 -43q0 -77 -54 -130t-134 -53t-133.5 51.5t-53.5 131.5q0 54 45 120l82 118q18 27 18 58v40h72v-41q0 -50 -31 -94l-81 -116q-33 -49 -33 -85q0 -51 32.5 -84.5t82.5 -33.5q52 0 84 34.5t32 83.5h72zM284 445q0 -21 -14.5 -35.5t-35.5 -14.5t-36 14.5t-15 35.5
t15 35.5t36 14.5t35.5 -14.5t14.5 -35.5z" />
    <glyph glyph-name="Adieresis.ss01" horiz-adv-x="611" 
d="M599 0h-81l-57 161h-311l-57 -161h-81l262 712h64zM439 227l-132 376l-134 -376h266zM453 832q0 -19 -13 -32t-32 -13t-32 13t-13 32t13 32.5t32 13.5t32 -13.5t13 -32.5zM241 832q0 -19 -13 -32t-32 -13t-32 13t-13 32t13 32.5t32 13.5t32 -13.5t13 -32.5z" />
    <glyph glyph-name="Ccedilla.ss01" horiz-adv-x="587" 
d="M525 81q-90 -87 -200 -87q-108 0 -178 70q-47 47 -59 103t-12 189t12 189t59 103q70 70 178 70q110 0 200 -87l-51 -51q-37 37 -69 53.5t-80 16.5q-73 0 -123 -50q-32 -33 -41 -80.5t-9 -163.5t9 -163.5t41 -80.5q50 -50 123 -50q48 0 80 16.5t69 53.5zM377 -133
q0 -42 -28.5 -69t-75.5 -27v45q23 0 38.5 14.5t15.5 36.5t-15.5 36.5t-38.5 14.5v45q47 0 75.5 -27t28.5 -69z" />
    <glyph glyph-name="Edieresis.ss01" horiz-adv-x="600" 
d="M545 0h-442v712h442v-68h-366v-251h312v-68h-312v-257h366v-68zM464 832q0 -19 -13 -32t-32 -13t-32 13t-13 32t13 32.5t32 13.5t32 -13.5t13 -32.5zM252 832q0 -19 -13 -32t-32 -13t-32 13t-13 32t13 32.5t32 13.5t32 -13.5t13 -32.5z" />
    <glyph glyph-name="Idieresis.ss01" horiz-adv-x="282" 
d="M179 0h-76v712h76v-712zM294 832q0 -19 -13 -32t-32 -13t-32 13t-13 32t13 32.5t32 13.5t32 -13.5t13 -32.5zM82 832q0 -19 -13 -32t-32 -13t-32 13t-13 32t13 32.5t32 13.5t32 -13.5t13 -32.5z" />
    <glyph glyph-name="Odieresis.ss01" horiz-adv-x="650" 
d="M574 356q0 -132 -12 -188t-60 -104q-70 -70 -177 -70q-108 0 -178 70q-47 47 -59 103t-12 189t12 189t59 103q70 70 178 70q107 0 177 -70q48 -48 60 -104t12 -188zM498 356q0 116 -9 163.5t-41 80.5q-50 50 -123 50t-123 -50q-32 -33 -41 -80.5t-9 -163.5t9 -163.5
t41 -80.5q50 -50 123 -50t123 50q32 33 41 80.5t9 163.5zM476 832q0 -19 -13 -32t-32 -13t-32 13t-13 32t13 32.5t32 13.5t32 -13.5t13 -32.5zM264 832q0 -19 -13 -32t-32 -13t-32 13t-13 32t13 32.5t32 13.5t32 -13.5t13 -32.5z" />
    <glyph glyph-name="Udieresis.ss01" horiz-adv-x="683" 
d="M590 235q0 -106 -70.5 -173.5t-178.5 -67.5t-178 67.5t-70 173.5v477h76v-471q0 -81 47 -130t125 -49t125.5 49t47.5 130v471h76v-477zM492 832q0 -19 -13 -32t-32 -13t-32 13t-13 32t13 32.5t32 13.5t32 -13.5t13 -32.5zM280 832q0 -19 -13 -32t-32 -13t-32 13t-13 32
t13 32.5t32 13.5t32 -13.5t13 -32.5z" />
    <glyph glyph-name="adieresis.ss01" horiz-adv-x="526" 
d="M441 0h-72v47q-29 -29 -61 -41t-81 -12q-93 0 -139 45q-37 36 -37 100q0 66 44.5 104t126.5 38h147v47q0 55 -29.5 81.5t-96.5 26.5q-46 0 -73.5 -13t-50.5 -44l-49 45q31 42 71 58t103 16q197 0 197 -164v-334zM369 174v53h-137q-111 0 -111 -87q0 -84 114 -84
q73 0 109 33q25 24 25 85zM403 645q0 -19 -13 -32t-32 -13t-32 13t-13 32t13 32.5t32 13.5t32 -13.5t13 -32.5zM191 645q0 -19 -13 -32t-32 -13t-32 13t-13 32t13 32.5t32 13.5t32 -13.5t13 -32.5z" />
    <glyph glyph-name="ccedilla.ss01" horiz-adv-x="490" 
d="M443 67q-38 -41 -74 -57t-88 -16q-97 0 -157.5 65t-60.5 187t60.5 187t157.5 65q52 0 88 -16t74 -57l-49 -46q-28 31 -53 43t-60 12q-75 0 -114 -56q-32 -45 -32 -132t32 -132q39 -56 114 -56q35 0 60 12.5t53 43.5zM322 -133q0 -42 -28.5 -69t-75.5 -27v45
q23 0 38.5 14.5t15.5 36.5t-15.5 36.5t-38.5 14.5v45q47 0 75.5 -27t28.5 -69z" />
    <glyph glyph-name="edieresis.ss01" 
d="M467 227h-332q0 -82 37 -126t108 -44q42 0 70.5 13t58.5 43l49 -43q-40 -40 -80 -58t-100 -18q-102 0 -158.5 62.5t-56.5 189.5q0 119 54 185.5t148 66.5q95 0 148.5 -63.5t53.5 -175.5v-32zM396 281q-4 57 -16 82q-35 74 -115 74t-115 -74q-12 -26 -15 -82h261zM419 645
q0 -19 -13 -32t-32 -13t-32 13t-13 32t13 32.5t32 13.5t32 -13.5t13 -32.5zM207 645q0 -19 -13 -32t-32 -13t-32 13t-13 32t13 32.5t32 13.5t32 -13.5t13 -32.5z" />
    <glyph glyph-name="idieresis.ss01" horiz-adv-x="253" 
d="M162 0h-72v492h72v-492zM278 645q0 -19 -13 -32t-32 -13t-32 13t-13 32t13 32.5t32 13.5t32 -13.5t13 -32.5zM66 645q0 -19 -13 -32t-32 -13t-32 13t-13 32t13 32.5t32 13.5t32 -13.5t13 -32.5z" />
    <glyph glyph-name="odieresis.ss01" 
d="M466 246q0 -135 -60 -196q-54 -56 -141 -56t-141 56q-60 61 -60 196q0 136 60 196q54 56 141 56t141 -56q60 -60 60 -196zM394 246q0 113 -39 152q-36 36 -90 36q-53 0 -89 -36q-40 -40 -40 -152t40 -152q36 -36 89 -36q54 0 90 36q39 40 39 152zM416 645q0 -19 -13 -32
t-32 -13t-32 13t-13 32t13 32.5t32 13.5t32 -13.5t13 -32.5zM204 645q0 -19 -13 -32t-32 -13t-32 13t-13 32t13 32.5t32 13.5t32 -13.5t13 -32.5z" />
    <glyph glyph-name="divide.ss01" horiz-adv-x="522" 
d="M471 236h-420v67h420v-67zM318 90q0 -23 -17 -40t-40 -17t-40 17t-17 40t17 40t40 17t40 -17t17 -40zM318 449q0 -23 -17 -40t-40 -17t-40 17t-17 40t17 40t40 17t40 -17t17 -40z" />
    <glyph glyph-name="udieresis.ss01" horiz-adv-x="562" 
d="M472 0h-71v55q-53 -61 -139 -61q-81 0 -127 46q-50 49 -50 138v314h72v-303q0 -64 31.5 -97.5t88.5 -33.5t90 34t33 97v303h72v-492zM429 645q0 -19 -13 -32t-32 -13t-32 13t-13 32t13 32.5t32 13.5t32 -13.5t13 -32.5zM217 645q0 -19 -13 -32t-32 -13t-32 13t-13 32
t13 32.5t32 13.5t32 -13.5t13 -32.5z" />
    <glyph glyph-name="ydieresis.ss01" horiz-adv-x="447" 
d="M436 492l-224 -611q-14 -39 -35 -58q-35 -34 -96 -34h-31v64h22q36 0 52.5 13t28.5 48l35 96l-177 482h78l135 -395l134 395h78zM374 645q0 -19 -13 -32t-32 -13t-32 13t-13 32t13 32.5t32 13.5t32 -13.5t13 -32.5zM162 645q0 -19 -13 -32t-32 -13t-32 13t-13 32t13 32.5
t32 13.5t32 -13.5t13 -32.5z" />
    <glyph glyph-name="Aogonek.ss01" horiz-adv-x="611" 
d="M599 0h-81l-57 161h-311l-57 -161h-81l262 712h64zM439 227l-132 376l-134 -376h266zM590 -229q-47 0 -75.5 27t-28.5 69t28.5 69t75.5 27v-45q-23 0 -38.5 -14.5t-15.5 -36.5t15.5 -36.5t38.5 -14.5v-45z" />
    <glyph glyph-name="aogonek.ss01" horiz-adv-x="526" 
d="M441 0h-72v47q-29 -29 -61 -41t-81 -12q-93 0 -139 45q-37 36 -37 100q0 66 44.5 104t126.5 38h147v47q0 55 -29.5 81.5t-96.5 26.5q-46 0 -73.5 -13t-50.5 -44l-49 45q31 42 71 58t103 16q197 0 197 -164v-334zM369 174v53h-137q-111 0 -111 -87q0 -84 114 -84
q73 0 109 33q25 24 25 85zM431 -229q-47 0 -75.5 27t-28.5 69t28.5 69t75.5 27v-45q-23 0 -38.5 -14.5t-15.5 -36.5t15.5 -36.5t38.5 -14.5v-45z" />
    <glyph glyph-name="Cacute.ss01" horiz-adv-x="587" 
d="M525 81q-90 -87 -200 -87q-108 0 -178 70q-47 47 -59 103t-12 189t12 189t59 103q70 70 178 70q110 0 200 -87l-51 -51q-37 37 -69 53.5t-80 16.5q-73 0 -123 -50q-32 -33 -41 -80.5t-9 -163.5t9 -163.5t41 -80.5q50 -50 123 -50q48 0 80 16.5t69 53.5zM429 934
l-105 -154h-69l91 154h83z" />
    <glyph glyph-name="Ccircumflex.ss01" horiz-adv-x="587" 
d="M525 81q-90 -87 -200 -87q-108 0 -178 70q-47 47 -59 103t-12 189t12 189t59 103q70 70 178 70q110 0 200 -87l-51 -51q-37 37 -69 53.5t-80 16.5q-73 0 -123 -50q-32 -33 -41 -80.5t-9 -163.5t9 -163.5t41 -80.5q50 -50 123 -50q48 0 80 16.5t69 53.5zM484 780h-69
l-90 105l-91 -105h-69l126 153h68z" />
    <glyph glyph-name="Cdotaccent.ss01" horiz-adv-x="587" 
d="M525 81q-90 -87 -200 -87q-108 0 -178 70q-47 47 -59 103t-12 189t12 189t59 103q70 70 178 70q110 0 200 -87l-51 -51q-37 37 -69 53.5t-80 16.5q-73 0 -123 -50q-32 -33 -41 -80.5t-9 -163.5t9 -163.5t41 -80.5q50 -50 123 -50q48 0 80 16.5t69 53.5zM383 834
q0 -19 -13 -32t-31 -13q-19 0 -32.5 13t-13.5 31q0 19 13 32.5t32 13.5t32 -13t13 -32z" />
    <glyph glyph-name="cdotaccent.ss01" horiz-adv-x="490" 
d="M443 67q-38 -41 -74 -57t-88 -16q-97 0 -157.5 65t-60.5 187t60.5 187t157.5 65q52 0 88 -16t74 -57l-49 -46q-28 31 -53 43t-60 12q-75 0 -114 -56q-32 -45 -32 -132t32 -132q39 -56 114 -56q35 0 60 12.5t53 43.5zM328 656q0 -19 -13 -32.5t-32 -13.5t-32 13.5
t-13 31.5q0 19 13 32t31 13q19 0 32.5 -13t13.5 -31z" />
    <glyph glyph-name="Ccaron.ss01" horiz-adv-x="587" 
d="M525 81q-90 -87 -200 -87q-108 0 -178 70q-47 47 -59 103t-12 189t12 189t59 103q70 70 178 70q110 0 200 -87l-51 -51q-37 37 -69 53.5t-80 16.5q-73 0 -123 -50q-32 -33 -41 -80.5t-9 -163.5t9 -163.5t41 -80.5q50 -50 123 -50q48 0 80 16.5t69 53.5zM485 933
l-126 -153h-68l-125 153h69l90 -104l91 104h69z" />
    <glyph glyph-name="dcaron.ss01" horiz-adv-x="545" 
d="M455 0h-71v59q-29 -37 -62 -51t-78 -14q-77 0 -120 43q-60 61 -60 209q0 149 60 209q43 43 120 43q45 0 77.5 -13.5t61.5 -49.5v277h72v-712zM383 246q0 41 -4.5 71t-16.5 58.5t-38 43.5t-64 15q-31 0 -54 -10.5t-36.5 -27.5t-21 -43t-10 -50.5t-2.5 -56.5t2.5 -56.5
t10 -50.5t21 -43t36.5 -27.5t54 -10.5q38 0 64 15t38 43.5t16.5 58.5t4.5 71zM620 596l-68 -65v190h68v-125z" />
    <glyph glyph-name="Edotaccent.ss01" horiz-adv-x="600" 
d="M545 0h-442v712h442v-68h-366v-251h312v-68h-312v-257h366v-68zM344 834q0 -19 -13 -32t-31 -13q-19 0 -32.5 13t-13.5 31q0 19 13 32.5t32 13.5t32 -13t13 -32z" />
    <glyph glyph-name="edotaccent.ss01" 
d="M467 227h-332q0 -82 37 -126t108 -44q42 0 70.5 13t58.5 43l49 -43q-40 -40 -80 -58t-100 -18q-102 0 -158.5 62.5t-56.5 189.5q0 119 54 185.5t148 66.5q95 0 148.5 -63.5t53.5 -175.5v-32zM396 281q-4 57 -16 82q-35 74 -115 74t-115 -74q-12 -26 -15 -82h261zM309 656
q0 -19 -13 -32.5t-32 -13.5t-32 13.5t-13 31.5q0 19 13 32t31 13q19 0 32.5 -13t13.5 -31z" />
    <glyph glyph-name="Eogonek.ss01" horiz-adv-x="600" 
d="M545 0h-442v712h442v-68h-366v-251h312v-68h-312v-257h366v-68zM533 -229q-47 0 -75.5 27t-28.5 69t28.5 69t75.5 27v-45q-23 0 -38.5 -14.5t-15.5 -36.5t15.5 -36.5t38.5 -14.5v-45z" />
    <glyph glyph-name="eogonek.ss01" 
d="M467 227h-332q0 -82 37 -126t108 -44q42 0 70.5 13t58.5 43l49 -43q-40 -40 -80 -58t-100 -18q-102 0 -158.5 62.5t-56.5 189.5q0 119 54 185.5t148 66.5q95 0 148.5 -63.5t53.5 -175.5v-32zM396 281q-4 57 -16 82q-35 74 -115 74t-115 -74q-12 -26 -15 -82h261z
M428 -229q-47 0 -75.5 27t-28.5 69t28.5 69t75.5 27v-45q-23 0 -38.5 -14.5t-15.5 -36.5t15.5 -36.5t38.5 -14.5v-45z" />
    <glyph glyph-name="Gcircumflex.ss01" horiz-adv-x="645" 
d="M575 260q0 -120 -61 -184q-76 -82 -189 -82q-108 0 -178 70q-47 47 -59 103t-12 189t12 189t59 103q70 70 178 70q67 0 114.5 -23t98.5 -74l-51 -51q-42 42 -76.5 61t-85.5 19q-75 0 -123 -50q-32 -33 -41 -80.5t-9 -163.5t9 -163.5t41 -80.5q48 -50 123 -50q84 0 134 61
q40 48 40 130v54h-174v65h250v-112zM484 780h-69l-90 105l-91 -105h-69l126 153h68z" />
    <glyph glyph-name="Gbreve.ss01" horiz-adv-x="645" 
d="M575 260q0 -120 -61 -184q-76 -82 -189 -82q-108 0 -178 70q-47 47 -59 103t-12 189t12 189t59 103q70 70 178 70q67 0 114.5 -23t98.5 -74l-51 -51q-42 42 -76.5 61t-85.5 19q-75 0 -123 -50q-32 -33 -41 -80.5t-9 -163.5t9 -163.5t41 -80.5q48 -50 123 -50q84 0 134 61
q40 48 40 130v54h-174v65h250v-112zM490 933q-12 -139 -165 -139t-165 139h56q5 -40 34 -61.5t75 -21.5t75 21.5t34 61.5h56z" />
    <glyph glyph-name="Gdotaccent.ss01" horiz-adv-x="645" 
d="M575 260q0 -120 -61 -184q-76 -82 -189 -82q-108 0 -178 70q-47 47 -59 103t-12 189t12 189t59 103q70 70 178 70q67 0 114.5 -23t98.5 -74l-51 -51q-42 42 -76.5 61t-85.5 19q-75 0 -123 -50q-32 -33 -41 -80.5t-9 -163.5t9 -163.5t41 -80.5q48 -50 123 -50q84 0 134 61
q40 48 40 130v54h-174v65h250v-112zM388 834q0 -19 -13 -32t-31 -13q-19 0 -32.5 13t-13.5 31q0 19 13 32.5t32 13.5t32 -13t13 -32z" />
    <glyph glyph-name="gdotaccent.ss01" horiz-adv-x="543" 
d="M453 -15q0 -93 -55 -152t-150 -59q-54 0 -90.5 15t-76.5 51l47 46q30 -27 54 -38t64 -11q68 0 101.5 42t33.5 109v77q-50 -64 -138 -64q-75 0 -119 44q-60 60 -60 205t60 205q43 43 120 43q89 0 138 -64v58h71v-507zM381 250q0 39 -4.5 68t-16.5 57.5t-37.5 43.5
t-63.5 15t-64 -15t-38 -43.5t-16.5 -57.5t-4.5 -68t4.5 -68t16.5 -57.5t38 -43.5t64 -15t63.5 15t37.5 43.5t16.5 57.5t4.5 68zM304 656q0 -19 -13 -32.5t-32 -13.5t-32 13.5t-13 31.5q0 19 13 32t31 13q19 0 32.5 -13t13.5 -31z" />
    <glyph glyph-name="Gcommaaccent.ss01" horiz-adv-x="645" 
d="M575 260q0 -120 -61 -184q-76 -82 -189 -82q-108 0 -178 70q-47 47 -59 103t-12 189t12 189t59 103q70 70 178 70q67 0 114.5 -23t98.5 -74l-51 -51q-42 42 -76.5 61t-85.5 19q-75 0 -123 -50q-32 -33 -41 -80.5t-9 -163.5t9 -163.5t41 -80.5q48 -50 123 -50q84 0 134 61
q40 48 40 130v54h-174v65h250v-112zM384 -133q0 -42 -28.5 -69t-75.5 -27v45q23 0 38.5 14.5t15.5 36.5t-15.5 36.5t-38.5 14.5v45q47 0 75.5 -27t28.5 -69z" />
    <glyph glyph-name="gcommaaccent.ss01" horiz-adv-x="543" 
d="M453 -15q0 -93 -55 -152t-150 -59q-54 0 -90.5 15t-76.5 51l47 46q30 -27 54 -38t64 -11q68 0 101.5 42t33.5 109v77q-50 -64 -138 -64q-75 0 -119 44q-60 60 -60 205t60 205q43 43 120 43q89 0 138 -64v58h71v-507zM381 250q0 39 -4.5 68t-16.5 57.5t-37.5 43.5
t-63.5 15t-64 -15t-38 -43.5t-16.5 -57.5t-4.5 -68t4.5 -68t16.5 -57.5t38 -43.5t64 -15t63.5 15t37.5 43.5t16.5 57.5t4.5 68zM319 557q-46 0 -75 27.5t-29 68.5q0 42 28.5 69t75.5 27v-44q-23 0 -38.5 -15t-15.5 -37q0 -21 15.5 -36t38.5 -15v-45z" />
    <glyph glyph-name="Iogonek.ss01" horiz-adv-x="282" 
d="M179 0h-76v712h76v-712zM186 -229q-47 0 -75.5 27t-28.5 69t28.5 69t75.5 27v-45q-23 0 -38.5 -14.5t-15.5 -36.5t15.5 -36.5t38.5 -14.5v-45z" />
    <glyph glyph-name="iogonek.ss01" horiz-adv-x="253" 
d="M162 0h-72v492h72v-492zM176 677q0 -20 -15 -34.5t-35 -14.5t-34.5 14.5t-14.5 34.5t14.5 34.5t34.5 14.5t35 -14.5t15 -34.5zM170 -226q-47 0 -75.5 27t-28.5 69t28.5 69t75.5 27v-45q-23 0 -38.5 -14.5t-15.5 -36.5t15.5 -36.5t38.5 -14.5v-45z" />
    <glyph glyph-name="Idotaccent.ss01" horiz-adv-x="282" 
d="M179 0h-76v712h76v-712zM184 834q0 -19 -13 -32t-31 -13q-19 0 -32.5 13t-13.5 31q0 19 13 32.5t32 13.5t32 -13t13 -32z" />
    <glyph glyph-name="ij.ss01" horiz-adv-x="506" 
d="M162 0h-72v492h72v-492zM176 677q0 -20 -15 -34.5t-35 -14.5t-34.5 14.5t-14.5 34.5t14.5 34.5t34.5 14.5t35 -14.5t15 -34.5zM415 -89q0 -59 -31.5 -95.5t-93.5 -36.5h-52v63h39q36 0 51 17.5t15 54.5v578h72v-581zM429 677q0 -20 -15 -34.5t-35 -14.5t-34.5 14.5
t-14.5 34.5t14.5 34.5t34.5 14.5t35 -14.5t15 -34.5z" />
    <glyph glyph-name="Kcommaaccent.ss01" horiz-adv-x="650" 
d="M636 0h-90l-217 379l-150 -180v-199h-76v712h76v-409l332 409h93l-224 -275zM398 -133q0 -42 -28.5 -69t-75.5 -27v45q23 0 38.5 14.5t15.5 36.5t-15.5 36.5t-38.5 14.5v45q47 0 75.5 -27t28.5 -69z" />
    <glyph glyph-name="kcommaaccent.ss01" horiz-adv-x="536" 
d="M503 0h-89l-156 252l-96 -110v-142h-72v712h72v-476l222 256h90l-167 -188zM329 -133q0 -42 -28.5 -69t-75.5 -27v45q23 0 38.5 14.5t15.5 36.5t-15.5 36.5t-38.5 14.5v45q47 0 75.5 -27t28.5 -69z" />
    <glyph glyph-name="Lcommaaccent.ss01" horiz-adv-x="573" 
d="M543 0h-440v712h76v-644h364v-68zM382 -133q0 -42 -28.5 -69t-75.5 -27v45q23 0 38.5 14.5t15.5 36.5t-15.5 36.5t-38.5 14.5v45q47 0 75.5 -27t28.5 -69z" />
    <glyph glyph-name="lcommaaccent.ss01" horiz-adv-x="297" 
d="M265 0h-52q-62 0 -93.5 36t-31.5 95v581h72v-578q0 -37 15 -54.5t51 -17.5h39v-62zM238 -133q0 -42 -28.5 -69t-75.5 -27v45q23 0 38.5 14.5t15.5 36.5t-15.5 36.5t-38.5 14.5v45q47 0 75.5 -27t28.5 -69z" />
    <glyph glyph-name="Lcaron.ss01" horiz-adv-x="573" 
d="M543 0h-440v712h76v-644h364v-68zM375 587l-68 -65v190h68v-125z" />
    <glyph glyph-name="lcaron.ss01" horiz-adv-x="297" 
d="M265 0h-52q-62 0 -93.5 36t-31.5 95v581h72v-578q0 -37 15 -54.5t51 -17.5h39v-62zM325 596l-68 -65v190h68v-125z" />
    <glyph glyph-name="Ldot.ss01" horiz-adv-x="573" 
d="M543 0h-440v712h76v-644h364v-68zM472 359q0 -19 -13 -32t-31 -13q-19 0 -32.5 13t-13.5 31q0 19 13 32.5t32 13.5t32 -13t13 -32z" />
    <glyph glyph-name="ldot.ss01" horiz-adv-x="294" 
d="M265 0h-52q-62 0 -93.5 36t-31.5 95v581h72v-578q0 -37 15 -54.5t51 -17.5h39v-62zM315 271q0 -19 -13 -32.5t-32 -13.5t-32 13.5t-13 31.5q0 19 13 32t31 13q19 0 32.5 -13t13.5 -31z" />
    <glyph glyph-name="Ncommaaccent.ss01" horiz-adv-x="732" 
d="M629 0h-72l-378 571v-571h-76v712h72l378 -569v569h76v-712zM411 -133q0 -42 -28.5 -69t-75.5 -27v45q23 0 38.5 14.5t15.5 36.5t-15.5 36.5t-38.5 14.5v45q47 0 75.5 -27t28.5 -69z" />
    <glyph glyph-name="ncommaaccent.ss01" horiz-adv-x="562" 
d="M477 0h-72v303q0 64 -32 97.5t-89 33.5t-89.5 -34t-32.5 -97v-303h-72v492h72v-54q52 60 138 60q80 0 126 -46q51 -50 51 -137v-315zM351 -133q0 -42 -28.5 -69t-75.5 -27v45q23 0 38.5 14.5t15.5 36.5t-15.5 36.5t-38.5 14.5v45q47 0 75.5 -27t28.5 -69z" />
    <glyph glyph-name="Rcommaaccent.ss01" horiz-adv-x="656" 
d="M601 0h-89l-162 316h-171v-316h-76v712h273q94 0 152.5 -53.5t58.5 -144.5q0 -76 -42 -126t-113 -65zM511 513q0 63 -39 97t-103 34h-190v-261h190q65 0 103.5 33.5t38.5 96.5zM376 -133q0 -42 -28.5 -69t-75.5 -27v45q23 0 38.5 14.5t15.5 36.5t-15.5 36.5t-38.5 14.5
v45q47 0 75.5 -27t28.5 -69z" />
    <glyph glyph-name="rcommaaccent.ss01" horiz-adv-x="421" 
d="M418 452l-53 -54q-20 20 -38.5 28t-46.5 8q-53 0 -85.5 -37.5t-32.5 -94.5v-302h-72v492h72v-60q20 31 57.5 48.5t80.5 17.5q72 0 118 -46zM194 -133q0 -42 -28.5 -69t-75.5 -27v45q23 0 38.5 14.5t15.5 36.5t-15.5 36.5t-38.5 14.5v45q47 0 75.5 -27t28.5 -69z" />
    <glyph glyph-name="Scedilla.ss01" horiz-adv-x="588" 
d="M532 196q0 -93 -67 -147.5t-179 -54.5q-80 0 -137 22t-106 72l51 51q43 -43 87.5 -60t106.5 -17q79 0 124 34.5t45 97.5q0 58 -35 89q-27 25 -93 35l-83 12q-84 13 -130 54q-55 49 -55 134q0 91 61.5 145.5t166.5 54.5q67 0 116.5 -18.5t95.5 -59.5l-49 -49
q-65 62 -166 62q-71 0 -111 -36t-40 -97q0 -55 32 -83q31 -27 93 -37l83 -13q50 -8 77.5 -18.5t51.5 -32.5q60 -52 60 -140zM352 -133q0 -42 -28.5 -69t-75.5 -27v45q23 0 38.5 14.5t15.5 36.5t-15.5 36.5t-38.5 14.5v45q47 0 75.5 -27t28.5 -69z" />
    <glyph glyph-name="scedilla.ss01" horiz-adv-x="496" 
d="M445 144q0 -70 -54.5 -110t-145.5 -40q-130 0 -202 71l48 48q54 -57 153 -57q62 0 96.5 22t34.5 65q0 65 -82 72l-81 7q-147 12 -147 132q0 66 50 105t131 39q111 0 177 -53l-47 -47q-51 39 -131 39q-53 0 -81.5 -21t-28.5 -60q0 -33 21 -50t67 -22l77 -7
q70 -7 107.5 -37t37.5 -96zM305 -133q0 -42 -28.5 -69t-75.5 -27v45q23 0 38.5 14.5t15.5 36.5t-15.5 36.5t-38.5 14.5v45q47 0 75.5 -27t28.5 -69z" />
    <glyph glyph-name="Tcommaaccent.ss01" horiz-adv-x="548" 
d="M518 644h-206v-644h-76v644h-206v68h488v-68zM329 -133q0 -42 -28.5 -69t-75.5 -27v45q23 0 38.5 14.5t15.5 36.5t-15.5 36.5t-38.5 14.5v45q47 0 75.5 -27t28.5 -69z" />
    <glyph glyph-name="tcommaaccent.ss01" horiz-adv-x="332" 
d="M279 0h-51q-61 0 -93.5 37t-32.5 95v305h-62v55h62v151h72v-151h105v-55h-105v-303q0 -72 67 -72h38v-62zM241 -133q0 -42 -28.5 -69t-75.5 -27v45q23 0 38.5 14.5t15.5 36.5t-15.5 36.5t-38.5 14.5v45q47 0 75.5 -27t28.5 -69z" />
    <glyph glyph-name="tcaron.ss01" horiz-adv-x="332" 
d="M279 0h-51q-61 0 -93.5 37t-32.5 95v305h-62v55h62v151h72v-151h105v-55h-105v-303q0 -72 67 -72h38v-62zM330 596l-68 -65v190h68v-125z" />
    <glyph glyph-name="Uogonek.ss01" horiz-adv-x="683" 
d="M590 235q0 -106 -70.5 -173.5t-178.5 -67.5t-178 67.5t-70 173.5v477h76v-471q0 -81 47 -130t125 -49t125.5 49t47.5 130v471h76v-477zM531 -229q-47 0 -75.5 27t-28.5 69t28.5 69t75.5 27v-45q-23 0 -38.5 -14.5t-15.5 -36.5t15.5 -36.5t38.5 -14.5v-45z" />
    <glyph glyph-name="uogonek.ss01" horiz-adv-x="562" 
d="M472 0h-71v55q-53 -61 -139 -61q-81 0 -127 46q-50 49 -50 138v314h72v-303q0 -64 31.5 -97.5t88.5 -33.5t90 34t33 97v303h72v-492zM462 -229q-47 0 -75.5 27t-28.5 69t28.5 69t75.5 27v-45q-23 0 -38.5 -14.5t-15.5 -36.5t15.5 -36.5t38.5 -14.5v-45z" />
    <glyph glyph-name="Ydieresis.ss01" horiz-adv-x="514" 
d="M506 712l-210 -418v-294h-76v294l-212 418h82l168 -341l166 341h82zM408 832q0 -19 -13 -32t-32 -13t-32 13t-13 32t13 32.5t32 13.5t32 -13.5t13 -32.5zM196 832q0 -19 -13 -32t-32 -13t-32 13t-13 32t13 32.5t32 13.5t32 -13.5t13 -32.5z" />
    </font>
</defs>
</svg>
