<?xml version="1.0" standalone="no"?>
<!DOCTYPE svg PUBLIC "-//W3C//DTD SVG 1.1//EN" "http://www.w3.org/Graphics/SVG/1.1/DTD/svg11.dtd" >
<svg>
<metadata>
Created by FontForge 20090622 at Mon Aug  1 15:48:07 2016
 By deploy user
2005 Albert-Jan Pool published by FSI FontShop International GmbH
</metadata>
<defs>
<font id="DINPro-Italic" horiz-adv-x="304" >
  <font-face 
    font-family="DINPro-Italic"
    font-weight="400"
    font-style="italic"
    font-stretch="normal"
    units-per-em="1000"
    panose-1="2 11 5 4 2 1 1 2 1 2"
    ascent="764"
    descent="-236"
    x-height="493"
    cap-height="712"
    bbox="-148 -225 1204 1141"
    underline-thickness="49"
    underline-position="-89"
    slope="-11.31"
    unicode-range="U+000D-U+FB02"
  />
<missing-glyph horiz-adv-x="535" 
d="M37 0v712h461v-712h-461zM86 49h363v614h-363v-614z" />
    <glyph glyph-name=".notdef" horiz-adv-x="535" 
d="M37 0v712h461v-712h-461zM86 49h363v614h-363v-614z" />
    <glyph glyph-name=".null" horiz-adv-x="0" 
 />
    <glyph glyph-name=".null" horiz-adv-x="0" 
 />
    <glyph glyph-name="nonmarkingreturn" horiz-adv-x="333" 
 />
    <glyph glyph-name="CR" unicode="&#xd;" horiz-adv-x="236" 
 />
    <glyph glyph-name="space" unicode=" " horiz-adv-x="236" 
 />
    <glyph glyph-name="exclam" unicode="!" horiz-adv-x="301" 
d="M297 712l-112 -515h-60l91 515h81zM176 86l-16 -86h-83l17 86h82z" />
    <glyph glyph-name="quotedbl" unicode="&#x22;" horiz-adv-x="403" 
d="M414 712l-35 -172h-76l35 172h76zM252 712l-34 -172h-76l35 172h75z" />
    <glyph glyph-name="numbersign" unicode="#" horiz-adv-x="627" 
d="M629 498l-13 -63h-90l-53 -146h88l-12 -62h-97l-80 -227h-72l79 227h-152l-79 -227h-74l80 227h-84l12 62h93l53 146h-91l13 63h98l76 216h73l-75 -216h152l75 216h73l-75 -216h82zM453 435h-153l-52 -146h152z" />
    <glyph glyph-name="dollar" unicode="$" horiz-adv-x="567" 
d="M560 636l-52 -45q-50 58 -124 63l-51 -267l25 -5q79 -17 116.5 -58.5t37.5 -112.5q0 -99 -72 -156t-178 -61l-20 -108h-57l21 109q-62 4 -106.5 26.5t-83.5 70.5l55 48q59 -75 150 -81l52 272l-21 5q-143 35 -143 157q0 37 13.5 74t40 70.5t73.5 55.5t106 25l17 88h57
l-17 -90q100 -8 161 -80zM439 207q0 55 -29 78t-89 36l-50 -263q73 7 120.5 48t47.5 101zM334 655q-68 -7 -110.5 -53t-42.5 -106q0 -76 104 -98z" />
    <glyph glyph-name="percent" unicode="%" horiz-adv-x="800" 
d="M737 264q0 -20 -4 -40l-19 -95q-27 -135 -150 -135q-45 0 -78 25t-33 79q0 20 4 40l19 95q27 135 150 135q45 0 78 -25t33 -79zM682 259q0 60 -61 60q-74 0 -90 -86l-19 -95q-4 -20 -4 -35q0 -60 61 -60q72 0 90 86l19 95q4 20 4 35zM681 712l-458 -712h-60l458 712h60z
M390 615q0 -20 -4 -40l-19 -95q-27 -135 -150 -135q-45 0 -78 25t-33 79q0 20 4 40l19 95q27 135 150 135q45 0 78 -25t33 -79zM335 610q0 60 -61 60q-74 0 -90 -86l-19 -95q-4 -20 -4 -35q0 -60 61 -60q72 0 90 86l19 95q4 20 4 35z" />
    <glyph glyph-name="ampersand" unicode="&#x26;" horiz-adv-x="704" 
d="M617 348q-22 -135 -104 -219l80 -129h-87l-48 78q-36 -33 -91.5 -58.5t-122.5 -25.5q-81 0 -132.5 44.5t-51.5 124.5q0 85 47 139.5t147 115.5q-47 69 -47 131q0 67 44 118t129 51q64 0 98 -38t34 -92q0 -85 -106 -151l-57 -36l128 -215q52 57 70 162h70zM424 133
l-139 231q-80 -49 -116 -90.5t-36 -103.5q0 -49 32 -80.5t83 -31.5q93 0 176 75zM442 587q0 34 -18.5 51.5t-47.5 17.5q-43 0 -69.5 -30.5t-26.5 -77.5q0 -36 38 -96l40 25q42 26 63 50t21 60z" />
    <glyph glyph-name="quotesingle" unicode="'" horiz-adv-x="242" 
d="M252 712l-34 -172h-76l35 172h75z" />
    <glyph glyph-name="parenleft" unicode="(" horiz-adv-x="284" 
d="M324 753q-44 -37 -62 -62q-23 -33 -30 -72l-101 -509q-7 -35 -7 -56q0 -48 45 -101l-52 -47q-64 74 -64 138q0 28 9 70l102 511q13 62 37 97q27 39 83 84z" />
    <glyph glyph-name="parenright" unicode=")" horiz-adv-x="284" 
d="M272 668q0 -32 -8 -70l-102 -511q-13 -59 -38 -97q-27 -39 -83 -84l-40 53q44 37 62 62q23 33 30 72l102 509q7 35 7 56q0 47 -46 101l53 47q63 -73 63 -138z" />
    <glyph glyph-name="asterisk" unicode="*" horiz-adv-x="451" 
d="M455 566l-124 -39l99 -83l-35 -41l-95 89l-23 -129l-54 11l29 127l-121 -45l-18 51l124 39l-99 83l35 41l95 -88l23 128l54 -11l-29 -127l121 45z" />
    <glyph glyph-name="plus" unicode="+" horiz-adv-x="496" 
d="M458 301l-13 -64h-165l-35 -177h-65l35 177h-167l13 64h167l36 177h64l-36 -177h166z" />
    <glyph glyph-name="comma" unicode="," horiz-adv-x="252" 
d="M138 89l-30 -153l-101 -80l47 233h84z" />
    <glyph glyph-name="hyphen" unicode="-" horiz-adv-x="405" 
d="M345 302l-13 -65h-262l13 65h262z" />
    <glyph glyph-name="period" unicode="." horiz-adv-x="257" 
d="M143 95l-18 -95h-91l19 95h90z" />
    <glyph glyph-name="slash" unicode="/" horiz-adv-x="341" 
d="M450 786l-442 -860h-72l443 860h71z" />
    <glyph glyph-name="zero" unicode="0" horiz-adv-x="496" 
d="M493 563q0 -22 -5 -47l-64 -322q-22 -108 -85 -154t-135 -46q-65 0 -110 39.5t-45 115.5q0 22 5 47l63 322q22 108 85 154t135 46q65 0 110.5 -39.5t45.5 -115.5zM423 561q0 48 -26 71.5t-62 23.5q-50 0 -92 -32.5t-56 -104.5l-63 -324q-6 -28 -6 -44q0 -48 26.5 -71.5
t62.5 -23.5q50 0 92 32.5t56 104.5l63 324q5 23 5 44z" />
    <glyph glyph-name="one" unicode="1" horiz-adv-x="496" 
d="M409 712l-143 -712h-70l127 629l-152 -114l16 85l151 112h71z" />
    <glyph glyph-name="two" unicode="2" horiz-adv-x="496" 
d="M496 555q0 -55 -22.5 -95.5t-66.5 -87.5l-291 -311h291l-12 -61h-379l13 61l333 357q34 38 49 67.5t15 68.5q0 50 -25.5 76.5t-71.5 26.5q-51 0 -89.5 -31t-53.5 -97h-70q18 92 75 140.5t142 48.5q76 0 119.5 -42.5t43.5 -120.5z" />
    <glyph glyph-name="three" unicode="3" horiz-adv-x="496" 
d="M482 564q0 -68 -32 -122t-92 -77q76 -29 76 -129q0 -97 -63.5 -170t-168.5 -73q-86 0 -130 43t-44 114q0 18 1 28h69q-2 -12 -2 -22q0 -45 27.5 -73t78.5 -28q69 0 115.5 53t46.5 127q0 99 -109 99h-16l12 60h16q64 0 105 49.5t41 117.5q0 45 -25.5 70.5t-72.5 25.5
q-49 0 -87.5 -32t-52.5 -85h-72q23 89 81.5 134t139.5 45q72 0 115 -42t43 -113z" />
    <glyph glyph-name="four" unicode="4" horiz-adv-x="496" 
d="M450 179l-14 -64h-84l-23 -115h-68l23 115h-273l12 64l347 533h77l-346 -533h195l39 196h69l-39 -196h85z" />
    <glyph glyph-name="five" unicode="5" horiz-adv-x="496" 
d="M516 712l-12 -62h-280l-45 -226q49 46 126 46q72 0 108.5 -42t36.5 -107q0 -36 -9 -86q-25 -129 -80 -184q-58 -58 -148 -58q-82 0 -121 42.5t-39 106.5q0 15 1 26h68q-1 -8 -1 -21q0 -41 23.5 -66.5t67.5 -25.5q72 0 106.5 47.5t51.5 132.5q9 49 9 77q0 98 -87 98
q-89 0 -131 -72h-62l75 374h342z" />
    <glyph glyph-name="six" unicode="6" horiz-adv-x="496" 
d="M432 224q0 -98 -60.5 -164t-145.5 -66q-89 0 -132.5 52t-43.5 126q0 47 16 89t58 104l231 347h76l-215 -321q29 11 55 11q75 0 118 -49.5t43 -128.5zM361 223q0 52 -27 86.5t-76 34.5q-45 0 -78 -28t-47 -65t-14 -74q0 -52 27 -86.5t76 -34.5q64 0 101.5 51t37.5 116z
" />
    <glyph glyph-name="seven" unicode="7" horiz-adv-x="496" 
d="M544 712l-12 -62l-358 -650h-77l358 650h-237l-21 -107h-68l33 169h382z" />
    <glyph glyph-name="eight" unicode="8" horiz-adv-x="496" 
d="M494 557q0 -64 -33 -116t-89 -77q70 -49 70 -142q0 -92 -60.5 -160t-170.5 -68q-74 0 -124.5 43.5t-50.5 126.5q0 150 139 210q-60 45 -60 120q0 96 61.5 160t154.5 64q71 0 117 -43.5t46 -117.5zM372 224q0 52 -29.5 82.5t-78.5 30.5q-70 0 -114 -48.5t-44 -119.5
q0 -52 30 -82.5t79 -30.5q71 0 114 48t43 120zM424 556q0 45 -25.5 72.5t-71.5 27.5q-64 0 -103.5 -48.5t-39.5 -109.5q0 -45 26 -72.5t72 -27.5q64 0 103 48.5t39 109.5z" />
    <glyph glyph-name="nine" unicode="9" horiz-adv-x="496" 
d="M491 540q0 -47 -16.5 -89t-58.5 -104l-231 -347h-75l214 321q-29 -11 -54 -11q-75 0 -118 49.5t-43 128.5q0 98 60.5 164t145.5 66q89 0 132.5 -52t43.5 -126zM422 535q0 52 -27.5 86.5t-76.5 34.5q-64 0 -101 -51t-37 -116q0 -52 27 -86.5t76 -34.5q45 0 78 28t47 65
t14 74z" />
    <glyph glyph-name="colon" unicode=":" horiz-adv-x="282" 
d="M227 395l-19 -95h-91l20 95h90zM170 95l-19 -95h-90l19 95h90z" />
    <glyph glyph-name="semicolon" unicode=";" horiz-adv-x="282" 
d="M167 89l-30 -153l-101 -80l46 233h85zM228 395l-19 -95h-90l19 95h90z" />
    <glyph glyph-name="less" unicode="&#x3c;" horiz-adv-x="496" 
d="M436 471l-15 -78l-261 -124l213 -126l-14 -71l-281 171l13 62z" />
    <glyph glyph-name="equal" unicode="=" horiz-adv-x="496" 
d="M443 218l-14 -64h-397l14 64h397zM475 384l-14 -64h-397l14 64h397z" />
    <glyph glyph-name="greater" unicode="&#x3e;" horiz-adv-x="496" 
d="M431 293l-13 -62l-344 -166l15 78l260 124l-213 126l15 71z" />
    <glyph glyph-name="question" unicode="?" horiz-adv-x="474" 
d="M491 571q0 -77 -70 -157l-101 -118q-20 -23 -29 -58l-10 -42h-70l10 45q11 53 48 95l100 115q51 59 51 116q0 38 -23.5 63.5t-65.5 25.5q-50 0 -85 -31t-46 -85h-72q16 84 72.5 131t141.5 47q62 0 105.5 -40t43.5 -107zM272 86l-16 -86h-83l17 86h82z" />
    <glyph glyph-name="at" unicode="@" horiz-adv-x="679" 
d="M667 551q0 -25 -7 -60l-98 -491h-66l11 55q-52 -62 -136 -62q-67 0 -102.5 40.5t-35.5 101.5q0 40 12 103q27 133 74 185q55 60 140 60q82 0 118 -65l16 80q6 27 6 48q0 42 -21 69q-30 39 -97 39h-122q-67 0 -113 -40q-43 -38 -59 -116l-67 -336q-7 -32 -7 -53
q0 -35 38 -70l-53 -46q-53 52 -53 109q0 22 7 59l66 335q12 62 31 98.5t49 64.5q57 54 160 54h140q91 0 136 -56q33 -42 33 -106zM553 328q0 95 -86 95q-68 0 -101.5 -46.5t-52.5 -138.5q-12 -57 -12 -90q0 -39 19.5 -67t67.5 -28q68 0 101.5 46.5t52.5 138.5q11 52 11 90z
" />
    <glyph glyph-name="A" unicode="A" horiz-adv-x="581" 
d="M521 0h-74l-22 162h-296l-87 -162h-78l389 712h61zM418 223l-53 384l-204 -384h257z" />
    <glyph glyph-name="B" unicode="B" horiz-adv-x="636" 
d="M610 552q0 -56 -31 -109t-102 -80q83 -39 83 -135q0 -101 -65 -164.5t-165 -63.5h-281l143 712h239q54 0 92 -16t55.5 -42t24.5 -50.5t7 -51.5zM487 226q0 50 -30 77.5t-83 27.5h-186l-54 -267h194q70 0 114.5 45.5t44.5 116.5zM536 547q0 101 -114 101h-170l-51 -252
h178q72 0 114.5 44t42.5 107z" />
    <glyph glyph-name="C" unicode="C" horiz-adv-x="607" 
d="M592 509h-73q-1 67 -36 106.5t-98 39.5q-78 0 -135 -60q-29 -30 -45.5 -78t-39.5 -161q-23 -119 -23 -168q0 -60 39.5 -95.5t96.5 -35.5q70 0 118 42t70 104h74q-31 -98 -102 -153.5t-165 -55.5q-87 0 -145.5 51.5t-58.5 140.5q0 56 23 170q28 135 47 188t60 96
q75 78 188 78q99 0 151.5 -57.5t53.5 -151.5z" />
    <glyph glyph-name="D" unicode="D" horiz-adv-x="639" 
d="M613 518q0 -44 -21 -154q-25 -130 -50 -193.5t-72 -105.5q-73 -65 -185 -65h-236l143 712h222q84 0 141.5 -45.5t57.5 -148.5zM541 515q0 63 -35 98.5t-106 35.5h-148l-118 -586h147q87 0 143 51q32 29 53.5 85.5t41.5 164.5q22 114 22 151z" />
    <glyph glyph-name="E" unicode="E" horiz-adv-x="572" 
d="M611 712l-13 -63h-346l-52 -258h297l-12 -63h-297l-54 -265h353l-12 -63h-426l143 712h419z" />
    <glyph glyph-name="F" unicode="F" horiz-adv-x="550" 
d="M611 712l-13 -63h-346l-53 -269h296l-13 -63h-297l-64 -317h-72l143 712h419z" />
    <glyph glyph-name="G" unicode="G" horiz-adv-x="619" 
d="M593 508h-73q-1 69 -36 108t-98 39q-78 0 -136 -60q-29 -30 -45.5 -78.5t-39.5 -160.5q-23 -118 -23 -168q0 -59 40 -95t96 -36q64 0 121.5 48t76.5 146l11 59h-166l11 62h239l-21 -113q-22 -119 -89 -188q-77 -77 -188 -77q-88 0 -146 52t-58 140q0 55 23 170
q28 136 47 188.5t60 95.5q75 78 189 78q99 0 151.5 -57.5t53.5 -152.5z" />
    <glyph glyph-name="H" unicode="H" horiz-adv-x="660" 
d="M657 712l-143 -712h-72l66 328h-320l-67 -328h-72l143 712h72l-63 -321h320l64 321h72z" />
    <glyph glyph-name="I" unicode="I" horiz-adv-x="269" 
d="M264 712l-143 -712h-72l143 712h72z" />
    <glyph glyph-name="J" unicode="J" horiz-adv-x="476" 
d="M482 712l-100 -499q-21 -107 -85 -163t-158 -56q-98 0 -151 66l53 45q40 -48 104 -48q62 0 106.5 43t60.5 125l97 487h73z" />
    <glyph glyph-name="K" unicode="K" horiz-adv-x="621" 
d="M667 712l-268 -279l164 -433h-79l-142 383l-181 -183l-40 -200h-72l143 712h72l-81 -405l393 405h91z" />
    <glyph glyph-name="L" unicode="L" horiz-adv-x="546" 
d="M482 63l-12 -63h-421l143 712h72l-130 -649h348z" />
    <glyph glyph-name="M" unicode="M" horiz-adv-x="775" 
d="M772 712l-143 -712h-72l110 542l-269 -414h-62l-104 420l-111 -548h-72l143 712h70l119 -495l320 495h71z" />
    <glyph glyph-name="N" unicode="N" horiz-adv-x="695" 
d="M692 712l-143 -712h-67l-245 577l-116 -577h-72l143 712h67l245 -577l115 577h73z" />
    <glyph glyph-name="O" unicode="O" horiz-adv-x="617" 
d="M589 526q0 -51 -24 -170q-26 -130 -45.5 -186t-59.5 -97q-76 -79 -193 -79q-87 0 -142.5 52.5t-55.5 139.5q0 56 23 170q26 128 46 185t60 98q74 79 193 79q87 0 142.5 -52.5t55.5 -139.5zM516 521q0 63 -37.5 98.5t-91.5 35.5q-81 0 -138 -60q-27 -29 -44.5 -78.5
t-39.5 -160.5q-23 -119 -23 -165q0 -63 37.5 -98.5t91.5 -35.5q80 0 137 60q27 29 44.5 78t39.5 161q24 117 24 165z" />
    <glyph glyph-name="P" unicode="P" horiz-adv-x="598" 
d="M615 540q0 -104 -68 -173t-184 -69h-182l-60 -298h-72l143 712h242q92 0 136.5 -49.5t44.5 -122.5zM542 537q0 48 -28.5 79.5t-89.5 31.5h-173l-57 -287h172q78 0 127 49.5t49 126.5z" />
    <glyph glyph-name="Q" unicode="Q" horiz-adv-x="617" 
d="M589 526q0 -51 -24 -170q-25 -124 -43.5 -179t-53.5 -95l60 -78l-49 -43l-60 78q-67 -45 -152 -45q-87 0 -142.5 52.5t-55.5 139.5q0 50 23 170q26 128 46 185t60 98q74 79 193 79q87 0 142.5 -52.5t55.5 -139.5zM516 521q0 63 -37.5 98.5t-91.5 35.5q-81 0 -138 -60
q-27 -29 -44.5 -78.5t-39.5 -160.5q-23 -119 -23 -165q0 -63 37.5 -98.5t91.5 -35.5q60 0 107 36l-71 93l49 43l67 -89q21 28 35.5 74.5t33.5 141.5q24 117 24 165z" />
    <glyph glyph-name="R" unicode="R" horiz-adv-x="626" 
d="M614 548q0 -81 -50 -143.5t-138 -79.5l104 -325h-80l-98 320h-166l-65 -320h-72l143 712h245q93 0 135 -47t42 -117zM541 544q0 49 -28.5 76.5t-84.5 27.5h-176l-54 -266h178q77 0 121 49t44 113z" />
    <glyph glyph-name="S" unicode="S" horiz-adv-x="559" 
d="M552 636l-52 -44q-28 32 -60 48t-83 16q-79 0 -127.5 -48t-48.5 -112q0 -74 102 -98l67 -15q81 -19 117.5 -59t36.5 -114q0 -101 -76.5 -158.5t-191.5 -57.5q-74 0 -125 23t-95 75l55 48q65 -82 172 -82q79 0 133.5 42t54.5 107q0 51 -26 75t-75 35l-67 16
q-154 36 -154 160q0 39 15 77.5t44 72t80 54.5t116 21q119 0 188 -82z" />
    <glyph glyph-name="T" unicode="T" horiz-adv-x="521" 
d="M585 712l-13 -64h-195l-130 -648h-72l130 648h-196l13 64h463z" />
    <glyph glyph-name="U" unicode="U" horiz-adv-x="649" 
d="M654 712l-95 -478q-23 -115 -97.5 -177.5t-181.5 -62.5q-80 0 -139 49.5t-59 143.5q0 24 7 61l92 464h73l-94 -471q-5 -27 -5 -51q0 -54 32.5 -93t99.5 -39q72 0 128 48t74 140l92 466h73z" />
    <glyph glyph-name="V" unicode="V" horiz-adv-x="519" 
d="M604 712l-361 -712h-60l-83 712h73l64 -582l288 582h79z" />
    <glyph glyph-name="W" unicode="W" horiz-adv-x="815" 
d="M890 712l-309 -712h-68l-38 573l-267 -573h-67l-33 712h75l20 -577l264 577h65l37 -577l243 577h78z" />
    <glyph glyph-name="X" unicode="X" horiz-adv-x="526" 
d="M587 712l-262 -351l141 -361h-81l-112 302l-223 -302h-85l279 371l-130 341h81l101 -284l205 284h86z" />
    <glyph glyph-name="Y" unicode="Y" horiz-adv-x="495" 
d="M575 712l-282 -421l-59 -291h-73l60 296l-121 416h76l94 -344l224 344h81z" />
    <glyph glyph-name="Z" unicode="Z" horiz-adv-x="532" 
d="M565 712l-12 -60l-452 -588h341l-13 -64h-423l14 67l447 581h-324l12 64h410z" />
    <glyph glyph-name="bracketleft" unicode="[" horiz-adv-x="300" 
d="M362 786l-13 -62h-96l-147 -736h104l-12 -62h-174l171 860h167z" />
    <glyph glyph-name="backslash" unicode="\" horiz-adv-x="335" 
d="M272 -74h-66l-99 856h66z" />
    <glyph glyph-name="bracketright" unicode="]" horiz-adv-x="300" 
d="M320 786l-171 -860h-167l12 59h99l148 742h-108l12 59h175z" />
    <glyph glyph-name="asciicircum" unicode="^" horiz-adv-x="514" 
d="M481 413h-68l-72 232l-165 -232h-75l217 305h67z" />
    <glyph glyph-name="underscore" unicode="_" horiz-adv-x="496" 
d="M425 -113l-9 -49h-496l9 49h496z" />
    <glyph glyph-name="grave" unicode="`" horiz-adv-x="502" 
d="M351 589h-63l-72 151h77z" />
    <glyph glyph-name="a" unicode="a" horiz-adv-x="501" 
d="M443 371q0 -11 -5 -39l-66 -332h-69l11 49q-55 -55 -141 -55q-65 0 -106.5 29t-41.5 91q0 72 44 115q53 52 145 52h144l11 52q4 18 4 33q0 35 -26 54t-73 19q-80 0 -133 -59l-41 48q65 71 178 71q30 0 56 -5.5t52 -18.5t41.5 -39.5t15.5 -64.5zM348 229h-127
q-58 0 -92.5 -29t-34.5 -82q0 -65 98 -65q66 0 105 39q31 29 40 80z" />
    <glyph glyph-name="b" unicode="b" horiz-adv-x="519" 
d="M470 343q0 -40 -11 -96q-28 -145 -85 -202q-51 -51 -131 -51q-91 0 -124 69l-13 -63h-69l142 712h70l-55 -275q49 62 135 62q68 0 104.5 -40t36.5 -116zM399 334q0 103 -88 103q-69 0 -103.5 -50.5t-51.5 -139.5q-11 -55 -11 -88q0 -103 89 -103q69 0 103 51t51 140
q11 55 11 87z" />
    <glyph glyph-name="c" unicode="c" horiz-adv-x="466" 
d="M450 426l-52 -44q-37 55 -97 55q-62 0 -109 -48q-47 -50 -64 -142q-8 -42 -8 -74q0 -58 31 -87.5t76 -29.5q65 0 119 57l41 -50q-69 -69 -164 -69q-84 0 -128.5 49.5t-44.5 127.5q0 40 7 76q22 122 88.5 187t162.5 65q90 0 142 -73z" />
    <glyph glyph-name="d" unicode="d" horiz-adv-x="519" 
d="M526 712l-142 -712h-69l12 59q-54 -65 -137 -65q-141 0 -141 155q0 45 11 98q28 143 85 200q52 52 132 52q88 0 122 -68l57 281h70zM374 336q0 101 -89 101q-69 0 -103 -50.5t-51 -139.5q-11 -55 -11 -89q0 -102 88 -102q69 0 103.5 51t51.5 140q11 55 11 89z" />
    <glyph glyph-name="e" unicode="e" horiz-adv-x="506" 
d="M453 330q0 -36 -12 -101h-318q-6 -40 -6 -62q0 -51 26.5 -82t79.5 -31q75 0 139 58l42 -46q-78 -72 -186 -72q-75 0 -121.5 43.5t-46.5 126.5q0 58 14 115t41.5 107.5t76 81.5t111.5 31q76 0 118 -47.5t42 -121.5zM385 330q0 55 -27 82.5t-68 27.5q-116 0 -157 -160h248
q4 21 4 50z" />
    <glyph glyph-name="f" unicode="f" horiz-adv-x="299" 
d="M364 714l-12 -60h-36q-64 0 -78 -70l-18 -91h102l-11 -53h-102l-88 -440h-70l88 440h-59l10 53h59l19 95q25 126 143 126h53z" />
    <glyph glyph-name="g" unicode="g" horiz-adv-x="517" 
d="M481 493l-101 -504q-12 -63 -38 -107.5t-59.5 -66.5t-65.5 -31t-67 -9q-95 0 -151 66l50 44q41 -50 101 -50q57 0 100.5 37.5t60.5 116.5l16 76q-50 -63 -136 -63q-66 0 -103.5 40t-37.5 112q0 39 11 97q26 140 83 197q51 51 132 51q91 0 124 -69l12 63h69zM374 337
q0 100 -89 100q-67 0 -101.5 -50.5t-51.5 -136.5q-11 -57 -11 -86q0 -100 89 -100q117 0 153 187q11 57 11 86z" />
    <glyph glyph-name="h" unicode="h" horiz-adv-x="535" 
d="M474 360q0 -19 -6 -49l-62 -311h-70l61 304q5 25 5 46q0 43 -24.5 65.5t-64.5 22.5q-17 0 -35 -5t-41.5 -18t-42.5 -42t-27 -71l-60 -302h-70l142 712h70l-54 -272q53 59 141 59q60 0 99 -37t39 -102z" />
    <glyph glyph-name="i" unicode="i" horiz-adv-x="240" 
d="M205 493l-98 -493h-70l98 493h70zM251 706l-15 -73h-79l14 73h80z" />
    <glyph glyph-name="j" unicode="j" horiz-adv-x="241" 
d="M205 493l-116 -585q-26 -128 -145 -128h-51l12 60h34q66 0 80 75l116 578h70zM251 706l-15 -73h-79l14 73h80z" />
    <glyph glyph-name="k" unicode="k" horiz-adv-x="513" 
d="M502 493l-197 -192l133 -301h-81l-106 256l-115 -109l-29 -147h-70l142 712h70l-94 -471l257 252h90z" />
    <glyph glyph-name="l" unicode="l" horiz-adv-x="248" 
d="M247 712l-116 -578q-4 -19 -4 -33q0 -41 54 -41h41l-12 -60h-52q-40 0 -70.5 22t-30.5 72q0 23 4 40l116 578h70z" />
    <glyph glyph-name="m" unicode="m" horiz-adv-x="834" 
d="M773 360q0 -24 -5 -49l-62 -311h-71l61 304q6 32 6 46q0 43 -25 65t-65 22q-16 0 -34 -5t-41.5 -17.5t-42.5 -41.5t-27 -71l-61 -302h-70l61 304q5 27 5 46q0 43 -24.5 65t-64.5 22q-12 0 -26 -2.5t-33 -11t-35 -22.5t-30.5 -39.5t-21.5 -59.5l-60 -302h-70l98 493h69
l-11 -55q53 61 146 61q87 0 123 -82q66 82 173 82q60 0 99 -37.5t39 -101.5z" />
    <glyph glyph-name="n" unicode="n" horiz-adv-x="535" 
d="M474 360q0 -19 -6 -49l-62 -311h-70l61 304q5 27 5 46q0 43 -24.5 65.5t-65.5 22.5q-16 0 -34 -5t-41.5 -18t-42.5 -42t-27 -71l-60 -302h-70l98 493h68l-10 -55q53 61 145 61q58 0 97 -37t39 -102z" />
    <glyph glyph-name="o" unicode="o" horiz-adv-x="502" 
d="M452 337q0 -36 -10 -91q-27 -138 -93 -199q-59 -53 -140 -53q-66 0 -112.5 40t-46.5 122q0 35 10 90q26 140 93 199q60 54 140 54q66 0 112.5 -40t46.5 -122zM383 332q0 54 -27 80t-69 26q-53 0 -91 -38q-46 -46 -67 -154q-10 -50 -10 -85q0 -54 27 -80t68 -26
q54 0 92 38q46 45 67 153q10 51 10 86z" />
    <glyph glyph-name="p" unicode="p" horiz-adv-x="519" 
d="M470 345q0 -42 -11 -98q-29 -145 -85 -201q-52 -52 -132 -52q-88 0 -122 68l-57 -281h-70l142 712h69l-12 -58q53 64 137 64q75 0 108 -42.5t33 -111.5zM399 336q0 101 -88 101q-69 0 -103.5 -50.5t-51.5 -139.5q-11 -55 -11 -89q0 -102 89 -102q69 0 103 51t51 140
q11 55 11 89z" />
    <glyph glyph-name="q" unicode="q" horiz-adv-x="519" 
d="M483 493l-142 -712h-71l55 276q-49 -63 -135 -63q-68 0 -104.5 40t-36.5 116q0 41 11 97q28 145 85 202q50 50 132 50q90 0 123 -69l13 63h70zM374 334q0 103 -89 103q-69 0 -103 -50.5t-51 -139.5q-11 -55 -11 -88q0 -103 88 -103q69 0 103.5 51t51.5 140q11 55 11 87z
" />
    <glyph glyph-name="r" unicode="r" horiz-adv-x="399" 
d="M437 453l-57 -51q-27 35 -70 35q-52 0 -92 -38.5t-51 -96.5l-60 -302h-70l98 493h69l-12 -60q48 66 138 66q67 0 107 -46z" />
    <glyph glyph-name="s" unicode="s" horiz-adv-x="470" 
d="M434 444l-50 -43q-46 40 -115 40q-58 0 -90.5 -30t-32.5 -70q0 -45 73 -56l66 -9q65 -10 92.5 -38t27.5 -83q0 -61 -49 -107q-55 -54 -169 -54q-117 0 -182 71l52 45q48 -56 136 -56q67 0 104.5 30.5t37.5 68.5q0 31 -17 44t-52 18l-67 10q-123 18 -123 107q0 66 46 112
q55 55 156 55q97 0 156 -55z" />
    <glyph glyph-name="t" unicode="t" horiz-adv-x="318" 
d="M315 493l-11 -53h-96l-62 -306q-4 -19 -4 -32q0 -42 55 -42h40l-13 -60h-50q-40 0 -71 22t-31 72q0 16 4 40l61 306h-61l10 53h62l30 150h70l-30 -150h97z" />
    <glyph glyph-name="u" unicode="u" horiz-adv-x="535" 
d="M498 493l-98 -493h-68l10 55q-53 -61 -143 -61q-59 0 -98.5 37t-39.5 102q0 19 6 49l62 311h70l-61 -304q-6 -28 -6 -46q0 -43 25 -65.5t65 -22.5q17 0 35 5t41.5 18t42.5 42t27 71l60 302h70z" />
    <glyph glyph-name="v" unicode="v" horiz-adv-x="425" 
d="M464 493l-268 -493h-63l-73 493h71l50 -397l205 397h78z" />
    <glyph glyph-name="w" unicode="w" horiz-adv-x="688" 
d="M724 493l-239 -493h-64l-48 382l-197 -382h-64l-51 493h71l31 -394l200 394h57l47 -394l183 394h74z" />
    <glyph glyph-name="x" unicode="x" horiz-adv-x="458" 
d="M467 493l-197 -244l114 -249h-82l-81 196l-152 -196h-86l206 256l-108 237h81l78 -185l141 185h86z" />
    <glyph glyph-name="y" unicode="y" horiz-adv-x="424" 
d="M462 493l-328 -611q-22 -41 -42 -59q-36 -33 -102 -33h-31l13 62h21q34 0 51.5 13.5t37.5 51.5l49 94l-71 482h70l51 -397l204 397h77z" />
    <glyph glyph-name="z" unicode="z" horiz-adv-x="440" 
d="M439 493l-12 -59l-330 -372h262l-12 -62h-347l12 59l329 372h-247l12 62h333z" />
    <glyph glyph-name="braceleft" unicode="{" horiz-adv-x="338" 
d="M397 786l-13 -62h-25q-41 0 -54.5 -15t-22.5 -59l-39 -194q-9 -45 -28 -68t-53 -33q43 -24 43 -71q0 -18 -3 -33l-37 -185q-5 -25 -5 -39q0 -23 12 -31t41 -8h33l-12 -62h-40q-106 0 -106 90q0 8 6 44l38 188q3 11 1 35q-4 44 -51 44h-20l13 62h24q27 0 48 19
q19 16 28 60l38 189q8 42 17 64t29 39q31 26 95 26h43z" />
    <glyph glyph-name="bar" unicode="|" horiz-adv-x="310" 
d="M298 786l-172 -860h-69l171 860h70z" />
    <glyph glyph-name="braceright" unicode="}" horiz-adv-x="338" 
d="M321 385l-13 -62h-24q-28 0 -49 -19q-19 -16 -28 -60l-37 -189q-8 -42 -17 -64t-29 -39q-31 -26 -95 -26h-43l12 62h26q41 0 54.5 15t22.5 59l39 194q9 45 28 68t53 33q-43 24 -43 71q0 18 3 33l37 185q5 25 5 39q0 23 -12 31t-41 8h-33l12 62h40q105 0 105 -90
q0 -14 -5 -44l-38 -188q-2 -8 -2 -18q0 -31 11.5 -46t39.5 -15h21z" />
    <glyph glyph-name="asciitilde" unicode="~" horiz-adv-x="513" 
d="M476 275q-72 -64 -131 -64q-41 0 -101 32q-41 22 -70 22q-36 0 -90 -44l-37 47q73 65 132 65q40 0 100 -32q43 -23 70 -23q37 0 91 44z" />
    <glyph glyph-name="uni00A0" unicode="&#xa0;" horiz-adv-x="236" 
 />
    <glyph glyph-name="exclamdown" unicode="&#xa1;" horiz-adv-x="301" 
d="M176 296l-91 -515h-82l113 515h60zM224 493l-17 -86h-83l17 86h83z" />
    <glyph glyph-name="cent" unicode="&#xa2;" horiz-adv-x="476" 
d="M480 541l-51 -42q-33 49 -87 56l-71 -379q54 3 107 57l40 -48q-66 -66 -156 -71l-22 -114h-56l23 117q-64 12 -98.5 60.5t-34.5 117.5q0 74 23.5 141.5t77 119t127.5 60.5l18 96h57l-19 -95q77 -10 122 -76zM294 553q-45 -9 -83 -52q-32 -36 -49.5 -93.5t-17.5 -112.5
q0 -44 20.5 -75.5t58.5 -40.5z" />
    <glyph glyph-name="sterling" unicode="&#xa3;" horiz-adv-x="522" 
d="M549 653l-53 -46q-35 47 -100 47q-69 0 -112 -43t-58 -121l-21 -107h141l-11 -51h-140l-53 -268h298l-13 -64h-371l67 332h-60l9 51h61l23 115q45 220 249 220q90 0 144 -65z" />
    <glyph glyph-name="currency" unicode="&#xa4;" horiz-adv-x="661" 
d="M579 66l-44 -44l-73 73q-60 -44 -131 -44q-74 0 -132 44l-73 -73l-44 44l73 73q-44 58 -44 132t44 132l-73 73l44 44l73 -73q58 44 132 44q71 0 131 -44l73 73l44 -44l-72 -73q43 -59 43 -132t-43 -132zM487 271q0 65 -45.5 111t-110.5 46t-111 -46t-46 -111t46 -111
t111 -46t110.5 46t45.5 111z" />
    <glyph glyph-name="yen" unicode="&#xa5;" horiz-adv-x="490" 
d="M575 712l-211 -315h95l-10 -50h-119l-37 -55l-10 -50h146l-10 -51h-146l-38 -191h-73l38 191h-145l10 51h145l11 54l-15 51h-121l10 50h96l-91 315h76l94 -344l224 344h81z" />
    <glyph glyph-name="brokenbar" unicode="&#xa6;" horiz-adv-x="319" 
d="M298 786l-70 -350h-70l70 350h70zM196 276l-70 -350h-69l69 350h70z" />
    <glyph glyph-name="section" unicode="&#xa7;" horiz-adv-x="528" 
d="M497 584q0 -14 -1 -19h-68q4 43 -20.5 67t-65.5 24q-54 0 -88.5 -32t-34.5 -84q0 -59 65 -81l67 -22q40 -14 69 -48.5t29 -92.5q0 -69 -33.5 -125.5t-101.5 -86.5q68 -33 68 -116q0 -86 -56 -139.5t-150 -53.5q-68 0 -110 36.5t-42 100.5q0 14 1 21h69q-5 -45 19 -70
t72 -25q53 0 89.5 33t36.5 91q0 63 -66 86l-67 22q-40 14 -69 48.5t-29 92.5q0 69 34 126t101 86q-65 37 -65 115q0 81 57 130.5t138 49.5q74 0 113 -40.5t39 -93.5zM380 291q0 45 -26 68.5t-64 23.5q-50 0 -87 -34q-38 -35 -50 -96q-4 -19 -4 -37q0 -48 28 -70.5t62 -22.5
q49 0 87 35q38 36 50 95q4 19 4 38z" />
    <glyph glyph-name="dieresis" unicode="&#xa8;" horiz-adv-x="501" 
d="M473 683l-17 -87h-68l17 87h68zM273 683l-17 -87h-68l17 87h68z" />
    <glyph glyph-name="copyright" unicode="&#xa9;" horiz-adv-x="835" 
d="M781 356q0 -142 -100.5 -243t-243.5 -101t-243.5 101t-100.5 243t100.5 243t243.5 101t243.5 -101t100.5 -243zM725 356q0 120 -84.5 206t-203.5 86t-203 -86t-84 -206t84 -206t203 -86t203.5 86t84.5 206zM566 213q-56 -50 -124 -50q-80 0 -124.5 53.5t-44.5 139.5
t44.5 140t124.5 54q66 0 124 -51l-35 -35q-42 37 -89 37q-61 0 -88.5 -40t-27.5 -105t27.5 -105t88.5 -40q47 0 89 37z" />
    <glyph glyph-name="ordfeminine" unicode="&#xaa;" horiz-adv-x="427" 
d="M419 613q0 -16 -3 -31l-53 -264h-55l7 38q-37 -43 -111 -43q-51 0 -84.5 23.5t-33.5 73.5q0 56 36 91q41 41 114 41h114l8 41q4 20 4 27q0 55 -77 55q-37 0 -60.5 -10t-45.5 -34l-34 40q55 55 143 55q32 0 59 -7.5t49.5 -31.5t22.5 -64zM342 499h-100q-44 0 -71.5 -23.5
t-27.5 -63.5q0 -50 77 -50q52 0 83 31q23 23 30 61z" />
    <glyph glyph-name="guillemotleft" unicode="&#xab;" horiz-adv-x="528" 
d="M285 478l-19 -95l-138 -121l91 -121l-16 -84l-161 211zM501 478l-19 -95l-139 -121l93 -121l-17 -84l-161 211z" />
    <glyph glyph-name="logicalnot" unicode="&#xac;" horiz-adv-x="496" 
d="M460 308l-41 -204h-64l28 139h-335l13 65h399z" />
    <glyph glyph-name="uni00AD" unicode="&#xad;" horiz-adv-x="405" 
d="M345 302l-13 -65h-262l13 65h262z" />
    <glyph glyph-name="registered" unicode="&#xae;" horiz-adv-x="835" 
d="M781 356q0 -142 -100.5 -243t-243.5 -101t-243.5 101t-100.5 243t100.5 243t243.5 101t243.5 -101t100.5 -243zM726 356q0 121 -84.5 207t-204.5 86t-204 -86t-84 -207t84 -207t204 -86t204.5 86t84.5 207zM582 168h-62l-86 154h-56v-154h-54v377h129q50 0 84.5 -33
t34.5 -80q0 -40 -22 -66.5t-58 -37.5zM518 432q0 28 -20 47t-51 19h-69v-131h69q31 0 51 18.5t20 46.5z" />
    <glyph glyph-name="macron" unicode="&#xaf;" horiz-adv-x="483" 
d="M480 665l-11 -53h-286l11 53h286z" />
    <glyph glyph-name="degree" unicode="&#xb0;" horiz-adv-x="456" 
d="M450 556q0 -68 -47 -114.5t-115 -46.5t-114.5 46.5t-46.5 114.5t46.5 115t114.5 47t115 -47t47 -115zM391 556q0 44 -30 74.5t-73 30.5q-44 0 -73 -30t-29 -75t29 -75t73 -30t73.5 30t29.5 75z" />
    <glyph glyph-name="plusminus" unicode="&#xb1;" horiz-adv-x="496" 
d="M467 352l-13 -64h-165l-35 -179h-65l36 179h-167l13 64h167l35 177h65l-36 -177h165zM412 64l-13 -64h-397l13 64h397z" />
    <glyph glyph-name="twosuperior" unicode="&#xb2;" 
d="M342 617q0 -60 -63 -123l-157 -159h168l-10 -50h-236l10 50l188 193q43 43 43 85q0 53 -52 53q-62 0 -75 -67h-55q21 117 135 117q51 0 77.5 -27.5t26.5 -71.5z" />
    <glyph glyph-name="threesuperior" unicode="&#xb3;" 
d="M334 614q0 -83 -72 -112q42 -24 42 -85q0 -57 -37 -97t-105 -40q-58 0 -85 29t-27 65q0 12 2 24h56q-8 -68 59 -68q31 0 56 22.5t25 64.5q0 31 -13 46.5t-46 15.5h-9l10 48h8q41 0 60.5 25t19.5 60q0 28 -15 41t-36 13q-61 0 -77 -64h-56q26 114 137 114q47 0 75 -28
t28 -74z" />
    <glyph glyph-name="acute" unicode="&#xb4;" horiz-adv-x="484" 
d="M468 740l-128 -151h-70l118 151h80z" />
    <glyph glyph-name="mu" unicode="&#xb5;" horiz-adv-x="536" 
d="M499 493l-98 -493h-69l10 55q-53 -61 -145 -61q-58 0 -90 40l-50 -253h-70l142 712h70l-61 -304q-5 -27 -5 -46q0 -43 25 -65t65 -22q16 0 34 5t41.5 17.5t42.5 41.5t27 71l60 302h71z" />
    <glyph glyph-name="paragraph" unicode="&#xb6;" horiz-adv-x="574" 
d="M571 712l-186 -931h-70l172 866h-110l-173 -866h-70l112 561q-66 3 -109 51t-43 115q0 83 61.5 143.5t176.5 60.5h239z" />
    <glyph glyph-name="periodcentered" unicode="&#xb7;" horiz-adv-x="257" 
d="M187 315l-18 -90h-90l18 90h90z" />
    <glyph glyph-name="cedilla" unicode="&#xb8;" horiz-adv-x="502" 
d="M239 -65l-84 -147h-75l94 147h65z" />
    <glyph glyph-name="onesuperior" unicode="&#xb9;" 
d="M294 712l-86 -427h-54l72 361l-95 -71l13 68l95 69h55z" />
    <glyph glyph-name="ordmasculine" unicode="&#xba;" horiz-adv-x="432" 
d="M425 586q0 -29 -7 -71q-22 -113 -74 -159q-48 -42 -112 -42q-20 0 -39.5 5.5t-40.5 18.5t-34 40.5t-13 65.5q0 29 7 71q22 111 74 158q49 43 113 43q20 0 39.5 -5.5t40 -18.5t33.5 -40.5t13 -65.5zM369 582q0 43 -22 62.5t-53 19.5q-43 0 -72 -29q-36 -36 -53 -120
q-8 -44 -8 -68q0 -43 22 -62.5t53 -19.5q43 0 73 30q35 35 52 120q8 44 8 67z" />
    <glyph glyph-name="guillemotright" unicode="&#xbb;" horiz-adv-x="528" 
d="M496 267l-243 -210l19 95l138 121l-91 121l16 84zM280 267l-243 -210l19 95l139 121l-93 121l17 84z" />
    <glyph glyph-name="onequarter" unicode="&#xbc;" horiz-adv-x="787" 
d="M294 712l-86 -427h-54l72 361l-95 -71l13 68l95 69h55zM675 712l-459 -712h-60l459 712h60zM742 116l-9 -50h-46l-13 -66h-54l14 66h-166l10 50l203 311h62l-205 -311h105l21 105h54l-21 -105h45z" />
    <glyph glyph-name="onehalf" unicode="&#xbd;" horiz-adv-x="787" 
d="M294 712l-86 -427h-54l72 361l-95 -71l13 68l95 69h55zM675 712l-459 -712h-60l459 712h60zM768 332q0 -60 -63 -123l-157 -159h168l-10 -50h-236l10 50l188 193q43 43 43 85q0 53 -52 53q-62 0 -75 -67h-55q21 117 135 117q51 0 77.5 -27.5t26.5 -71.5z" />
    <glyph glyph-name="threequarters" unicode="&#xbe;" horiz-adv-x="787" 
d="M334 615q0 -84 -71 -112q22 -13 31.5 -32t9.5 -53q0 -57 -37 -97t-105 -40q-57 0 -84 29t-27 65q0 18 1 24h56q-8 -68 60 -68q31 0 56 22t25 65q0 62 -59 62h-9l10 48h7q42 0 61.5 24t19.5 60q0 29 -14.5 42t-36.5 13q-61 0 -78 -65h-55q26 114 136 114q47 0 75 -27.5
t28 -73.5zM675 712l-459 -712h-60l459 712h60zM742 116l-9 -50h-46l-13 -66h-54l14 66h-166l10 50l203 311h62l-205 -311h105l21 105h54l-21 -105h45z" />
    <glyph glyph-name="questiondown" unicode="&#xbf;" horiz-adv-x="474" 
d="M347 -47q-16 -84 -72.5 -131t-141.5 -47q-62 0 -105.5 40t-43.5 107q0 78 70 158l101 117q24 28 30 58l8 42h70l-9 -45q-11 -53 -48 -95l-100 -115q-51 -59 -51 -116q0 -38 23.5 -63t65.5 -25q50 0 85.5 30.5t46.5 84.5h71zM302 493l-16 -86h-83l16 86h83z" />
    <glyph glyph-name="Agrave" unicode="&#xc0;" horiz-adv-x="581" 
d="M521 0h-74l-22 162h-296l-87 -162h-78l389 712h61zM418 223l-53 384l-204 -384h257zM418 775h-63l-71 151h77z" />
    <glyph glyph-name="Aacute" unicode="&#xc1;" horiz-adv-x="581" 
d="M521 0h-74l-22 162h-296l-87 -162h-78l389 712h61zM418 223l-53 384l-204 -384h257zM535 926l-128 -151h-69l117 151h80z" />
    <glyph glyph-name="Acircumflex" unicode="&#xc2;" horiz-adv-x="581" 
d="M521 0h-74l-22 162h-296l-87 -162h-78l389 712h61zM418 223l-53 384l-204 -384h257zM536 775h-61l-65 107l-109 -107h-68l149 153h65z" />
    <glyph glyph-name="Atilde" unicode="&#xc3;" horiz-adv-x="581" 
d="M521 0h-74l-22 162h-296l-87 -162h-78l389 712h61zM418 223l-53 384l-204 -384h257zM550 837q-51 -48 -96 -48q-36 0 -69 24q-27 20 -51 20q-27 0 -62 -34l-30 37q51 48 96 48q36 0 69 -24q27 -20 51 -20q27 0 62 34z" />
    <glyph glyph-name="Adieresis" unicode="&#xc4;" horiz-adv-x="581" 
d="M521 0h-74l-22 162h-296l-87 -162h-78l389 712h61zM418 223l-53 384l-204 -384h257zM540 870l-17 -87h-68l17 87h68zM340 870l-17 -87h-68l17 87h68z" />
    <glyph glyph-name="Aring" unicode="&#xc5;" horiz-adv-x="581" 
d="M521 0h-74l-22 162h-296l-87 -162h-78l389 712h61zM418 223l-53 384l-204 -384h257zM510 862q0 -49 -34.5 -83.5t-82.5 -34.5q-49 0 -83.5 34.5t-34.5 83.5t34.5 83.5t83.5 34.5q48 0 82.5 -34.5t34.5 -83.5zM463 862q0 28 -21 49t-49 21q-29 0 -50 -21t-21 -49t21.5 -49
t49.5 -21t49 21t21 49z" />
    <glyph glyph-name="AE" unicode="&#xc6;" horiz-adv-x="881" 
d="M920 712l-13 -63h-346l-52 -260h296l-13 -64h-296l-52 -262h351l-13 -63h-423l34 173h-232l-120 -173h-82l499 712h462zM489 649l-287 -415h204z" />
    <glyph glyph-name="Ccedilla" unicode="&#xc7;" horiz-adv-x="607" 
d="M592 509h-73q-1 67 -36 106.5t-98 39.5q-78 0 -135 -60q-29 -30 -45.5 -78t-39.5 -161q-23 -119 -23 -168q0 -60 39.5 -95.5t96.5 -35.5q70 0 118 42t70 104h74q-31 -98 -102 -153.5t-165 -55.5q-87 0 -145.5 51.5t-58.5 140.5q0 56 23 170q28 135 47 188t60 96
q75 78 188 78q99 0 151.5 -57.5t53.5 -151.5zM297 -65l-84 -147h-75l94 147h65z" />
    <glyph glyph-name="Egrave" unicode="&#xc8;" horiz-adv-x="572" 
d="M611 712l-13 -63h-346l-52 -258h297l-12 -63h-297l-54 -265h353l-12 -63h-426l143 712h419zM432 775h-63l-71 151h77z" />
    <glyph glyph-name="Eacute" unicode="&#xc9;" horiz-adv-x="572" 
d="M611 712l-13 -63h-346l-52 -258h297l-12 -63h-297l-54 -265h353l-12 -63h-426l143 712h419zM549 926l-128 -151h-69l117 151h80z" />
    <glyph glyph-name="Ecircumflex" unicode="&#xca;" horiz-adv-x="572" 
d="M611 712l-13 -63h-346l-52 -258h297l-12 -63h-297l-54 -265h353l-12 -63h-426l143 712h419zM550 775h-61l-65 107l-109 -107h-68l149 153h65z" />
    <glyph glyph-name="Edieresis" unicode="&#xcb;" horiz-adv-x="572" 
d="M611 712l-13 -63h-346l-52 -258h297l-12 -63h-297l-54 -265h353l-12 -63h-426l143 712h419zM554 870l-17 -87h-68l17 87h68zM354 870l-17 -87h-68l17 87h68z" />
    <glyph glyph-name="Igrave" unicode="&#xcc;" horiz-adv-x="269" 
d="M264 712l-143 -712h-72l143 712h72zM281 775h-63l-71 151h77z" />
    <glyph glyph-name="Iacute" unicode="&#xcd;" horiz-adv-x="269" 
d="M264 712l-143 -712h-72l143 712h72zM395 926l-128 -151h-69l117 151h80z" />
    <glyph glyph-name="Icircumflex" unicode="&#xce;" horiz-adv-x="269" 
d="M264 712l-143 -712h-72l143 712h72zM382 775h-61l-65 107l-109 -107h-68l149 153h65z" />
    <glyph glyph-name="Idieresis" unicode="&#xcf;" horiz-adv-x="269" 
d="M264 712l-143 -712h-72l143 712h72zM386 870l-17 -87h-68l17 87h68zM186 870l-17 -87h-68l17 87h68z" />
    <glyph glyph-name="Eth" unicode="&#xd0;" horiz-adv-x="652" 
d="M626 518q0 -44 -21 -154q-26 -131 -50.5 -194t-71.5 -105q-71 -65 -185 -65h-236l66 331h-73l11 56h73l66 325h221q39 0 72.5 -9.5t63.5 -30.5t47 -60.5t17 -93.5zM554 515q0 63 -34.5 98.5t-106.5 35.5h-148l-53 -262h154l-11 -56h-154l-54 -268h147q87 0 143 51
q32 29 53 84.5t42 165.5q22 114 22 151z" />
    <glyph glyph-name="Ntilde" unicode="&#xd1;" horiz-adv-x="695" 
d="M692 712l-143 -712h-67l-245 577l-116 -577h-72l143 712h67l245 -577l115 577h73zM609 837q-51 -48 -96 -48q-36 0 -69 24q-28 20 -51 20q-27 0 -62 -34l-30 37q51 48 96 48q36 0 69 -24q27 -20 51 -20q27 0 62 34z" />
    <glyph glyph-name="Ograve" unicode="&#xd2;" horiz-adv-x="617" 
d="M589 526q0 -51 -24 -170q-26 -130 -45.5 -186t-59.5 -97q-76 -79 -193 -79q-87 0 -142.5 52.5t-55.5 139.5q0 56 23 170q26 128 46 185t60 98q74 79 193 79q87 0 142.5 -52.5t55.5 -139.5zM516 521q0 63 -37.5 98.5t-91.5 35.5q-81 0 -138 -60q-27 -29 -44.5 -78.5
t-39.5 -160.5q-23 -119 -23 -165q0 -63 37.5 -98.5t91.5 -35.5q80 0 137 60q27 29 44.5 78t39.5 161q24 117 24 165zM435 775h-63l-71 151h77z" />
    <glyph glyph-name="Oacute" unicode="&#xd3;" horiz-adv-x="617" 
d="M589 526q0 -51 -24 -170q-26 -130 -45.5 -186t-59.5 -97q-76 -79 -193 -79q-87 0 -142.5 52.5t-55.5 139.5q0 56 23 170q26 128 46 185t60 98q74 79 193 79q87 0 142.5 -52.5t55.5 -139.5zM516 521q0 63 -37.5 98.5t-91.5 35.5q-81 0 -138 -60q-27 -29 -44.5 -78.5
t-39.5 -160.5q-23 -119 -23 -165q0 -63 37.5 -98.5t91.5 -35.5q80 0 137 60q27 29 44.5 78t39.5 161q24 117 24 165zM552 926l-128 -151h-69l117 151h80z" />
    <glyph glyph-name="Ocircumflex" unicode="&#xd4;" horiz-adv-x="617" 
d="M589 526q0 -51 -24 -170q-26 -130 -45.5 -186t-59.5 -97q-76 -79 -193 -79q-87 0 -142.5 52.5t-55.5 139.5q0 56 23 170q26 128 46 185t60 98q74 79 193 79q87 0 142.5 -52.5t55.5 -139.5zM516 521q0 63 -37.5 98.5t-91.5 35.5q-81 0 -138 -60q-27 -29 -44.5 -78.5
t-39.5 -160.5q-23 -119 -23 -165q0 -63 37.5 -98.5t91.5 -35.5q80 0 137 60q27 29 44.5 78t39.5 161q24 117 24 165zM553 775h-61l-65 107l-109 -107h-68l149 153h65z" />
    <glyph glyph-name="Otilde" unicode="&#xd5;" horiz-adv-x="617" 
d="M589 526q0 -51 -24 -170q-26 -130 -45.5 -186t-59.5 -97q-76 -79 -193 -79q-87 0 -142.5 52.5t-55.5 139.5q0 56 23 170q26 128 46 185t60 98q74 79 193 79q87 0 142.5 -52.5t55.5 -139.5zM516 521q0 63 -37.5 98.5t-91.5 35.5q-81 0 -138 -60q-27 -29 -44.5 -78.5
t-39.5 -160.5q-23 -119 -23 -165q0 -63 37.5 -98.5t91.5 -35.5q80 0 137 60q27 29 44.5 78t39.5 161q24 117 24 165zM567 837q-51 -48 -96 -48q-36 0 -69 24q-28 20 -51 20q-27 0 -62 -34l-30 37q51 48 96 48q36 0 69 -24q28 -20 51 -20q27 0 62 34z" />
    <glyph glyph-name="Odieresis" unicode="&#xd6;" horiz-adv-x="617" 
d="M589 526q0 -51 -24 -170q-26 -130 -45.5 -186t-59.5 -97q-76 -79 -193 -79q-87 0 -142.5 52.5t-55.5 139.5q0 56 23 170q26 128 46 185t60 98q74 79 193 79q87 0 142.5 -52.5t55.5 -139.5zM516 521q0 63 -37.5 98.5t-91.5 35.5q-81 0 -138 -60q-27 -29 -44.5 -78.5
t-39.5 -160.5q-23 -119 -23 -165q0 -63 37.5 -98.5t91.5 -35.5q80 0 137 60q27 29 44.5 78t39.5 161q24 117 24 165zM557 870l-17 -87h-68l17 87h68zM357 870l-17 -87h-68l17 87h68z" />
    <glyph glyph-name="multiply" unicode="&#xd7;" horiz-adv-x="496" 
d="M468 416l-172 -149l115 -152l-49 -43l-115 152l-172 -149l-37 48l172 149l-115 153l50 43l115 -153l172 149z" />
    <glyph glyph-name="Oslash" unicode="&#xd8;" horiz-adv-x="618" 
d="M589 526q0 -51 -24 -170q-26 -130 -45.5 -186t-59.5 -97q-76 -79 -193 -79q-69 0 -118 32l-46 -70h-63l70 105q-41 50 -41 125q0 56 23 170q26 128 46 185t60 98q74 79 193 79q68 0 118 -33l46 71h63l-69 -108q40 -50 40 -122zM142 191q0 -36 12 -62l318 496
q-36 30 -85 30q-81 0 -138 -60q-27 -29 -44.5 -78.5t-39.5 -160.5q-23 -119 -23 -165zM516 521q0 30 -12 61l-318 -496q37 -29 85 -29q80 0 137 60q27 29 44.5 78t39.5 161q24 117 24 165z" />
    <glyph glyph-name="Ugrave" unicode="&#xd9;" horiz-adv-x="649" 
d="M654 712l-95 -478q-23 -115 -97.5 -177.5t-181.5 -62.5q-80 0 -139 49.5t-59 143.5q0 24 7 61l92 464h73l-94 -471q-5 -27 -5 -51q0 -54 32.5 -93t99.5 -39q72 0 128 48t74 140l92 466h73zM454 775h-63l-71 151h77z" />
    <glyph glyph-name="Uacute" unicode="&#xda;" horiz-adv-x="649" 
d="M654 712l-95 -478q-23 -115 -97.5 -177.5t-181.5 -62.5q-80 0 -139 49.5t-59 143.5q0 24 7 61l92 464h73l-94 -471q-5 -27 -5 -51q0 -54 32.5 -93t99.5 -39q72 0 128 48t74 140l92 466h73zM571 926l-128 -151h-69l117 151h80z" />
    <glyph glyph-name="Ucircumflex" unicode="&#xdb;" horiz-adv-x="649" 
d="M654 712l-95 -478q-23 -115 -97.5 -177.5t-181.5 -62.5q-80 0 -139 49.5t-59 143.5q0 24 7 61l92 464h73l-94 -471q-5 -27 -5 -51q0 -54 32.5 -93t99.5 -39q72 0 128 48t74 140l92 466h73zM573 775h-61l-65 107l-109 -107h-68l149 153h65z" />
    <glyph glyph-name="Udieresis" unicode="&#xdc;" horiz-adv-x="649" 
d="M654 712l-95 -478q-23 -115 -97.5 -177.5t-181.5 -62.5q-80 0 -139 49.5t-59 143.5q0 24 7 61l92 464h73l-94 -471q-5 -27 -5 -51q0 -54 32.5 -93t99.5 -39q72 0 128 48t74 140l92 466h73zM576 870l-17 -87h-68l17 87h68zM376 870l-17 -87h-68l17 87h68z" />
    <glyph glyph-name="Yacute" unicode="&#xdd;" horiz-adv-x="495" 
d="M575 712l-282 -421l-59 -291h-73l60 296l-121 416h76l94 -344l224 344h81zM489 926l-128 -151h-69l117 151h80z" />
    <glyph glyph-name="Thorn" unicode="&#xde;" horiz-adv-x="611" 
d="M586 396q0 -105 -68 -174t-184 -69h-181l-32 -153h-72l143 712h72l-29 -144h169q92 0 137 -49.5t45 -122.5zM513 392q0 48 -28.5 80t-89.5 32h-172l-58 -287h172q78 0 127 49t49 126z" />
    <glyph glyph-name="germandbls" unicode="&#xdf;" horiz-adv-x="531" 
d="M525 574q0 -44 -22.5 -83t-64.5 -62q44 -24 44 -77q0 -15 -5 -38l-33 -172q-13 -68 -55 -105t-106 -37h-57l11 60h41q32 0 60 21t37 68l34 170q3 15 3 25q0 29 -17.5 43.5t-45.5 14.5h-44l12 58h35q47 0 75 34t28 78q0 39 -20 59q-27 27 -76 27q-120 0 -147 -136
l-105 -522h-70l105 525q39 194 224 194q71 0 115 -38t44 -107z" />
    <glyph glyph-name="agrave" unicode="&#xe0;" horiz-adv-x="501" 
d="M443 371q0 -11 -5 -39l-66 -332h-69l11 49q-55 -55 -141 -55q-65 0 -106.5 29t-41.5 91q0 72 44 115q53 52 145 52h144l11 52q4 18 4 33q0 35 -26 54t-73 19q-80 0 -133 -59l-41 48q65 71 178 71q30 0 56 -5.5t52 -18.5t41.5 -39.5t15.5 -64.5zM348 229h-127
q-58 0 -92.5 -29t-34.5 -82q0 -65 98 -65q66 0 105 39q31 29 40 80zM338 589h-63l-72 151h77z" />
    <glyph glyph-name="aacute" unicode="&#xe1;" horiz-adv-x="501" 
d="M443 371q0 -11 -5 -39l-66 -332h-69l11 49q-55 -55 -141 -55q-65 0 -106.5 29t-41.5 91q0 72 44 115q53 52 145 52h144l11 52q4 18 4 33q0 35 -26 54t-73 19q-80 0 -133 -59l-41 48q65 71 178 71q30 0 56 -5.5t52 -18.5t41.5 -39.5t15.5 -64.5zM348 229h-127
q-58 0 -92.5 -29t-34.5 -82q0 -65 98 -65q66 0 105 39q31 29 40 80zM455 740l-128 -151h-70l118 151h80z" />
    <glyph glyph-name="acircumflex" unicode="&#xe2;" horiz-adv-x="501" 
d="M443 371q0 -11 -5 -39l-66 -332h-69l11 49q-55 -55 -141 -55q-65 0 -106.5 29t-41.5 91q0 72 44 115q53 52 145 52h144l11 52q4 18 4 33q0 35 -26 54t-73 19q-80 0 -133 -59l-41 48q65 71 178 71q30 0 56 -5.5t52 -18.5t41.5 -39.5t15.5 -64.5zM348 229h-127
q-58 0 -92.5 -29t-34.5 -82q0 -65 98 -65q66 0 105 39q31 29 40 80zM456 588h-62l-65 107l-108 -107h-69l150 153h64z" />
    <glyph glyph-name="atilde" unicode="&#xe3;" horiz-adv-x="501" 
d="M443 371q0 -11 -5 -39l-66 -332h-69l11 49q-55 -55 -141 -55q-65 0 -106.5 29t-41.5 91q0 72 44 115q53 52 145 52h144l11 52q4 18 4 33q0 35 -26 54t-73 19q-80 0 -133 -59l-41 48q65 71 178 71q30 0 56 -5.5t52 -18.5t41.5 -39.5t15.5 -64.5zM348 229h-127
q-58 0 -92.5 -29t-34.5 -82q0 -65 98 -65q66 0 105 39q31 29 40 80zM469 649q-51 -48 -96 -48q-36 0 -69 24q-27 20 -52 20t-62 -34l-29 37q51 48 96 48q34 0 69 -24q26 -20 51 -20t62 34z" />
    <glyph glyph-name="adieresis" unicode="&#xe4;" horiz-adv-x="501" 
d="M443 371q0 -11 -5 -39l-66 -332h-69l11 49q-55 -55 -141 -55q-65 0 -106.5 29t-41.5 91q0 72 44 115q53 52 145 52h144l11 52q4 18 4 33q0 35 -26 54t-73 19q-80 0 -133 -59l-41 48q65 71 178 71q30 0 56 -5.5t52 -18.5t41.5 -39.5t15.5 -64.5zM348 229h-127
q-58 0 -92.5 -29t-34.5 -82q0 -65 98 -65q66 0 105 39q31 29 40 80zM460 683l-17 -87h-68l17 87h68zM260 683l-17 -87h-68l17 87h68z" />
    <glyph glyph-name="aring" unicode="&#xe5;" horiz-adv-x="501" 
d="M443 371q0 -11 -5 -39l-66 -332h-69l11 49q-55 -55 -141 -55q-65 0 -106.5 29t-41.5 91q0 72 44 115q53 52 145 52h144l11 52q4 18 4 33q0 35 -26 54t-73 19q-80 0 -133 -59l-41 48q65 71 178 71q30 0 56 -5.5t52 -18.5t41.5 -39.5t15.5 -64.5zM348 229h-127
q-58 0 -92.5 -29t-34.5 -82q0 -65 98 -65q66 0 105 39q31 29 40 80zM441 686q0 -49 -34 -83.5t-83 -34.5t-83 34.5t-34 83.5t34 83t83 34t83 -34t34 -83zM395 686q0 28 -21 48.5t-50 20.5t-50 -20.5t-21 -48.5t21.5 -49.5t49.5 -21.5t49.5 21.5t21.5 49.5z" />
    <glyph glyph-name="ae" unicode="&#xe6;" horiz-adv-x="799" 
d="M746 330q0 -36 -12 -101h-318q-6 -40 -6 -62q0 -51 27 -82t80 -31q74 0 138 58l42 -46q-78 -72 -186 -72q-51 0 -90.5 22.5t-58.5 63.5q-56 -86 -179 -86q-158 0 -158 120q0 70 44 114q51 52 144 52h146l10 52q4 20 4 34q0 36 -26 54.5t-73 18.5q-81 0 -134 -59l-40 47
q65 72 178 72q114 0 149 -78q61 78 159 78q76 0 118 -47.5t42 -121.5zM348 229h-128q-58 0 -92 -29t-34 -83q0 -65 97 -65q65 0 106 39q31 31 40 80zM679 330q0 55 -27 82.5t-68 27.5q-116 0 -158 -160h248q5 27 5 50z" />
    <glyph glyph-name="ccedilla" unicode="&#xe7;" horiz-adv-x="466" 
d="M450 426l-52 -44q-37 55 -97 55q-62 0 -109 -48q-47 -50 -64 -142q-8 -42 -8 -74q0 -58 31 -87.5t76 -29.5q65 0 119 57l41 -50q-69 -69 -164 -69q-84 0 -128.5 49.5t-44.5 127.5q0 40 7 76q22 122 88.5 187t162.5 65q90 0 142 -73zM243 -65l-84 -147h-75l94 147h65z" />
    <glyph glyph-name="egrave" unicode="&#xe8;" horiz-adv-x="506" 
d="M453 330q0 -36 -12 -101h-318q-6 -40 -6 -62q0 -51 26.5 -82t79.5 -31q75 0 139 58l42 -46q-78 -72 -186 -72q-75 0 -121.5 43.5t-46.5 126.5q0 58 14 115t41.5 107.5t76 81.5t111.5 31q76 0 118 -47.5t42 -121.5zM385 330q0 55 -27 82.5t-68 27.5q-116 0 -157 -160h248
q4 21 4 50zM353 589h-63l-72 151h77z" />
    <glyph glyph-name="eacute" unicode="&#xe9;" horiz-adv-x="506" 
d="M453 330q0 -36 -12 -101h-318q-6 -40 -6 -62q0 -51 26.5 -82t79.5 -31q75 0 139 58l42 -46q-78 -72 -186 -72q-75 0 -121.5 43.5t-46.5 126.5q0 58 14 115t41.5 107.5t76 81.5t111.5 31q76 0 118 -47.5t42 -121.5zM385 330q0 55 -27 82.5t-68 27.5q-116 0 -157 -160h248
q4 21 4 50zM470 740l-128 -151h-70l118 151h80z" />
    <glyph glyph-name="ecircumflex" unicode="&#xea;" horiz-adv-x="506" 
d="M453 330q0 -36 -12 -101h-318q-6 -40 -6 -62q0 -51 26.5 -82t79.5 -31q75 0 139 58l42 -46q-78 -72 -186 -72q-75 0 -121.5 43.5t-46.5 126.5q0 58 14 115t41.5 107.5t76 81.5t111.5 31q76 0 118 -47.5t42 -121.5zM385 330q0 55 -27 82.5t-68 27.5q-116 0 -157 -160h248
q4 21 4 50zM471 588h-62l-65 107l-108 -107h-69l150 153h64z" />
    <glyph glyph-name="edieresis" unicode="&#xeb;" horiz-adv-x="506" 
d="M453 330q0 -36 -12 -101h-318q-6 -40 -6 -62q0 -51 26.5 -82t79.5 -31q75 0 139 58l42 -46q-78 -72 -186 -72q-75 0 -121.5 43.5t-46.5 126.5q0 58 14 115t41.5 107.5t76 81.5t111.5 31q76 0 118 -47.5t42 -121.5zM385 330q0 55 -27 82.5t-68 27.5q-116 0 -157 -160h248
q4 21 4 50zM475 683l-17 -87h-68l17 87h68zM275 683l-17 -87h-68l17 87h68z" />
    <glyph glyph-name="igrave" unicode="&#xec;" horiz-adv-x="240" 
d="M205 493l-98 -493h-70l98 493h70zM214 589h-63l-72 151h77z" />
    <glyph glyph-name="iacute" unicode="&#xed;" horiz-adv-x="240" 
d="M346 740l-128 -151h-70l118 151h80zM205 493l-98 -493h-70l98 493h70z" />
    <glyph glyph-name="icircumflex" unicode="&#xee;" horiz-adv-x="240" 
d="M205 493l-98 -493h-70l98 493h70zM332 588h-62l-65 107l-108 -107h-69l150 153h64z" />
    <glyph glyph-name="idieresis" unicode="&#xef;" horiz-adv-x="240" 
d="M205 493l-98 -493h-70l98 493h70zM131 683l-17 -87h-68l17 87h68zM332 683l-17 -87h-68l17 87h68z" />
    <glyph glyph-name="eth" unicode="&#xf0;" horiz-adv-x="504" 
d="M446 632l-9 -51h-54l40 -111q28 -81 28 -139q0 -34 -10 -86q-28 -143 -93 -199q-59 -52 -139 -52q-25 0 -49.5 7t-50.5 23.5t-42 50.5t-16 82q0 38 10 88q28 140 92 197q56 51 137 51q36 0 62 -13l-38 101h-112l10 51h87l-30 82h70l29 -82h78zM381 332q0 53 -27 77.5
t-66 24.5q-53 0 -91 -38q-44 -43 -66 -151q-10 -53 -10 -87q0 -53 27 -78t66 -25q52 0 91 39q44 43 66 151q10 53 10 87z" />
    <glyph glyph-name="ntilde" unicode="&#xf1;" horiz-adv-x="535" 
d="M474 360q0 -19 -6 -49l-62 -311h-70l61 304q5 27 5 46q0 43 -24.5 65.5t-65.5 22.5q-16 0 -34 -5t-41.5 -18t-42.5 -42t-27 -71l-60 -302h-70l98 493h68l-10 -55q53 61 145 61q58 0 97 -37t39 -102zM498 649q-51 -48 -96 -48q-36 0 -69 24q-27 20 -52 20t-62 -34l-29 37
q51 48 96 48q34 0 69 -24q26 -20 51 -20t62 34z" />
    <glyph glyph-name="ograve" unicode="&#xf2;" horiz-adv-x="502" 
d="M452 337q0 -36 -10 -91q-27 -138 -93 -199q-59 -53 -140 -53q-66 0 -112.5 40t-46.5 122q0 35 10 90q26 140 93 199q60 54 140 54q66 0 112.5 -40t46.5 -122zM383 332q0 54 -27 80t-69 26q-53 0 -91 -38q-46 -46 -67 -154q-10 -50 -10 -85q0 -54 27 -80t68 -26
q54 0 92 38q46 45 67 153q10 51 10 86zM351 589h-63l-72 151h77z" />
    <glyph glyph-name="oacute" unicode="&#xf3;" horiz-adv-x="502" 
d="M452 337q0 -36 -10 -91q-27 -138 -93 -199q-59 -53 -140 -53q-66 0 -112.5 40t-46.5 122q0 35 10 90q26 140 93 199q60 54 140 54q66 0 112.5 -40t46.5 -122zM383 332q0 54 -27 80t-69 26q-53 0 -91 -38q-46 -46 -67 -154q-10 -50 -10 -85q0 -54 27 -80t68 -26
q54 0 92 38q46 45 67 153q10 51 10 86zM468 740l-128 -151h-70l118 151h80z" />
    <glyph glyph-name="ocircumflex" unicode="&#xf4;" horiz-adv-x="502" 
d="M452 337q0 -36 -10 -91q-27 -138 -93 -199q-59 -53 -140 -53q-66 0 -112.5 40t-46.5 122q0 35 10 90q26 140 93 199q60 54 140 54q66 0 112.5 -40t46.5 -122zM383 332q0 54 -27 80t-69 26q-53 0 -91 -38q-46 -46 -67 -154q-10 -50 -10 -85q0 -54 27 -80t68 -26
q54 0 92 38q46 45 67 153q10 51 10 86zM469 588h-62l-65 107l-108 -107h-69l150 153h64z" />
    <glyph glyph-name="otilde" unicode="&#xf5;" horiz-adv-x="502" 
d="M452 337q0 -36 -10 -91q-27 -138 -93 -199q-59 -53 -140 -53q-66 0 -112.5 40t-46.5 122q0 35 10 90q26 140 93 199q60 54 140 54q66 0 112.5 -40t46.5 -122zM383 332q0 54 -27 80t-69 26q-53 0 -91 -38q-46 -46 -67 -154q-10 -50 -10 -85q0 -54 27 -80t68 -26
q54 0 92 38q46 45 67 153q10 51 10 86zM482 649q-51 -48 -96 -48q-36 0 -69 24q-27 20 -52 20t-62 -34l-29 37q51 48 96 48q34 0 69 -24q26 -20 51 -20t62 34z" />
    <glyph glyph-name="odieresis" unicode="&#xf6;" horiz-adv-x="502" 
d="M452 337q0 -36 -10 -91q-27 -138 -93 -199q-59 -53 -140 -53q-66 0 -112.5 40t-46.5 122q0 35 10 90q26 140 93 199q60 54 140 54q66 0 112.5 -40t46.5 -122zM383 332q0 54 -27 80t-69 26q-53 0 -91 -38q-46 -46 -67 -154q-10 -50 -10 -85q0 -54 27 -80t68 -26
q54 0 92 38q46 45 67 153q10 51 10 86zM473 683l-17 -87h-68l17 87h68zM273 683l-17 -87h-68l17 87h68z" />
    <glyph glyph-name="divide" unicode="&#xf7;" horiz-adv-x="496" 
d="M459 302l-13 -64h-399l13 64h399zM335 484l-16 -84h-83l17 84h82zM270 140l-16 -83h-83l17 83h82z" />
    <glyph glyph-name="oslash" unicode="&#xf8;" horiz-adv-x="503" 
d="M452 337q0 -39 -10 -91q-29 -141 -93 -198q-60 -54 -140 -54q-60 0 -100 29l-50 -67h-55l74 99q-28 39 -28 101q0 43 9 90q28 141 93 199q60 54 141 54q56 0 97 -28l50 66h56l-73 -98q29 -40 29 -102zM383 332q0 26 -8 48l-226 -302q24 -23 66 -23q52 0 91 39
q46 46 67 152q10 50 10 86zM119 161q0 -27 6 -45l226 300q-26 22 -64 22q-52 0 -91 -39q-46 -46 -67 -153q-10 -50 -10 -85z" />
    <glyph glyph-name="ugrave" unicode="&#xf9;" horiz-adv-x="535" 
d="M498 493l-98 -493h-68l10 55q-53 -61 -143 -61q-59 0 -98.5 37t-39.5 102q0 19 6 49l62 311h70l-61 -304q-6 -28 -6 -46q0 -43 25 -65.5t65 -22.5q17 0 35 5t41.5 18t42.5 42t27 71l60 302h70zM362 589h-63l-72 151h77z" />
    <glyph glyph-name="uacute" unicode="&#xfa;" horiz-adv-x="535" 
d="M498 493l-98 -493h-68l10 55q-53 -61 -143 -61q-59 0 -98.5 37t-39.5 102q0 19 6 49l62 311h70l-61 -304q-6 -28 -6 -46q0 -43 25 -65.5t65 -22.5q17 0 35 5t41.5 18t42.5 42t27 71l60 302h70zM479 740l-128 -151h-70l118 151h80z" />
    <glyph glyph-name="ucircumflex" unicode="&#xfb;" horiz-adv-x="535" 
d="M498 493l-98 -493h-68l10 55q-53 -61 -143 -61q-59 0 -98.5 37t-39.5 102q0 19 6 49l62 311h70l-61 -304q-6 -28 -6 -46q0 -43 25 -65.5t65 -22.5q17 0 35 5t41.5 18t42.5 42t27 71l60 302h70zM480 588h-62l-65 107l-108 -107h-69l150 153h64z" />
    <glyph glyph-name="udieresis" unicode="&#xfc;" horiz-adv-x="535" 
d="M498 493l-98 -493h-68l10 55q-53 -61 -143 -61q-59 0 -98.5 37t-39.5 102q0 19 6 49l62 311h70l-61 -304q-6 -28 -6 -46q0 -43 25 -65.5t65 -22.5q17 0 35 5t41.5 18t42.5 42t27 71l60 302h70zM484 683l-17 -87h-68l17 87h68zM284 683l-17 -87h-68l17 87h68z" />
    <glyph glyph-name="yacute" unicode="&#xfd;" horiz-adv-x="424" 
d="M462 493l-328 -611q-22 -41 -42 -59q-36 -33 -102 -33h-31l13 62h21q34 0 51.5 13.5t37.5 51.5l49 94l-71 482h70l51 -397l204 397h77zM423 740l-128 -151h-70l118 151h80z" />
    <glyph glyph-name="thorn" unicode="&#xfe;" horiz-adv-x="519" 
d="M470 345q0 -42 -11 -98q-29 -146 -85 -202q-51 -51 -131 -51q-90 0 -123 68l-57 -281h-70l186 931h70l-55 -275q50 62 136 62q71 0 105.5 -41.5t34.5 -112.5zM399 334q0 103 -88 103q-69 0 -103.5 -50.5t-51.5 -139.5q-11 -55 -11 -88q0 -103 89 -103q69 0 103 51t51 140
q11 55 11 87z" />
    <glyph glyph-name="ydieresis" unicode="&#xff;" horiz-adv-x="424" 
d="M462 493l-328 -611q-22 -41 -42 -59q-36 -33 -102 -33h-31l13 62h21q34 0 51.5 13.5t37.5 51.5l49 94l-71 482h70l51 -397l204 397h77zM428 683l-17 -87h-68l17 87h68zM228 683l-17 -87h-68l17 87h68z" />
    <glyph glyph-name="Amacron" unicode="&#x100;" horiz-adv-x="581" 
d="M521 0h-74l-22 162h-296l-87 -162h-78l389 712h61zM418 223l-53 384l-204 -384h257zM259 851h287l-11 -53h-287z" />
    <glyph glyph-name="amacron" unicode="&#x101;" horiz-adv-x="501" 
d="M443 371q0 -11 -5 -39l-66 -332h-69l11 49q-55 -55 -141 -55q-65 0 -106.5 29t-41.5 91q0 72 44 115q53 52 145 52h144l11 52q4 18 4 33q0 35 -26 54t-73 19q-80 0 -133 -59l-41 48q65 71 178 71q30 0 56 -5.5t52 -18.5t41.5 -39.5t15.5 -64.5zM348 229h-127
q-58 0 -92.5 -29t-34.5 -82q0 -65 98 -65q66 0 105 39q31 29 40 80zM467 665l-11 -53h-286l11 53h286z" />
    <glyph glyph-name="Abreve" unicode="&#x102;" horiz-adv-x="581" 
d="M521 0h-74l-22 162h-296l-87 -162h-78l389 712h61zM418 223l-53 384l-204 -384h257zM550 898q-30 -126 -156 -126q-58 0 -91 26.5t-33 75.5q0 13 1 24h55q-1 -10 -1 -18q0 -26 20 -40t55 -14q78 0 94 72h56z" />
    <glyph glyph-name="abreve" unicode="&#x103;" horiz-adv-x="501" 
d="M443 371q0 -11 -5 -39l-66 -332h-69l11 49q-55 -55 -141 -55q-65 0 -106.5 29t-41.5 91q0 72 44 115q53 52 145 52h144l11 52q4 18 4 33q0 35 -26 54t-73 19q-80 0 -133 -59l-41 48q65 71 178 71q30 0 56 -5.5t52 -18.5t41.5 -39.5t15.5 -64.5zM348 229h-127
q-58 0 -92.5 -29t-34.5 -82q0 -65 98 -65q66 0 105 39q31 29 40 80zM467 706q-28 -125 -155 -125q-58 0 -91 26.5t-33 75.5q0 12 1 23h55q-1 -9 -1 -18q0 -25 20 -39t55 -14q76 0 94 71h55z" />
    <glyph glyph-name="Aogonek" unicode="&#x104;" horiz-adv-x="581" 
d="M521 0h-74l-22 162h-296l-87 -162h-78l389 712h61zM418 223l-53 384l-204 -384h257zM505 -65l-84 -147h-75l94 147h65z" />
    <glyph glyph-name="aogonek" unicode="&#x105;" horiz-adv-x="501" 
d="M443 371q0 -11 -5 -39l-66 -332h-69l11 49q-55 -55 -141 -55q-65 0 -106.5 29t-41.5 91q0 72 44 115q53 52 145 52h144l11 52q4 18 4 33q0 35 -26 54t-73 19q-80 0 -133 -59l-41 48q65 71 178 71q30 0 56 -5.5t52 -18.5t41.5 -39.5t15.5 -64.5zM348 229h-127
q-58 0 -92.5 -29t-34.5 -82q0 -65 98 -65q66 0 105 39q31 29 40 80zM355 -65l-84 -147h-75l94 147h65z" />
    <glyph glyph-name="Cacute" unicode="&#x106;" horiz-adv-x="607" 
d="M592 509h-73q-1 67 -36 106.5t-98 39.5q-78 0 -135 -60q-29 -30 -45.5 -78t-39.5 -161q-23 -119 -23 -168q0 -60 39.5 -95.5t96.5 -35.5q70 0 118 42t70 104h74q-31 -98 -102 -153.5t-165 -55.5q-87 0 -145.5 51.5t-58.5 140.5q0 56 23 170q28 135 47 188t60 96
q75 78 188 78q99 0 151.5 -57.5t53.5 -151.5zM552 926l-128 -151h-69l117 151h80z" />
    <glyph glyph-name="cacute" unicode="&#x107;" horiz-adv-x="466" 
d="M450 426l-52 -44q-37 55 -97 55q-62 0 -109 -48q-47 -50 -64 -142q-8 -42 -8 -74q0 -58 31 -87.5t76 -29.5q65 0 119 57l41 -50q-69 -69 -164 -69q-84 0 -128.5 49.5t-44.5 127.5q0 40 7 76q22 122 88.5 187t162.5 65q90 0 142 -73zM482 740l-128 -151h-70l118 151h80z
" />
    <glyph glyph-name="Ccircumflex" unicode="&#x108;" horiz-adv-x="607" 
d="M592 509h-73q-1 67 -36 106.5t-98 39.5q-78 0 -135 -60q-29 -30 -45.5 -78t-39.5 -161q-23 -119 -23 -168q0 -60 39.5 -95.5t96.5 -35.5q70 0 118 42t70 104h74q-31 -98 -102 -153.5t-165 -55.5q-87 0 -145.5 51.5t-58.5 140.5q0 56 23 170q28 135 47 188t60 96
q75 78 188 78q99 0 151.5 -57.5t53.5 -151.5zM553 775h-61l-65 107l-109 -107h-68l149 153h65z" />
    <glyph glyph-name="ccircumflex" unicode="&#x109;" horiz-adv-x="466" 
d="M450 426l-52 -44q-37 55 -97 55q-62 0 -109 -48q-47 -50 -64 -142q-8 -42 -8 -74q0 -58 31 -87.5t76 -29.5q65 0 119 57l41 -50q-69 -69 -164 -69q-84 0 -128.5 49.5t-44.5 127.5q0 40 7 76q22 122 88.5 187t162.5 65q90 0 142 -73zM483 588h-62l-65 107l-108 -107h-69
l150 153h64z" />
    <glyph glyph-name="Cdotaccent" unicode="&#x10a;" horiz-adv-x="607" 
d="M592 509h-73q-1 67 -36 106.5t-98 39.5q-78 0 -135 -60q-29 -30 -45.5 -78t-39.5 -161q-23 -119 -23 -168q0 -60 39.5 -95.5t96.5 -35.5q70 0 118 42t70 104h74q-31 -98 -102 -153.5t-165 -55.5q-87 0 -145.5 51.5t-58.5 140.5q0 56 23 170q28 135 47 188t60 96
q75 78 188 78q99 0 151.5 -57.5t53.5 -151.5zM460 866l-15 -74h-72l15 74h72z" />
    <glyph glyph-name="cdotaccent" unicode="&#x10b;" horiz-adv-x="466" 
d="M450 426l-52 -44q-37 55 -97 55q-62 0 -109 -48q-47 -50 -64 -142q-8 -42 -8 -74q0 -58 31 -87.5t76 -29.5q65 0 119 57l41 -50q-69 -69 -164 -69q-84 0 -128.5 49.5t-44.5 127.5q0 40 7 76q22 122 88.5 187t162.5 65q90 0 142 -73zM389 679l-15 -74h-72l15 74h72z" />
    <glyph glyph-name="Ccaron" unicode="&#x10c;" horiz-adv-x="607" 
d="M592 509h-73q-1 67 -36 106.5t-98 39.5q-78 0 -135 -60q-29 -30 -45.5 -78t-39.5 -161q-23 -119 -23 -168q0 -60 39.5 -95.5t96.5 -35.5q70 0 118 42t70 104h74q-31 -98 -102 -153.5t-165 -55.5q-87 0 -145.5 51.5t-58.5 140.5q0 56 23 170q28 135 47 188t60 96
q75 78 188 78q99 0 151.5 -57.5t53.5 -151.5zM586 928l-149 -153h-64l-90 153h61l65 -107l109 107h68z" />
    <glyph glyph-name="ccaron" unicode="&#x10d;" horiz-adv-x="466" 
d="M450 426l-52 -44q-37 55 -97 55q-62 0 -109 -48q-47 -50 -64 -142q-8 -42 -8 -74q0 -58 31 -87.5t76 -29.5q65 0 119 57l41 -50q-69 -69 -164 -69q-84 0 -128.5 49.5t-44.5 127.5q0 40 7 76q22 122 88.5 187t162.5 65q90 0 142 -73zM508 741l-150 -153h-64l-90 153h62
l65 -107l108 107h69z" />
    <glyph glyph-name="Dcaron" unicode="&#x10e;" horiz-adv-x="639" 
d="M613 518q0 -44 -21 -154q-25 -130 -50 -193.5t-72 -105.5q-73 -65 -185 -65h-236l143 712h222q84 0 141.5 -45.5t57.5 -148.5zM541 515q0 63 -35 98.5t-106 35.5h-148l-118 -586h147q87 0 143 51q32 29 53.5 85.5t41.5 164.5q22 114 22 151zM591 928l-149 -153h-64
l-90 153h61l65 -107l109 107h68z" />
    <glyph glyph-name="dcaron" unicode="&#x10f;" horiz-adv-x="519" 
d="M526 712l-142 -712h-69l12 59q-54 -65 -137 -65q-141 0 -141 155q0 45 11 98q28 143 85 200q52 52 132 52q88 0 122 -68l57 281h70zM374 336q0 101 -89 101q-69 0 -103 -50.5t-51 -139.5q-11 -55 -11 -89q0 -102 88 -102q69 0 103.5 51t51.5 140q11 55 11 89zM703 719
l-80 -153h-59l69 153h70z" />
    <glyph glyph-name="Dcroat" unicode="&#x110;" horiz-adv-x="652" 
d="M626 518q0 -44 -21 -154q-26 -131 -50.5 -194t-71.5 -105q-71 -65 -185 -65h-236l66 331h-73l11 56h73l66 325h221q39 0 72.5 -9.5t63.5 -30.5t47 -60.5t17 -93.5zM554 515q0 63 -34.5 98.5t-106.5 35.5h-148l-53 -262h154l-11 -56h-154l-54 -268h147q87 0 143 51
q32 29 53 84.5t42 165.5q22 114 22 151z" />
    <glyph glyph-name="dcroat" unicode="&#x111;" horiz-adv-x="517" 
d="M566 620l-9 -47h-59l-114 -573h-69l12 59q-54 -65 -137 -65q-141 0 -141 155q0 45 11 98q28 143 85 200q52 52 132 52q88 0 122 -68l29 142h-122l9 47h122l19 92h70l-19 -92h59zM374 336q0 101 -89 101q-69 0 -103 -50.5t-51 -139.5q-11 -55 -11 -89q0 -102 88 -102
q69 0 103.5 51t51.5 140q11 55 11 89z" />
    <glyph glyph-name="Emacron" unicode="&#x112;" horiz-adv-x="572" 
d="M611 712l-13 -63h-346l-52 -258h297l-12 -63h-297l-54 -265h353l-12 -63h-426l143 712h419zM273 851h287l-11 -53h-287z" />
    <glyph glyph-name="emacron" unicode="&#x113;" horiz-adv-x="506" 
d="M453 330q0 -36 -12 -101h-318q-6 -40 -6 -62q0 -51 26.5 -82t79.5 -31q75 0 139 58l42 -46q-78 -72 -186 -72q-75 0 -121.5 43.5t-46.5 126.5q0 58 14 115t41.5 107.5t76 81.5t111.5 31q76 0 118 -47.5t42 -121.5zM385 330q0 55 -27 82.5t-68 27.5q-116 0 -157 -160h248
q4 21 4 50zM482 665l-11 -53h-286l11 53h286z" />
    <glyph glyph-name="Ebreve" unicode="&#x114;" horiz-adv-x="572" 
d="M611 712l-13 -63h-346l-52 -258h297l-12 -63h-297l-54 -265h353l-12 -63h-426l143 712h419zM539 898q-30 -126 -156 -126q-58 0 -91 26.5t-33 75.5q0 13 1 24h55q-1 -10 -1 -18q0 -26 20 -40t55 -14q77 0 94 72h56z" />
    <glyph glyph-name="ebreve" unicode="&#x115;" horiz-adv-x="506" 
d="M453 330q0 -36 -12 -101h-318q-6 -40 -6 -62q0 -51 26.5 -82t79.5 -31q75 0 139 58l42 -46q-78 -72 -186 -72q-75 0 -121.5 43.5t-46.5 126.5q0 58 14 115t41.5 107.5t76 81.5t111.5 31q76 0 118 -47.5t42 -121.5zM385 330q0 55 -27 82.5t-68 27.5q-116 0 -157 -160h248
q4 21 4 50zM473 706q-28 -125 -155 -125q-58 0 -91 26.5t-33 75.5q0 12 1 23h55q-1 -9 -1 -18q0 -25 20 -39t55 -14q76 0 94 71h55z" />
    <glyph glyph-name="Edotaccent" unicode="&#x116;" horiz-adv-x="572" 
d="M611 712l-13 -63h-346l-52 -258h297l-12 -63h-297l-54 -265h353l-12 -63h-426l143 712h419zM457 866l-15 -74h-72l15 74h72z" />
    <glyph glyph-name="edotaccent" unicode="&#x117;" horiz-adv-x="506" 
d="M453 330q0 -36 -12 -101h-318q-6 -40 -6 -62q0 -51 26.5 -82t79.5 -31q75 0 139 58l42 -46q-78 -72 -186 -72q-75 0 -121.5 43.5t-46.5 126.5q0 58 14 115t41.5 107.5t76 81.5t111.5 31q76 0 118 -47.5t42 -121.5zM385 330q0 55 -27 82.5t-68 27.5q-116 0 -157 -160h248
q4 21 4 50zM377 679l-15 -74h-72l15 74h72z" />
    <glyph glyph-name="Eogonek" unicode="&#x118;" horiz-adv-x="572" 
d="M611 712l-13 -63h-346l-52 -258h297l-12 -63h-297l-54 -265h353l-12 -63h-426l143 712h419zM454 -65l-84 -147h-75l94 147h65z" />
    <glyph glyph-name="eogonek" unicode="&#x119;" horiz-adv-x="506" 
d="M453 330q0 -36 -12 -101h-318q-6 -40 -6 -62q0 -51 26.5 -82t79.5 -31q75 0 139 58l42 -46q-78 -72 -186 -72q-75 0 -121.5 43.5t-46.5 126.5q0 58 14 115t41.5 107.5t76 81.5t111.5 31q76 0 118 -47.5t42 -121.5zM385 330q0 55 -27 82.5t-68 27.5q-116 0 -157 -160h248
q4 21 4 50zM311 -65l-84 -147h-75l94 147h65z" />
    <glyph glyph-name="Ecaron" unicode="&#x11a;" horiz-adv-x="572" 
d="M611 712l-13 -63h-346l-52 -258h297l-12 -63h-297l-54 -265h353l-12 -63h-426l143 712h419zM575 928l-149 -153h-64l-90 153h61l65 -107l109 107h68z" />
    <glyph glyph-name="ecaron" unicode="&#x11b;" horiz-adv-x="506" 
d="M453 330q0 -36 -12 -101h-318q-6 -40 -6 -62q0 -51 26.5 -82t79.5 -31q75 0 139 58l42 -46q-78 -72 -186 -72q-75 0 -121.5 43.5t-46.5 126.5q0 58 14 115t41.5 107.5t76 81.5t111.5 31q76 0 118 -47.5t42 -121.5zM385 330q0 55 -27 82.5t-68 27.5q-116 0 -157 -160h248
q4 21 4 50zM496 741l-150 -153h-64l-90 153h62l65 -107l108 107h69z" />
    <glyph glyph-name="Gcircumflex" unicode="&#x11c;" horiz-adv-x="619" 
d="M593 508h-73q-1 69 -36 108t-98 39q-78 0 -136 -60q-29 -30 -45.5 -78.5t-39.5 -160.5q-23 -118 -23 -168q0 -59 40 -95t96 -36q64 0 121.5 48t76.5 146l11 59h-166l11 62h239l-21 -113q-22 -119 -89 -188q-77 -77 -188 -77q-88 0 -146 52t-58 140q0 55 23 170
q28 136 47 188.5t60 95.5q75 78 189 78q99 0 151.5 -57.5t53.5 -152.5zM553 775h-61l-65 107l-109 -107h-68l149 153h65z" />
    <glyph glyph-name="gcircumflex" unicode="&#x11d;" horiz-adv-x="517" 
d="M481 493l-101 -504q-12 -63 -38 -107.5t-59.5 -66.5t-65.5 -31t-67 -9q-95 0 -151 66l50 44q41 -50 101 -50q57 0 100.5 37.5t60.5 116.5l16 76q-50 -63 -136 -63q-66 0 -103.5 40t-37.5 112q0 39 11 97q26 140 83 197q51 51 132 51q91 0 124 -69l12 63h69zM374 337
q0 100 -89 100q-67 0 -101.5 -50.5t-51.5 -136.5q-11 -57 -11 -86q0 -100 89 -100q117 0 153 187q11 57 11 86zM465 588h-62l-65 107l-108 -107h-69l150 153h64z" />
    <glyph glyph-name="Gbreve" unicode="&#x11e;" horiz-adv-x="619" 
d="M593 508h-73q-1 69 -36 108t-98 39q-78 0 -136 -60q-29 -30 -45.5 -78.5t-39.5 -160.5q-23 -118 -23 -168q0 -59 40 -95t96 -36q64 0 121.5 48t76.5 146l11 59h-166l11 62h239l-21 -113q-22 -119 -89 -188q-77 -77 -188 -77q-88 0 -146 52t-58 140q0 55 23 170
q28 136 47 188.5t60 95.5q75 78 189 78q99 0 151.5 -57.5t53.5 -152.5zM567 898q-30 -126 -156 -126q-58 0 -91 26.5t-33 75.5q0 13 1 24h55q-1 -10 -1 -18q0 -26 20 -40t55 -14q78 0 94 72h56z" />
    <glyph glyph-name="gbreve" unicode="&#x11f;" horiz-adv-x="517" 
d="M481 493l-101 -504q-12 -63 -38 -107.5t-59.5 -66.5t-65.5 -31t-67 -9q-95 0 -151 66l50 44q41 -50 101 -50q57 0 100.5 37.5t60.5 116.5l16 76q-50 -63 -136 -63q-66 0 -103.5 40t-37.5 112q0 39 11 97q26 140 83 197q51 51 132 51q91 0 124 -69l12 63h69zM374 337
q0 100 -89 100q-67 0 -101.5 -50.5t-51.5 -136.5q-11 -57 -11 -86q0 -100 89 -100q117 0 153 187q11 57 11 86zM476 706q-28 -125 -155 -125q-58 0 -91 26.5t-33 75.5q0 12 1 23h55q-1 -9 -1 -18q0 -25 20 -39t55 -14q76 0 94 71h55z" />
    <glyph glyph-name="Gdotaccent" unicode="&#x120;" horiz-adv-x="619" 
d="M593 508h-73q-1 69 -36 108t-98 39q-78 0 -136 -60q-29 -30 -45.5 -78.5t-39.5 -160.5q-23 -118 -23 -168q0 -59 40 -95t96 -36q64 0 121.5 48t76.5 146l11 59h-166l11 62h239l-21 -113q-22 -119 -89 -188q-77 -77 -188 -77q-88 0 -146 52t-58 140q0 55 23 170
q28 136 47 188.5t60 95.5q75 78 189 78q99 0 151.5 -57.5t53.5 -152.5zM460 866l-15 -74h-72l15 74h72z" />
    <glyph glyph-name="gdotaccent" unicode="&#x121;" horiz-adv-x="517" 
d="M481 493l-101 -504q-12 -63 -38 -107.5t-59.5 -66.5t-65.5 -31t-67 -9q-95 0 -151 66l50 44q41 -50 101 -50q57 0 100.5 37.5t60.5 116.5l16 76q-50 -63 -136 -63q-66 0 -103.5 40t-37.5 112q0 39 11 97q26 140 83 197q51 51 132 51q91 0 124 -69l12 63h69zM374 337
q0 100 -89 100q-67 0 -101.5 -50.5t-51.5 -136.5q-11 -57 -11 -86q0 -100 89 -100q117 0 153 187q11 57 11 86zM371 679l-15 -74h-72l15 74h72z" />
    <glyph glyph-name="Gcommaaccent" unicode="&#x122;" horiz-adv-x="619" 
d="M593 508h-73q-1 69 -36 108t-98 39q-78 0 -136 -60q-29 -30 -45.5 -78.5t-39.5 -160.5q-23 -118 -23 -168q0 -59 40 -95t96 -36q64 0 121.5 48t76.5 146l11 59h-166l11 62h239l-21 -113q-22 -119 -89 -188q-77 -77 -188 -77q-88 0 -146 52t-58 140q0 55 23 170
q28 136 47 188.5t60 95.5q75 78 189 78q99 0 151.5 -57.5t53.5 -152.5zM297 -65l-84 -147h-76l94 147h66z" />
    <glyph glyph-name="gcommaaccent" unicode="&#x123;" horiz-adv-x="517" 
d="M481 493l-101 -504q-12 -63 -38 -107.5t-59.5 -66.5t-65.5 -31t-67 -9q-95 0 -151 66l50 44q41 -50 101 -50q57 0 100.5 37.5t60.5 116.5l16 76q-50 -63 -136 -63q-66 0 -103.5 40t-37.5 112q0 39 11 97q26 140 83 197q51 51 132 51q91 0 124 -69l12 63h69zM374 337
q0 100 -89 100q-67 0 -101.5 -50.5t-51.5 -136.5q-11 -57 -11 -86q0 -100 89 -100q117 0 153 187q11 57 11 86zM464 740l-128 -151h-69l117 151h80z" />
    <glyph glyph-name="Hcircumflex" unicode="&#x124;" horiz-adv-x="660" 
d="M657 712l-143 -712h-72l66 328h-320l-67 -328h-72l143 712h72l-63 -321h320l64 321h72zM583 775h-61l-65 107l-109 -107h-68l149 153h65z" />
    <glyph glyph-name="hcircumflex" unicode="&#x125;" horiz-adv-x="535" 
d="M474 360q0 -19 -6 -49l-62 -311h-70l61 304q5 25 5 46q0 43 -24.5 65.5t-64.5 22.5q-17 0 -35 -5t-41.5 -18t-42.5 -42t-27 -71l-60 -302h-70l142 712h70l-54 -272q53 59 141 59q60 0 99 -37t39 -102zM378 779h-62l-65 107l-108 -107h-69l150 153h64z" />
    <glyph glyph-name="Hbar" unicode="&#x126;" horiz-adv-x="716" 
d="M707 573l-12 -58h-72l-103 -515h-72l66 328h-320l-67 -328h-72l103 515h-72l12 58h72l28 139h72l-27 -139h320l28 139h72l-28 -139h72zM551 515h-320l-24 -124h320z" />
    <glyph glyph-name="hbar" unicode="&#x127;" horiz-adv-x="544" 
d="M482 360q0 -22 -5 -49l-63 -311h-70l61 304q5 27 5 46q0 43 -24.5 65t-64.5 22q-12 0 -26 -2.5t-33 -11t-35 -22.5t-30.5 -39.5t-21.5 -59.5l-60 -302h-70l114 573h-60l9 47h60l19 92h70l-19 -92h121l-9 -47h-121l-26 -132q53 58 143 58q59 0 97.5 -37t38.5 -102z" />
    <glyph glyph-name="Itilde" unicode="&#x128;" horiz-adv-x="269" 
d="M264 712l-143 -712h-72l143 712h72zM400 837q-51 -48 -96 -48q-36 0 -69 24q-27 20 -51 20q-27 0 -62 -34l-30 37q51 48 96 48q36 0 69 -24q27 -20 51 -20q27 0 62 34z" />
    <glyph glyph-name="itilde" unicode="&#x129;" horiz-adv-x="240" 
d="M205 493l-98 -493h-70l98 493h70zM350 649q-51 -48 -96 -48q-36 0 -69 24q-27 20 -52 20t-62 -34l-29 37q51 48 96 48q34 0 69 -24q26 -20 51 -20t62 34z" />
    <glyph glyph-name="Imacron" unicode="&#x12a;" horiz-adv-x="269" 
d="M264 712l-143 -712h-72l143 712h72zM105 851h287l-11 -53h-287z" />
    <glyph glyph-name="imacron" unicode="&#x12b;" horiz-adv-x="240" 
d="M205 493l-98 -493h-70l98 493h70zM344 665l-11 -53h-286l11 53h286z" />
    <glyph glyph-name="Ibreve" unicode="&#x12c;" horiz-adv-x="269" 
d="M264 712l-143 -712h-72l143 712h72zM401 898q-30 -126 -156 -126q-58 0 -91 26.5t-33 75.5q0 13 1 24h55q-1 -10 -1 -18q0 -26 20 -40t55 -14q77 0 94 72h56z" />
    <glyph glyph-name="ibreve" unicode="&#x12d;" horiz-adv-x="240" 
d="M205 493l-98 -493h-70l98 493h70zM346 706q-28 -125 -155 -125q-58 0 -91 26.5t-33 75.5q0 12 1 23h55q-1 -9 -1 -18q0 -25 20 -39t55 -14q76 0 94 71h55z" />
    <glyph glyph-name="Iogonek" unicode="&#x12e;" horiz-adv-x="269" 
d="M264 712l-143 -712h-72l143 712h72zM104 -65l-84 -147h-75l94 147h65z" />
    <glyph glyph-name="iogonek" unicode="&#x12f;" horiz-adv-x="240" 
d="M205 493l-98 -493h-70l98 493h70zM251 706l-15 -73h-79l14 73h80zM90 -65l-84 -147h-75l94 147h65z" />
    <glyph glyph-name="Idotaccent" unicode="&#x130;" horiz-adv-x="269" 
d="M264 712l-143 -712h-72l143 712h72zM297 866l-15 -74h-72l15 74h72z" />
    <glyph glyph-name="dotlessi" unicode="&#x131;" horiz-adv-x="240" 
d="M205 493l-98 -493h-70l98 493h70z" />
    <glyph glyph-name="IJ" unicode="&#x132;" horiz-adv-x="745" 
d="M264 712l-143 -712h-72l143 712h72zM751 712l-100 -499q-21 -107 -85 -163t-158 -56q-98 0 -151 66l53 45q40 -48 104 -48q62 0 106.5 43t60.5 125l97 487h73z" />
    <glyph glyph-name="ij" unicode="&#x133;" horiz-adv-x="481" 
d="M205 493l-98 -493h-70l98 493h70zM251 706l-15 -73h-79l14 73h80zM445 493l-116 -585q-26 -128 -145 -128h-51l12 60h34q66 0 80 75l116 578h70zM491 706l-15 -73h-79l14 73h80z" />
    <glyph glyph-name="Jcircumflex" unicode="&#x134;" horiz-adv-x="476" 
d="M482 712l-100 -499q-21 -107 -85 -163t-158 -56q-98 0 -151 66l53 45q40 -48 104 -48q62 0 106.5 43t60.5 125l97 487h73zM603 775h-61l-65 107l-109 -107h-68l149 153h65z" />
    <glyph glyph-name="jcircumflex" unicode="&#x135;" horiz-adv-x="241" 
d="M205 493l-116 -585q-26 -128 -145 -128h-51l12 60h34q66 0 80 75l116 578h70zM332 588h-62l-65 107l-108 -107h-69l150 153h64z" />
    <glyph glyph-name="Kcommaaccent" unicode="&#x136;" horiz-adv-x="621" 
d="M667 712l-268 -279l164 -433h-79l-142 383l-181 -183l-40 -200h-72l143 712h72l-81 -405l393 405h91zM308 -65l-84 -147h-76l94 147h66z" />
    <glyph glyph-name="kcommaaccent" unicode="&#x137;" horiz-adv-x="513" 
d="M502 493l-197 -192l133 -301h-81l-106 256l-115 -109l-29 -147h-70l142 712h70l-94 -471l257 252h90zM257 -65l-84 -147h-76l94 147h66z" />
    <glyph glyph-name="kgreenlandic" unicode="&#x138;" horiz-adv-x="513" 
d="M502 493l-197 -192l133 -301h-81l-106 256l-115 -109l-29 -147h-70l98 493h70l-50 -252l257 252h90z" />
    <glyph glyph-name="Lacute" unicode="&#x139;" horiz-adv-x="546" 
d="M482 63l-12 -63h-421l143 712h72l-130 -649h348zM391 926l-128 -151h-69l117 151h80z" />
    <glyph glyph-name="lacute" unicode="&#x13a;" horiz-adv-x="248" 
d="M247 712l-116 -578q-4 -19 -4 -33q0 -41 54 -41h41l-12 -60h-52q-40 0 -70.5 22t-30.5 72q0 23 4 40l116 578h70zM384 931l-128 -151h-70l118 151h80z" />
    <glyph glyph-name="Lcommaaccent" unicode="&#x13b;" horiz-adv-x="546" 
d="M482 63l-12 -63h-421l143 712h72l-130 -649h348zM293 -65l-84 -147h-76l94 147h66z" />
    <glyph glyph-name="lcommaaccent" unicode="&#x13c;" horiz-adv-x="248" 
d="M247 712l-116 -578q-4 -19 -4 -33q0 -41 54 -41h41l-12 -60h-52q-40 0 -70.5 22t-30.5 72q0 23 4 40l116 578h70zM140 -65l-84 -147h-76l94 147h66z" />
    <glyph glyph-name="Lcaron" unicode="&#x13d;" horiz-adv-x="546" 
d="M482 63l-12 -63h-421l143 712h72l-130 -649h348zM470 712l-80 -153h-59l69 153h70z" />
    <glyph glyph-name="lcaron" unicode="&#x13e;" horiz-adv-x="248" 
d="M247 712l-116 -578q-4 -19 -4 -33q0 -41 54 -41h41l-12 -60h-52q-40 0 -70.5 22t-30.5 72q0 23 4 40l116 578h70zM426 719l-80 -153h-59l69 153h70z" />
    <glyph glyph-name="Ldot" unicode="&#x13f;" horiz-adv-x="546" 
d="M482 63l-12 -63h-421l143 712h72l-130 -649h348zM472 396l-15 -74h-72l15 74h72z" />
    <glyph glyph-name="ldot" unicode="&#x140;" horiz-adv-x="275" 
d="M247 712l-116 -578q-4 -19 -4 -33q0 -41 54 -41h41l-12 -60h-52q-40 0 -70.5 22t-30.5 72q0 23 4 40l116 578h70zM304 307l-15 -74h-72l15 74h72z" />
    <glyph glyph-name="Lslash" unicode="&#x141;" horiz-adv-x="555" 
d="M491 63l-12 -63h-421l58 291l-78 -46l13 66l79 46l71 355h72l-61 -310l166 98l-13 -66l-167 -98l-55 -273h348z" />
    <glyph glyph-name="lslash" unicode="&#x142;" horiz-adv-x="303" 
d="M291 496l-13 -63l-86 -50l-49 -249q-5 -23 -5 -33q0 -41 55 -41h41l-13 -60h-51q-40 0 -71 22t-31 72q0 23 4 40l42 208l-67 -39l12 64l68 38l61 307h70l-53 -265z" />
    <glyph glyph-name="Nacute" unicode="&#x143;" horiz-adv-x="695" 
d="M692 712l-143 -712h-67l-245 577l-116 -577h-72l143 712h67l245 -577l115 577h73zM594 926l-128 -151h-69l117 151h80z" />
    <glyph glyph-name="nacute" unicode="&#x144;" horiz-adv-x="535" 
d="M474 360q0 -19 -6 -49l-62 -311h-70l61 304q5 27 5 46q0 43 -24.5 65.5t-65.5 22.5q-16 0 -34 -5t-41.5 -18t-42.5 -42t-27 -71l-60 -302h-70l98 493h68l-10 -55q53 61 145 61q58 0 97 -37t39 -102zM484 740l-128 -151h-70l118 151h80z" />
    <glyph glyph-name="Ncommaaccent" unicode="&#x145;" horiz-adv-x="695" 
d="M692 712l-143 -712h-67l-245 577l-116 -577h-72l143 712h67l245 -577l115 577h73zM342 -65l-84 -147h-76l94 147h66z" />
    <glyph glyph-name="ncommaaccent" unicode="&#x146;" horiz-adv-x="535" 
d="M474 360q0 -19 -6 -49l-62 -311h-70l61 304q5 27 5 46q0 43 -24.5 65.5t-65.5 22.5q-16 0 -34 -5t-41.5 -18t-42.5 -42t-27 -71l-60 -302h-70l98 493h68l-10 -55q53 61 145 61q58 0 97 -37t39 -102zM269 -65l-84 -147h-76l94 147h66z" />
    <glyph glyph-name="Ncaron" unicode="&#x147;" horiz-adv-x="695" 
d="M692 712l-143 -712h-67l-245 577l-116 -577h-72l143 712h67l245 -577l115 577h73zM620 928l-149 -153h-64l-90 153h61l65 -107l109 107h68z" />
    <glyph glyph-name="ncaron" unicode="&#x148;" horiz-adv-x="535" 
d="M474 360q0 -19 -6 -49l-62 -311h-70l61 304q5 27 5 46q0 43 -24.5 65.5t-65.5 22.5q-16 0 -34 -5t-41.5 -18t-42.5 -42t-27 -71l-60 -302h-70l98 493h68l-10 -55q53 61 145 61q58 0 97 -37t39 -102zM510 741l-150 -153h-64l-90 153h62l65 -107l108 107h69z" />
    <glyph glyph-name="napostrophe" unicode="&#x149;" horiz-adv-x="535" 
d="M474 360q0 -19 -6 -49l-62 -311h-70l61 304q5 27 5 46q0 43 -24.5 65.5t-65.5 22.5q-16 0 -34 -5t-41.5 -18t-42.5 -42t-27 -71l-60 -302h-70l98 493h68l-10 -55q53 61 145 61q58 0 97 -37t39 -102zM180 721l-26 -127l-80 -63l39 190h67z" />
    <glyph glyph-name="Eng" unicode="&#x14a;" horiz-adv-x="695" 
d="M692 712l-159 -796q-26 -128 -145 -128h-51l12 60h38q66 0 80 75l15 77l-245 577l-116 -577h-72l143 712h67l245 -577l115 577h73z" />
    <glyph glyph-name="eng" unicode="&#x14b;" horiz-adv-x="535" 
d="M474 360q0 -19 -6 -49l-78 -395q-26 -128 -145 -128h-51l12 60h35q66 0 80 75l76 381q5 27 5 46q0 43 -24.5 65.5t-65.5 22.5q-16 0 -34 -5t-41.5 -18t-42.5 -42t-27 -71l-60 -302h-70l98 493h68l-10 -55q53 61 145 61q58 0 97 -37t39 -102z" />
    <glyph glyph-name="Omacron" unicode="&#x14c;" horiz-adv-x="617" 
d="M589 526q0 -51 -24 -170q-26 -130 -45.5 -186t-59.5 -97q-76 -79 -193 -79q-87 0 -142.5 52.5t-55.5 139.5q0 56 23 170q26 128 46 185t60 98q74 79 193 79q87 0 142.5 -52.5t55.5 -139.5zM516 521q0 63 -37.5 98.5t-91.5 35.5q-81 0 -138 -60q-27 -29 -44.5 -78.5
t-39.5 -160.5q-23 -119 -23 -165q0 -63 37.5 -98.5t91.5 -35.5q80 0 137 60q27 29 44.5 78t39.5 161q24 117 24 165zM276 851h287l-11 -53h-287z" />
    <glyph glyph-name="omacron" unicode="&#x14d;" horiz-adv-x="502" 
d="M452 337q0 -36 -10 -91q-27 -138 -93 -199q-59 -53 -140 -53q-66 0 -112.5 40t-46.5 122q0 35 10 90q26 140 93 199q60 54 140 54q66 0 112.5 -40t46.5 -122zM383 332q0 54 -27 80t-69 26q-53 0 -91 -38q-46 -46 -67 -154q-10 -50 -10 -85q0 -54 27 -80t68 -26
q54 0 92 38q46 45 67 153q10 51 10 86zM480 665l-11 -53h-286l11 53h286z" />
    <glyph glyph-name="Obreve" unicode="&#x14e;" horiz-adv-x="617" 
d="M589 526q0 -51 -24 -170q-26 -130 -45.5 -186t-59.5 -97q-76 -79 -193 -79q-87 0 -142.5 52.5t-55.5 139.5q0 56 23 170q26 128 46 185t60 98q74 79 193 79q87 0 142.5 -52.5t55.5 -139.5zM516 521q0 63 -37.5 98.5t-91.5 35.5q-81 0 -138 -60q-27 -29 -44.5 -78.5
t-39.5 -160.5q-23 -119 -23 -165q0 -63 37.5 -98.5t91.5 -35.5q80 0 137 60q27 29 44.5 78t39.5 161q24 117 24 165zM559 898q-30 -126 -156 -126q-58 0 -91 26.5t-33 75.5q0 13 1 24h55q-1 -10 -1 -18q0 -26 20 -40t55 -14q77 0 94 72h56z" />
    <glyph glyph-name="obreve" unicode="&#x14f;" horiz-adv-x="502" 
d="M452 337q0 -36 -10 -91q-27 -138 -93 -199q-59 -53 -140 -53q-66 0 -112.5 40t-46.5 122q0 35 10 90q26 140 93 199q60 54 140 54q66 0 112.5 -40t46.5 -122zM383 332q0 54 -27 80t-69 26q-53 0 -91 -38q-46 -46 -67 -154q-10 -50 -10 -85q0 -54 27 -80t68 -26
q54 0 92 38q46 45 67 153q10 51 10 86zM471 706q-28 -125 -155 -125q-58 0 -91 26.5t-33 75.5q0 12 1 23h55q-1 -9 -1 -18q0 -25 20 -39t55 -14q76 0 94 71h55z" />
    <glyph glyph-name="Ohungarumlaut" unicode="&#x150;" horiz-adv-x="617" 
d="M589 526q0 -51 -24 -170q-26 -130 -45.5 -186t-59.5 -97q-76 -79 -193 -79q-87 0 -142.5 52.5t-55.5 139.5q0 56 23 170q26 128 46 185t60 98q74 79 193 79q87 0 142.5 -52.5t55.5 -139.5zM516 521q0 63 -37.5 98.5t-91.5 35.5q-81 0 -138 -60q-27 -29 -44.5 -78.5
t-39.5 -160.5q-23 -119 -23 -165q0 -63 37.5 -98.5t91.5 -35.5q80 0 137 60q27 29 44.5 78t39.5 161q24 117 24 165zM640 926l-129 -151h-68l117 151h80zM484 926l-128 -151h-69l117 151h80z" />
    <glyph glyph-name="ohungarumlaut" unicode="&#x151;" horiz-adv-x="502" 
d="M452 337q0 -36 -10 -91q-27 -138 -93 -199q-59 -53 -140 -53q-66 0 -112.5 40t-46.5 122q0 35 10 90q26 140 93 199q60 54 140 54q66 0 112.5 -40t46.5 -122zM383 332q0 54 -27 80t-69 26q-53 0 -91 -38q-46 -46 -67 -154q-10 -50 -10 -85q0 -54 27 -80t68 -26
q54 0 92 38q46 45 67 153q10 51 10 86zM556 739l-129 -151h-69l117 151h81zM400 739l-129 -151h-69l117 151h81z" />
    <glyph glyph-name="OE" unicode="&#x152;" horiz-adv-x="936" 
d="M975 712l-13 -64h-340l-52 -257h292l-12 -63h-292l-54 -264h349l-13 -64h-416l13 66q-64 -72 -171 -72q-87 0 -142 52.5t-55 139.5q0 50 23 170q26 128 46 185t60 98q74 79 192 79q115 0 159 -87l16 81h410zM516 521q0 63 -37.5 98.5t-91.5 35.5q-81 0 -138 -60
q-27 -29 -44.5 -78.5t-39.5 -160.5q-23 -119 -23 -165q0 -63 37.5 -98.5t91.5 -35.5q80 0 137 60q27 29 44.5 78t39.5 161q24 117 24 165z" />
    <glyph glyph-name="oe" unicode="&#x153;" horiz-adv-x="821" 
d="M768 330q0 -39 -13 -101h-317q-6 -31 -6 -62q0 -51 26.5 -82t79.5 -31q75 0 139 58l41 -46q-76 -72 -185 -72q-115 0 -150 99q-62 -99 -174 -99q-66 0 -112.5 40t-46.5 122q0 43 9 90q27 140 93 199q61 54 141 54q50 0 88 -24.5t54 -73.5q61 98 173 98q76 0 118 -47.5
t42 -121.5zM383 332q0 54 -27 80t-69 26q-53 0 -91 -38q-46 -46 -67 -154q-10 -50 -10 -85q0 -54 27 -80t68 -26q54 0 92 38q46 45 67 153q10 51 10 86zM700 330q0 55 -27 82.5t-68 27.5q-116 0 -157 -160h248q4 21 4 50z" />
    <glyph glyph-name="Racute" unicode="&#x154;" horiz-adv-x="626" 
d="M614 548q0 -81 -50 -143.5t-138 -79.5l104 -325h-80l-98 320h-166l-65 -320h-72l143 712h245q93 0 135 -47t42 -117zM541 544q0 49 -28.5 76.5t-84.5 27.5h-176l-54 -266h178q77 0 121 49t44 113zM552 926l-128 -151h-69l117 151h80z" />
    <glyph glyph-name="racute" unicode="&#x155;" horiz-adv-x="399" 
d="M437 453l-57 -51q-27 35 -70 35q-52 0 -92 -38.5t-51 -96.5l-60 -302h-70l98 493h69l-12 -60q48 66 138 66q67 0 107 -46zM386 740l-128 -151h-70l118 151h80z" />
    <glyph glyph-name="Rcommaaccent" unicode="&#x156;" horiz-adv-x="626" 
d="M614 548q0 -81 -50 -143.5t-138 -79.5l104 -325h-80l-98 320h-166l-65 -320h-72l143 712h245q93 0 135 -47t42 -117zM541 544q0 49 -28.5 76.5t-84.5 27.5h-176l-54 -266h178q77 0 121 49t44 113zM306 -65l-84 -147h-76l94 147h66z" />
    <glyph glyph-name="rcommaaccent" unicode="&#x157;" horiz-adv-x="399" 
d="M437 453l-57 -51q-27 35 -70 35q-52 0 -92 -38.5t-51 -96.5l-60 -302h-70l98 493h69l-12 -60q48 66 138 66q67 0 107 -46zM93 -65l-84 -147h-76l94 147h66z" />
    <glyph glyph-name="Rcaron" unicode="&#x158;" horiz-adv-x="626" 
d="M614 548q0 -81 -50 -143.5t-138 -79.5l104 -325h-80l-98 320h-166l-65 -320h-72l143 712h245q93 0 135 -47t42 -117zM541 544q0 49 -28.5 76.5t-84.5 27.5h-176l-54 -266h178q77 0 121 49t44 113zM578 928l-149 -153h-64l-90 153h61l65 -107l109 107h68z" />
    <glyph glyph-name="rcaron" unicode="&#x159;" horiz-adv-x="399" 
d="M437 453l-57 -51q-27 35 -70 35q-52 0 -92 -38.5t-51 -96.5l-60 -302h-70l98 493h69l-12 -60q48 66 138 66q67 0 107 -46zM411 741l-150 -153h-64l-90 153h62l65 -107l108 107h69z" />
    <glyph glyph-name="Sacute" unicode="&#x15a;" horiz-adv-x="559" 
d="M552 636l-52 -44q-28 32 -60 48t-83 16q-79 0 -127.5 -48t-48.5 -112q0 -74 102 -98l67 -15q81 -19 117.5 -59t36.5 -114q0 -101 -76.5 -158.5t-191.5 -57.5q-74 0 -125 23t-95 75l55 48q65 -82 172 -82q79 0 133.5 42t54.5 107q0 51 -26 75t-75 35l-67 16
q-154 36 -154 160q0 39 15 77.5t44 72t80 54.5t116 21q119 0 188 -82zM529 926l-128 -151h-69l117 151h80z" />
    <glyph glyph-name="sacute" unicode="&#x15b;" horiz-adv-x="470" 
d="M434 444l-50 -43q-46 40 -115 40q-58 0 -90.5 -30t-32.5 -70q0 -45 73 -56l66 -9q65 -10 92.5 -38t27.5 -83q0 -61 -49 -107q-55 -54 -169 -54q-117 0 -182 71l52 45q48 -56 136 -56q67 0 104.5 30.5t37.5 68.5q0 31 -17 44t-52 18l-67 10q-123 18 -123 107q0 66 46 112
q55 55 156 55q97 0 156 -55zM455 740l-128 -151h-70l118 151h80z" />
    <glyph glyph-name="Scircumflex" unicode="&#x15c;" horiz-adv-x="559" 
d="M552 636l-52 -44q-28 32 -60 48t-83 16q-79 0 -127.5 -48t-48.5 -112q0 -74 102 -98l67 -15q81 -19 117.5 -59t36.5 -114q0 -101 -76.5 -158.5t-191.5 -57.5q-74 0 -125 23t-95 75l55 48q65 -82 172 -82q79 0 133.5 42t54.5 107q0 51 -26 75t-75 35l-67 16
q-154 36 -154 160q0 39 15 77.5t44 72t80 54.5t116 21q119 0 188 -82zM530 775h-61l-65 107l-109 -107h-68l149 153h65z" />
    <glyph glyph-name="scircumflex" unicode="&#x15d;" horiz-adv-x="470" 
d="M434 444l-50 -43q-46 40 -115 40q-58 0 -90.5 -30t-32.5 -70q0 -45 73 -56l66 -9q65 -10 92.5 -38t27.5 -83q0 -61 -49 -107q-55 -54 -169 -54q-117 0 -182 71l52 45q48 -56 136 -56q67 0 104.5 30.5t37.5 68.5q0 31 -17 44t-52 18l-67 10q-123 18 -123 107q0 66 46 112
q55 55 156 55q97 0 156 -55zM456 588h-62l-65 107l-108 -107h-69l150 153h64z" />
    <glyph glyph-name="Scedilla" unicode="&#x15e;" horiz-adv-x="559" 
d="M552 636l-52 -44q-28 32 -60 48t-83 16q-79 0 -127.5 -48t-48.5 -112q0 -74 102 -98l67 -15q81 -19 117.5 -59t36.5 -114q0 -101 -76.5 -158.5t-191.5 -57.5q-74 0 -125 23t-95 75l55 48q65 -82 172 -82q79 0 133.5 42t54.5 107q0 51 -26 75t-75 35l-67 16
q-154 36 -154 160q0 39 15 77.5t44 72t80 54.5t116 21q119 0 188 -82zM268 -65l-84 -147h-75l94 147h65z" />
    <glyph glyph-name="scedilla" unicode="&#x15f;" horiz-adv-x="470" 
d="M434 444l-50 -43q-46 40 -115 40q-58 0 -90.5 -30t-32.5 -70q0 -45 73 -56l66 -9q65 -10 92.5 -38t27.5 -83q0 -61 -49 -107q-55 -54 -169 -54q-117 0 -182 71l52 45q48 -56 136 -56q67 0 104.5 30.5t37.5 68.5q0 31 -17 44t-52 18l-67 10q-123 18 -123 107q0 66 46 112
q55 55 156 55q97 0 156 -55zM218 -65l-84 -147h-75l94 147h65z" />
    <glyph glyph-name="Scaron" unicode="&#x160;" horiz-adv-x="559" 
d="M552 636l-52 -44q-28 32 -60 48t-83 16q-79 0 -127.5 -48t-48.5 -112q0 -74 102 -98l67 -15q81 -19 117.5 -59t36.5 -114q0 -101 -76.5 -158.5t-191.5 -57.5q-74 0 -125 23t-95 75l55 48q65 -82 172 -82q79 0 133.5 42t54.5 107q0 51 -26 75t-75 35l-67 16
q-154 36 -154 160q0 39 15 77.5t44 72t80 54.5t116 21q119 0 188 -82zM555 928l-149 -153h-64l-90 153h61l65 -107l109 107h68z" />
    <glyph glyph-name="scaron" unicode="&#x161;" horiz-adv-x="470" 
d="M434 444l-50 -43q-46 40 -115 40q-58 0 -90.5 -30t-32.5 -70q0 -45 73 -56l66 -9q65 -10 92.5 -38t27.5 -83q0 -61 -49 -107q-55 -54 -169 -54q-117 0 -182 71l52 45q48 -56 136 -56q67 0 104.5 30.5t37.5 68.5q0 31 -17 44t-52 18l-67 10q-123 18 -123 107q0 66 46 112
q55 55 156 55q97 0 156 -55zM481 741l-150 -153h-64l-90 153h62l65 -107l108 107h69z" />
    <glyph glyph-name="Tcommaaccent" unicode="&#x162;" horiz-adv-x="521" 
d="M585 712l-13 -64h-195l-130 -648h-72l130 648h-196l13 64h463zM230 -65l-84 -147h-75l94 147h65z" />
    <glyph glyph-name="tcommaaccent" unicode="&#x163;" horiz-adv-x="318" 
d="M315 493l-11 -53h-96l-62 -306q-4 -19 -4 -32q0 -42 55 -42h40l-13 -60h-50q-40 0 -71 22t-31 72q0 16 4 40l61 306h-61l10 53h62l30 150h70l-30 -150h97zM157 -65l-84 -147h-76l94 147h66z" />
    <glyph glyph-name="Tcaron" unicode="&#x164;" horiz-adv-x="521" 
d="M585 712l-13 -64h-195l-130 -648h-72l130 648h-196l13 64h463zM546 928l-149 -153h-64l-90 153h61l65 -107l109 107h68z" />
    <glyph glyph-name="tcaron" unicode="&#x165;" horiz-adv-x="318" 
d="M315 493l-11 -53h-96l-62 -306q-4 -19 -4 -32q0 -42 55 -42h40l-13 -60h-50q-40 0 -71 22t-31 72q0 16 4 40l61 306h-61l10 53h62l30 150h70l-30 -150h97zM439 719l-80 -153h-59l69 153h70z" />
    <glyph glyph-name="Tbar" unicode="&#x166;" horiz-adv-x="521" 
d="M585 712l-13 -64h-195l-53 -261h115l-11 -56h-115l-66 -331h-72l66 331h-113l11 56h113l53 261h-196l13 64h463z" />
    <glyph glyph-name="tbar" unicode="&#x167;" horiz-adv-x="318" 
d="M315 493l-11 -53h-96l-29 -143h97l-11 -53h-97l-22 -110q-4 -19 -4 -32q0 -42 55 -42h40l-13 -60h-50q-40 0 -71 22t-31 72q0 16 4 40l22 110h-61l10 53h61l29 143h-61l10 53h62l30 150h70l-30 -150h97z" />
    <glyph glyph-name="Utilde" unicode="&#x168;" horiz-adv-x="649" 
d="M654 712l-95 -478q-23 -115 -97.5 -177.5t-181.5 -62.5q-80 0 -139 49.5t-59 143.5q0 24 7 61l92 464h73l-94 -471q-5 -27 -5 -51q0 -54 32.5 -93t99.5 -39q72 0 128 48t74 140l92 466h73zM590 837q-51 -48 -96 -48q-36 0 -69 24q-27 20 -51 20q-27 0 -62 -34l-30 37
q51 48 96 48q36 0 69 -24q28 -20 51 -20q27 0 62 34z" />
    <glyph glyph-name="utilde" unicode="&#x169;" horiz-adv-x="535" 
d="M498 493l-98 -493h-68l10 55q-53 -61 -143 -61q-59 0 -98.5 37t-39.5 102q0 19 6 49l62 311h70l-61 -304q-6 -28 -6 -46q0 -43 25 -65.5t65 -22.5q17 0 35 5t41.5 18t42.5 42t27 71l60 302h70zM497 649q-51 -48 -96 -48q-36 0 -69 24q-27 20 -52 20t-62 -34l-29 37
q51 48 96 48q34 0 69 -24q26 -20 51 -20t62 34z" />
    <glyph glyph-name="Umacron" unicode="&#x16a;" horiz-adv-x="649" 
d="M654 712l-95 -478q-23 -115 -97.5 -177.5t-181.5 -62.5q-80 0 -139 49.5t-59 143.5q0 24 7 61l92 464h73l-94 -471q-5 -27 -5 -51q0 -54 32.5 -93t99.5 -39q72 0 128 48t74 140l92 466h73zM295 851h287l-11 -53h-287z" />
    <glyph glyph-name="umacron" unicode="&#x16b;" horiz-adv-x="535" 
d="M498 493l-98 -493h-68l10 55q-53 -61 -143 -61q-59 0 -98.5 37t-39.5 102q0 19 6 49l62 311h70l-61 -304q-6 -28 -6 -46q0 -43 25 -65.5t65 -22.5q17 0 35 5t41.5 18t42.5 42t27 71l60 302h70zM491 665l-11 -53h-286l11 53h286z" />
    <glyph glyph-name="Ubreve" unicode="&#x16c;" horiz-adv-x="649" 
d="M654 712l-95 -478q-23 -115 -97.5 -177.5t-181.5 -62.5q-80 0 -139 49.5t-59 143.5q0 24 7 61l92 464h73l-94 -471q-5 -27 -5 -51q0 -54 32.5 -93t99.5 -39q72 0 128 48t74 140l92 466h73zM586 898q-30 -126 -156 -126q-58 0 -91 26.5t-33 75.5q0 13 1 24h55
q-1 -10 -1 -18q0 -26 20 -40t55 -14q78 0 94 72h56z" />
    <glyph glyph-name="ubreve" unicode="&#x16d;" horiz-adv-x="535" 
d="M498 493l-98 -493h-68l10 55q-53 -61 -143 -61q-59 0 -98.5 37t-39.5 102q0 19 6 49l62 311h70l-61 -304q-6 -28 -6 -46q0 -43 25 -65.5t65 -22.5q17 0 35 5t41.5 18t42.5 42t27 71l60 302h70zM491 706q-28 -125 -155 -125q-58 0 -91 26.5t-33 75.5q0 12 1 23h55
q-1 -9 -1 -18q0 -25 20 -39t55 -14q76 0 94 71h55z" />
    <glyph glyph-name="Uring" unicode="&#x16e;" horiz-adv-x="649" 
d="M654 712l-95 -478q-23 -115 -97.5 -177.5t-181.5 -62.5q-80 0 -139 49.5t-59 143.5q0 24 7 61l92 464h73l-94 -471q-5 -27 -5 -51q0 -54 32.5 -93t99.5 -39q72 0 128 48t74 140l92 466h73zM550 862q0 -49 -34.5 -83.5t-82.5 -34.5q-49 0 -83.5 34.5t-34.5 83.5t34.5 83.5
t83.5 34.5q48 0 82.5 -34.5t34.5 -83.5zM503 862q0 28 -21 49t-49 21q-29 0 -50 -21t-21 -49t21.5 -49t49.5 -21t49 21t21 49z" />
    <glyph glyph-name="uring" unicode="&#x16f;" horiz-adv-x="535" 
d="M498 493l-98 -493h-68l10 55q-53 -61 -143 -61q-59 0 -98.5 37t-39.5 102q0 19 6 49l62 311h70l-61 -304q-6 -28 -6 -46q0 -43 25 -65.5t65 -22.5q17 0 35 5t41.5 18t42.5 42t27 71l60 302h70zM459 686q0 -49 -34 -83.5t-83 -34.5t-83 34.5t-34 83.5t34 83t83 34t83 -34
t34 -83zM413 686q0 28 -21 48.5t-50 20.5t-50 -20.5t-21 -48.5t21.5 -49.5t49.5 -21.5t49.5 21.5t21.5 49.5z" />
    <glyph glyph-name="Uhungarumlaut" unicode="&#x170;" horiz-adv-x="649" 
d="M654 712l-95 -478q-23 -115 -97.5 -177.5t-181.5 -62.5q-80 0 -139 49.5t-59 143.5q0 24 7 61l92 464h73l-94 -471q-5 -27 -5 -51q0 -54 32.5 -93t99.5 -39q72 0 128 48t74 140l92 466h73zM659 926l-129 -151h-68l117 151h80zM503 926l-128 -151h-69l117 151h80z" />
    <glyph glyph-name="uhungarumlaut" unicode="&#x171;" horiz-adv-x="535" 
d="M498 493l-98 -493h-68l10 55q-53 -61 -143 -61q-59 0 -98.5 37t-39.5 102q0 19 6 49l62 311h70l-61 -304q-6 -28 -6 -46q0 -43 25 -65.5t65 -22.5q17 0 35 5t41.5 18t42.5 42t27 71l60 302h70zM567 739l-129 -151h-69l117 151h81zM411 739l-129 -151h-69l117 151h81z" />
    <glyph glyph-name="Uogonek" unicode="&#x172;" horiz-adv-x="649" 
d="M654 712l-95 -478q-23 -115 -97.5 -177.5t-181.5 -62.5q-80 0 -139 49.5t-59 143.5q0 24 7 61l92 464h73l-94 -471q-5 -27 -5 -51q0 -54 32.5 -93t99.5 -39q72 0 128 48t74 140l92 466h73zM408 -65l-84 -147h-75l94 147h65z" />
    <glyph glyph-name="uogonek" unicode="&#x173;" horiz-adv-x="535" 
d="M498 493l-98 -493h-68l10 55q-53 -61 -143 -61q-59 0 -98.5 37t-39.5 102q0 19 6 49l62 311h70l-61 -304q-6 -28 -6 -46q0 -43 25 -65.5t65 -22.5q17 0 35 5t41.5 18t42.5 42t27 71l60 302h70zM383 -65l-84 -147h-75l94 147h65z" />
    <glyph glyph-name="Wcircumflex" unicode="&#x174;" horiz-adv-x="815" 
d="M890 712l-309 -712h-68l-38 573l-267 -573h-67l-33 712h75l20 -577l264 577h65l37 -577l243 577h78zM661 775h-61l-65 107l-109 -107h-68l149 153h65z" />
    <glyph glyph-name="wcircumflex" unicode="&#x175;" horiz-adv-x="688" 
d="M724 493l-239 -493h-64l-48 382l-197 -382h-64l-51 493h71l31 -394l200 394h57l47 -394l183 394h74zM562 588h-62l-65 107l-108 -107h-69l150 153h64z" />
    <glyph glyph-name="Ycircumflex" unicode="&#x176;" horiz-adv-x="495" 
d="M575 712l-282 -421l-59 -291h-73l60 296l-121 416h76l94 -344l224 344h81zM489 775h-61l-65 107l-109 -107h-68l149 153h65z" />
    <glyph glyph-name="ycircumflex" unicode="&#x177;" horiz-adv-x="424" 
d="M462 493l-328 -611q-22 -41 -42 -59q-36 -33 -102 -33h-31l13 62h21q34 0 51.5 13.5t37.5 51.5l49 94l-71 482h70l51 -397l204 397h77zM426 588h-62l-65 107l-108 -107h-69l150 153h64z" />
    <glyph glyph-name="Ydieresis" unicode="&#x178;" horiz-adv-x="495" 
d="M575 712l-282 -421l-59 -291h-73l60 296l-121 416h76l94 -344l224 344h81zM293 870l-17 -87h-68l17 87h68zM494 870l-17 -87h-68l17 87h68z" />
    <glyph glyph-name="Zacute" unicode="&#x179;" horiz-adv-x="532" 
d="M565 712l-12 -60l-452 -588h341l-13 -64h-423l14 67l447 581h-324l12 64h410zM519 926l-128 -151h-69l117 151h80z" />
    <glyph glyph-name="zacute" unicode="&#x17a;" horiz-adv-x="440" 
d="M439 493l-12 -59l-330 -372h262l-12 -62h-347l12 59l329 372h-247l12 62h333zM442 740l-128 -151h-70l118 151h80z" />
    <glyph glyph-name="Zdotaccent" unicode="&#x17b;" horiz-adv-x="532" 
d="M565 712l-12 -60l-452 -588h341l-13 -64h-423l14 67l447 581h-324l12 64h410zM427 866l-15 -74h-72l15 74h72z" />
    <glyph glyph-name="zdotaccent" unicode="&#x17c;" horiz-adv-x="440" 
d="M439 493l-12 -59l-330 -372h262l-12 -62h-347l12 59l329 372h-247l12 62h333zM349 679l-15 -74h-72l15 74h72z" />
    <glyph glyph-name="Zcaron" unicode="&#x17d;" horiz-adv-x="532" 
d="M565 712l-12 -60l-452 -588h341l-13 -64h-423l14 67l447 581h-324l12 64h410zM545 928l-149 -153h-64l-90 153h61l65 -107l109 107h68z" />
    <glyph glyph-name="zcaron" unicode="&#x17e;" horiz-adv-x="440" 
d="M439 493l-12 -59l-330 -372h262l-12 -62h-347l12 59l329 372h-247l12 62h333zM468 741l-150 -153h-64l-90 153h62l65 -107l108 107h69z" />
    <glyph glyph-name="longs" unicode="&#x17f;" horiz-adv-x="240" 
d="M350 714l-12 -60h-36q-64 0 -78 -70l-117 -584h-70l117 588q25 126 143 126h53z" />
    <glyph glyph-name="uni018F" unicode="&#x18f;" horiz-adv-x="619" 
d="M593 526q0 -51 -24 -170q-27 -130 -46.5 -186t-59.5 -97q-74 -79 -192 -79q-88 0 -145 52.5t-57 139.5q0 58 22 164l4 22h403q22 105 22 149q0 63 -38 98.5t-92 35.5q-84 0 -141 -60q-29 -33 -47 -87h-75q25 82 71 131q76 79 196 79q88 0 143.5 -52.5t55.5 -139.5z
M486 310h-330q-14 -73 -14 -119q0 -63 39.5 -98.5t93.5 -35.5q80 0 137 60q24 26 40.5 67.5t33.5 125.5z" />
    <glyph glyph-name="florin" unicode="&#x192;" horiz-adv-x="383" 
d="M448 714l-12 -60h-43q-67 0 -93 -72l-72 -197h102l-12 -53h-109l-202 -551h-71l203 551h-92l10 53h101l72 197q24 65 62 98.5t109 33.5h47z" />
    <glyph glyph-name="uni01B5" unicode="&#x1b5;" horiz-adv-x="532" 
d="M565 712l-12 -60l-204 -265h92l-11 -56h-124l-205 -267h341l-13 -64h-423l14 67l203 264h-93l11 56h125l201 261h-324l12 64h410z" />
    <glyph glyph-name="uni01B6" unicode="&#x1b6;" horiz-adv-x="440" 
d="M439 493l-12 -59l-146 -164h69l-9 -47h-101l-143 -161h262l-12 -62h-347l12 59l145 164h-66l9 47h98l143 161h-247l12 62h333z" />
    <glyph glyph-name="uni01C4" unicode="&#x1c4;" horiz-adv-x="1171" 
d="M613 518q0 -44 -21 -154q-25 -130 -50 -193.5t-72 -105.5q-73 -65 -185 -65h-236l143 712h222q84 0 141.5 -45.5t57.5 -148.5zM541 515q0 63 -35 98.5t-106 35.5h-148l-118 -586h147q87 0 143 51q32 29 53.5 85.5t41.5 164.5q22 114 22 151zM1204 712l-12 -60l-452 -588
h341l-13 -64h-423l14 67l447 581h-324l12 64h410zM1184 928l-149 -153h-64l-90 153h61l65 -107l109 107h68z" />
    <glyph glyph-name="uni01C5" unicode="&#x1c5;" horiz-adv-x="1079" 
d="M613 518q0 -44 -21 -154q-25 -130 -50 -193.5t-72 -105.5q-73 -65 -185 -65h-236l143 712h222q84 0 141.5 -45.5t57.5 -148.5zM541 515q0 63 -35 98.5t-106 35.5h-148l-118 -586h147q87 0 143 51q32 29 53.5 85.5t41.5 164.5q22 114 22 151zM1078 493l-12 -59l-330 -372
h262l-12 -62h-347l12 59l329 372h-247l12 62h333zM1107 741l-150 -153h-64l-90 153h62l65 -107l108 107h69z" />
    <glyph glyph-name="uni01C6" unicode="&#x1c6;" horiz-adv-x="959" 
d="M526 712l-142 -712h-69l12 59q-54 -65 -137 -65q-141 0 -141 155q0 45 11 98q28 143 85 200q52 52 132 52q88 0 122 -68l57 281h70zM374 336q0 101 -89 101q-69 0 -103 -50.5t-51 -139.5q-11 -55 -11 -89q0 -102 88 -102q69 0 103.5 51t51.5 140q11 55 11 89zM958 493
l-12 -59l-330 -372h262l-12 -62h-347l12 59l329 372h-247l12 62h333zM987 741l-150 -153h-64l-90 153h62l65 -107l108 107h69z" />
    <glyph glyph-name="uni01C7" unicode="&#x1c7;" horiz-adv-x="1022" 
d="M482 63l-12 -63h-421l143 712h72l-130 -649h348zM1028 712l-100 -499q-21 -107 -85 -163t-158 -56q-98 0 -151 66l53 45q40 -48 104 -48q62 0 106.5 43t60.5 125l97 487h73z" />
    <glyph glyph-name="uni01C8" unicode="&#x1c8;" horiz-adv-x="787" 
d="M482 63l-12 -63h-421l143 712h72l-130 -649h348zM751 493l-116 -585q-26 -128 -145 -128h-51l12 60h34q66 0 80 75l116 578h70zM797 706l-15 -73h-79l14 73h80z" />
    <glyph glyph-name="uni01C9" unicode="&#x1c9;" horiz-adv-x="489" 
d="M247 712l-116 -578q-4 -19 -4 -33q0 -41 54 -41h41l-12 -60h-52q-40 0 -70.5 22t-30.5 72q0 23 4 40l116 578h70zM453 493l-116 -585q-26 -128 -145 -128h-51l12 60h34q66 0 80 75l116 578h70zM499 706l-15 -73h-79l14 73h80z" />
    <glyph glyph-name="uni01CA" unicode="&#x1ca;" horiz-adv-x="1171" 
d="M692 712l-143 -712h-67l-245 577l-116 -577h-72l143 712h67l245 -577l115 577h73zM1177 712l-100 -499q-21 -107 -85 -163t-158 -56q-98 0 -151 66l53 45q40 -48 104 -48q62 0 106.5 43t60.5 125l97 487h73z" />
    <glyph glyph-name="uni01CB" unicode="&#x1cb;" horiz-adv-x="936" 
d="M692 712l-143 -712h-67l-245 577l-116 -577h-72l143 712h67l245 -577l115 577h73zM900 493l-116 -585q-26 -128 -145 -128h-51l12 60h34q66 0 80 75l116 578h70zM946 706l-15 -73h-79l14 73h80z" />
    <glyph glyph-name="uni01CC" unicode="&#x1cc;" horiz-adv-x="776" 
d="M474 360q0 -19 -6 -49l-62 -311h-70l61 304q5 27 5 46q0 43 -24.5 65.5t-65.5 22.5q-16 0 -34 -5t-41.5 -18t-42.5 -42t-27 -71l-60 -302h-70l98 493h68l-10 -55q53 61 145 61q58 0 97 -37t39 -102zM740 493l-116 -585q-26 -128 -145 -128h-51l12 60h34q66 0 80 75
l116 578h70zM786 706l-15 -73h-79l14 73h80z" />
    <glyph glyph-name="uni01F1" unicode="&#x1f1;" horiz-adv-x="1171" 
d="M613 518q0 -44 -21 -154q-25 -130 -50 -193.5t-72 -105.5q-73 -65 -185 -65h-236l143 712h222q84 0 141.5 -45.5t57.5 -148.5zM541 515q0 63 -35 98.5t-106 35.5h-148l-118 -586h147q87 0 143 51q32 29 53.5 85.5t41.5 164.5q22 114 22 151zM1204 712l-12 -60l-452 -588
h341l-13 -64h-423l14 67l447 581h-324l12 64h410z" />
    <glyph glyph-name="uni01F2" unicode="&#x1f2;" horiz-adv-x="1079" 
d="M613 518q0 -44 -21 -154q-25 -130 -50 -193.5t-72 -105.5q-73 -65 -185 -65h-236l143 712h222q84 0 141.5 -45.5t57.5 -148.5zM541 515q0 63 -35 98.5t-106 35.5h-148l-118 -586h147q87 0 143 51q32 29 53.5 85.5t41.5 164.5q22 114 22 151zM1078 493l-12 -59l-330 -372
h262l-12 -62h-347l12 59l329 372h-247l12 62h333z" />
    <glyph glyph-name="uni01F3" unicode="&#x1f3;" horiz-adv-x="959" 
d="M526 712l-142 -712h-69l12 59q-54 -65 -137 -65q-141 0 -141 155q0 45 11 98q28 143 85 200q52 52 132 52q88 0 122 -68l57 281h70zM374 336q0 101 -89 101q-69 0 -103 -50.5t-51 -139.5q-11 -55 -11 -89q0 -102 88 -102q69 0 103.5 51t51.5 140q11 55 11 89zM958 493
l-12 -59l-330 -372h262l-12 -62h-347l12 59l329 372h-247l12 62h333z" />
    <glyph glyph-name="Aringacute" unicode="&#x1fa;" horiz-adv-x="581" 
d="M521 0h-74l-22 162h-296l-87 -162h-78l389 712h61zM418 223l-53 384l-204 -384h257zM510 862q0 -49 -34.5 -83.5t-82.5 -34.5q-49 0 -83.5 34.5t-34.5 83.5t34.5 83.5t83.5 34.5q48 0 82.5 -34.5t34.5 -83.5zM463 862q0 28 -21 49t-49 21q-29 0 -50 -21t-21 -49t21.5 -49
t49.5 -21t49 21t21 49zM577 1141l-128 -151h-69l117 151h80z" />
    <glyph glyph-name="aringacute" unicode="&#x1fb;" horiz-adv-x="501" 
d="M443 371q0 -11 -5 -39l-66 -332h-69l11 49q-55 -55 -141 -55q-65 0 -106.5 29t-41.5 91q0 72 44 115q53 52 145 52h144l11 52q4 18 4 33q0 35 -26 54t-73 19q-80 0 -133 -59l-41 48q65 71 178 71q30 0 56 -5.5t52 -18.5t41.5 -39.5t15.5 -64.5zM348 229h-127
q-58 0 -92.5 -29t-34.5 -82q0 -65 98 -65q66 0 105 39q31 29 40 80zM441 686q0 -49 -34 -83.5t-83 -34.5t-83 34.5t-34 83.5t34 83t83 34t83 -34t34 -83zM395 686q0 28 -21 48.5t-50 20.5t-50 -20.5t-21 -48.5t21.5 -49.5t49.5 -21.5t49.5 21.5t21.5 49.5zM500 964
l-128 -151h-70l118 151h80z" />
    <glyph glyph-name="AEacute" unicode="&#x1fc;" horiz-adv-x="881" 
d="M920 712l-13 -63h-346l-52 -260h296l-13 -64h-296l-52 -262h351l-13 -63h-423l34 173h-232l-120 -173h-82l499 712h462zM489 649l-287 -415h204zM702 926l-128 -151h-69l117 151h80z" />
    <glyph glyph-name="aeacute" unicode="&#x1fd;" horiz-adv-x="799" 
d="M746 330q0 -36 -12 -101h-318q-6 -40 -6 -62q0 -51 27 -82t80 -31q74 0 138 58l42 -46q-78 -72 -186 -72q-51 0 -90.5 22.5t-58.5 63.5q-56 -86 -179 -86q-158 0 -158 120q0 70 44 114q51 52 144 52h146l10 52q4 20 4 34q0 36 -26 54.5t-73 18.5q-81 0 -134 -59l-40 47
q65 72 178 72q114 0 149 -78q61 78 159 78q76 0 118 -47.5t42 -121.5zM348 229h-128q-58 0 -92 -29t-34 -83q0 -65 97 -65q65 0 106 39q31 31 40 80zM679 330q0 55 -27 82.5t-68 27.5q-116 0 -158 -160h248q5 27 5 50zM614 740l-128 -151h-70l118 151h80z" />
    <glyph glyph-name="Oslashacute" unicode="&#x1fe;" horiz-adv-x="618" 
d="M589 526q0 -51 -24 -170q-26 -130 -45.5 -186t-59.5 -97q-76 -79 -193 -79q-69 0 -118 32l-46 -70h-63l70 105q-41 50 -41 125q0 56 23 170q26 128 46 185t60 98q74 79 193 79q68 0 118 -33l46 71h63l-69 -108q40 -50 40 -122zM142 191q0 -36 12 -62l318 496
q-36 30 -85 30q-81 0 -138 -60q-27 -29 -44.5 -78.5t-39.5 -160.5q-23 -119 -23 -165zM516 521q0 30 -12 61l-318 -496q37 -29 85 -29q80 0 137 60q27 29 44.5 78t39.5 161q24 117 24 165zM552 926l-128 -151h-69l117 151h80z" />
    <glyph glyph-name="oslashacute" unicode="&#x1ff;" horiz-adv-x="503" 
d="M452 337q0 -39 -10 -91q-29 -141 -93 -198q-60 -54 -140 -54q-60 0 -100 29l-50 -67h-55l74 99q-28 39 -28 101q0 43 9 90q28 141 93 199q60 54 141 54q56 0 97 -28l50 66h56l-73 -98q29 -40 29 -102zM383 332q0 26 -8 48l-226 -302q24 -23 66 -23q52 0 91 39
q46 46 67 152q10 50 10 86zM119 161q0 -27 6 -45l226 300q-26 22 -64 22q-52 0 -91 -39q-46 -46 -67 -153q-10 -50 -10 -85zM468 740l-128 -151h-70l118 151h80z" />
    <glyph glyph-name="Scommaaccent" unicode="&#x218;" horiz-adv-x="559" 
d="M552 636l-52 -44q-28 32 -60 48t-83 16q-79 0 -127.5 -48t-48.5 -112q0 -74 102 -98l67 -15q81 -19 117.5 -59t36.5 -114q0 -101 -76.5 -158.5t-191.5 -57.5q-74 0 -125 23t-95 75l55 48q65 -82 172 -82q79 0 133.5 42t54.5 107q0 51 -26 75t-75 35l-67 16
q-154 36 -154 160q0 39 15 77.5t44 72t80 54.5t116 21q119 0 188 -82zM268 -65l-84 -147h-76l94 147h66z" />
    <glyph glyph-name="scommaaccent" unicode="&#x219;" horiz-adv-x="470" 
d="M434 444l-50 -43q-46 40 -115 40q-58 0 -90.5 -30t-32.5 -70q0 -45 73 -56l66 -9q65 -10 92.5 -38t27.5 -83q0 -61 -49 -107q-55 -54 -169 -54q-117 0 -182 71l52 45q48 -56 136 -56q67 0 104.5 30.5t37.5 68.5q0 31 -17 44t-52 18l-67 10q-123 18 -123 107q0 66 46 112
q55 55 156 55q97 0 156 -55zM218 -65l-84 -147h-76l94 147h66z" />
    <glyph glyph-name="uni021A" unicode="&#x21a;" horiz-adv-x="521" 
d="M585 712l-13 -64h-195l-130 -648h-72l130 648h-196l13 64h463zM231 -65l-84 -147h-76l94 147h66z" />
    <glyph glyph-name="uni021B" unicode="&#x21b;" horiz-adv-x="318" 
d="M315 493l-11 -53h-96l-62 -306q-4 -19 -4 -32q0 -42 55 -42h40l-13 -60h-50q-40 0 -71 22t-31 72q0 16 4 40l61 306h-61l10 53h62l30 150h70l-30 -150h97zM157 -65l-84 -147h-76l94 147h66z" />
    <glyph glyph-name="uni0237" unicode="&#x237;" horiz-adv-x="241" 
d="M205 493l-116 -585q-26 -128 -145 -128h-51l12 60h34q66 0 80 75l116 578h70z" />
    <glyph glyph-name="uni0259" unicode="&#x259;" horiz-adv-x="506" 
d="M53 163q0 36 12 101h318q6 40 6 62q0 51 -27 82t-80 31q-74 0 -138 -58l-42 46q78 72 186 72q75 0 121.5 -43.5t46.5 -126.5q0 -59 -14 -115.5t-41.5 -107t-76 -81.5t-111.5 -31q-76 0 -118 47.5t-42 121.5zM121 163q0 -55 27 -82.5t68 -27.5q115 0 157 160h-248
q-4 -21 -4 -50z" />
    <glyph glyph-name="uni02BB" unicode="&#x2bb;" horiz-adv-x="250" 
d="M277 792l-33 -165h-84l17 85z" />
    <glyph glyph-name="afii57929" unicode="&#x2bc;" horiz-adv-x="250" 
d="M261 712l-17 -85l-100 -80l33 165h84z" />
    <glyph glyph-name="circumflex" unicode="&#x2c6;" horiz-adv-x="501" 
d="M469 588h-62l-65 107l-108 -107h-69l150 153h64z" />
    <glyph glyph-name="caron" unicode="&#x2c7;" horiz-adv-x="501" 
d="M494 741l-150 -153h-64l-90 153h62l65 -107l108 107h69z" />
    <glyph glyph-name="breve" unicode="&#x2d8;" horiz-adv-x="502" 
d="M480 706q-28 -125 -155 -125q-58 0 -91 26.5t-33 75.5q0 12 1 23h55q-1 -9 -1 -18q0 -25 20 -39t55 -14q76 0 94 71h55z" />
    <glyph glyph-name="dotaccent" unicode="&#x2d9;" horiz-adv-x="501" 
d="M375 679l-15 -74h-72l15 74h72z" />
    <glyph glyph-name="ring" unicode="&#x2da;" horiz-adv-x="501" 
d="M448 686q0 -49 -34 -83.5t-83 -34.5t-83 34.5t-34 83.5t34 83t83 34t83 -34t34 -83zM402 686q0 28 -21 48.5t-50 20.5t-50 -20.5t-21 -48.5t21 -49.5t50 -21.5t50 21.5t21 49.5z" />
    <glyph glyph-name="ogonek" unicode="&#x2db;" horiz-adv-x="502" 
d="M239 -65l-84 -147h-75l94 147h65z" />
    <glyph glyph-name="tilde" unicode="&#x2dc;" horiz-adv-x="501" 
d="M482 649q-51 -48 -96 -48q-36 0 -69 24q-27 20 -52 20t-62 -34l-29 37q51 48 96 48q34 0 69 -24q26 -20 51 -20t62 34z" />
    <glyph glyph-name="hungarumlaut" unicode="&#x2dd;" horiz-adv-x="502" 
d="M556 739l-129 -151h-69l117 151h81zM400 739l-129 -151h-69l117 151h81z" />
    <glyph glyph-name="uni0394" unicode="&#x394;" horiz-adv-x="572" 
d="M516 0h-557l391 712h60zM439 62l-76 546l-296 -546h372z" />
    <glyph glyph-name="uni03A9" unicode="&#x3a9;" horiz-adv-x="617" 
d="M590 526q0 -34 -25 -170q-23 -120 -40.5 -170t-54.5 -90q-20 -21 -37 -32h81l-12 -64h-189l12 60q45 15 85 56q27 28 44 77t38 161q24 129 24 168q0 63 -37.5 97.5t-87.5 34.5q-83 0 -142 -60q-28 -28 -45 -77t-39 -163q-24 -128 -24 -168q0 -46 21.5 -79.5t59.5 -46.5
l-12 -60h-181l13 64h80q-52 47 -52 130q0 38 23 162q24 128 44 184.5t62 98.5q79 79 193 79q86 0 142 -53.5t56 -138.5z" />
    <glyph glyph-name="uni03BC" unicode="&#x3bc;" horiz-adv-x="536" 
d="M499 493l-98 -493h-69l10 55q-53 -61 -145 -61q-58 0 -90 40l-50 -253h-70l142 712h70l-61 -304q-5 -27 -5 -46q0 -43 25 -65t65 -22q16 0 34 5t41.5 17.5t42.5 41.5t27 71l60 302h71z" />
    <glyph glyph-name="pi" unicode="&#x3c0;" horiz-adv-x="566" 
d="M505 493l-99 -493h-70l88 436h-229l-88 -436h-70l99 493h369z" />
    <glyph glyph-name="uni0400" unicode="&#x400;" horiz-adv-x="572" 
d="M432 775h-63l-71 151h77zM611 712l-13 -63h-346l-52 -258h297l-12 -63h-297l-54 -265h353l-12 -63h-426l143 712h419z" />
    <glyph glyph-name="afii10023" unicode="&#x401;" horiz-adv-x="572" 
d="M611 712l-13 -63h-346l-52 -258h297l-12 -63h-297l-54 -265h353l-12 -63h-426l143 712h419zM554 870l-17 -87h-68l17 87h68zM354 870l-17 -87h-68l17 87h68z" />
    <glyph glyph-name="afii10051" unicode="&#x402;" horiz-adv-x="673" 
d="M621 252q0 -108 -68.5 -180t-184.5 -72h-41l13 64h30q78 0 128 52t50 133q0 118 -127 118h-130l-74 -367h-72l130 648h-166l13 64h462l-12 -64h-225l-43 -217h128q96 0 142.5 -48.5t46.5 -130.5z" />
    <glyph glyph-name="afii10052" unicode="&#x403;" horiz-adv-x="527" 
d="M529 926l-128 -151h-69l117 151h80zM601 712l-12 -63h-337l-131 -649h-72l143 712h409z" />
    <glyph glyph-name="afii10053" unicode="&#x404;" horiz-adv-x="607" 
d="M592 509h-73q-1 67 -36 106.5t-98 39.5q-78 0 -135 -60q-27 -28 -43 -70.5t-35 -133.5h254l-12 -62h-254q-18 -95 -18 -141q0 -60 39.5 -95.5t96.5 -35.5q70 0 118 42t70 104h74q-31 -98 -102 -153.5t-165 -55.5q-87 0 -145.5 51.5t-58.5 140.5q0 56 23 170
q28 135 47 188t60 96q75 78 188 78q99 0 151.5 -57.5t53.5 -151.5z" />
    <glyph glyph-name="afii10054" unicode="&#x405;" horiz-adv-x="559" 
d="M552 636l-52 -44q-28 32 -60 48t-83 16q-79 0 -127.5 -48t-48.5 -112q0 -74 102 -98l67 -15q81 -19 117.5 -59t36.5 -114q0 -101 -76.5 -158.5t-191.5 -57.5q-74 0 -125 23t-95 75l55 48q65 -82 172 -82q79 0 133.5 42t54.5 107q0 51 -26 75t-75 35l-67 16
q-154 36 -154 160q0 39 15 77.5t44 72t80 54.5t116 21q119 0 188 -82z" />
    <glyph glyph-name="afii10055" unicode="&#x406;" horiz-adv-x="269" 
d="M264 712l-143 -712h-72l143 712h72z" />
    <glyph glyph-name="afii10056" unicode="&#x407;" horiz-adv-x="269" 
d="M264 712l-143 -712h-72l143 712h72zM385 870l-17 -87h-68l17 87h68zM185 870l-17 -87h-68l17 87h68z" />
    <glyph glyph-name="afii10057" unicode="&#x408;" horiz-adv-x="476" 
d="M482 712l-100 -499q-21 -107 -85 -163t-158 -56q-98 0 -151 66l53 45q40 -48 104 -48q62 0 106.5 43t60.5 125l97 487h73z" />
    <glyph glyph-name="afii10058" unicode="&#x409;" horiz-adv-x="979" 
d="M935 243q0 -105 -68 -174t-184 -69h-253l130 648h-235l-49 -244q-31 -156 -71.5 -245.5t-90 -124t-121.5 -34.5h-36l12 63h19q49 0 84.5 26.5t71.5 107.5t64 224l59 291h378l-59 -298h168q92 0 136.5 -49t44.5 -122zM862 239q0 48 -28.5 80t-89.5 32h-172l-57 -287h171
q78 0 127 49t49 126z" />
    <glyph glyph-name="afii10059" unicode="&#x40a;" horiz-adv-x="990" 
d="M947 243q0 -105 -68 -174t-184 -69h-254l71 351h-320l-71 -351h-72l143 712h72l-59 -298h320l59 298h73l-59 -298h167q93 0 137.5 -49t44.5 -122zM874 239q0 48 -28.5 80t-89.5 32h-172l-57 -287h171q78 0 127 49t49 126z" />
    <glyph glyph-name="afii10060" unicode="&#x40b;" horiz-adv-x="693" 
d="M620 262q0 -31 -6 -58l-42 -204h-73l44 213q5 22 5 43q0 48 -28.5 79.5t-90.5 31.5h-138l-74 -367h-72l130 648h-166l13 64h462l-12 -64h-225l-43 -217h132q92 0 138 -46.5t46 -122.5z" />
    <glyph glyph-name="afii10061" unicode="&#x40c;" horiz-adv-x="563" 
d="M196 371l336 341h95l-347 -342l230 -370h-94zM264 712l-143 -712h-72l143 712h72zM547 926l-128 -151h-69l117 151h80z" />
    <glyph glyph-name="uni040D" unicode="&#x40d;" horiz-adv-x="696" 
d="M692 712l-143 -712h-72l115 570l-476 -570h-67l143 712h72l-114 -571l475 571h67zM488 775h-63l-71 151h77z" />
    <glyph glyph-name="afii10062" unicode="&#x40e;" horiz-adv-x="555" 
d="M644 712l-385 -599q-39 -61 -76 -87t-92 -26h-56l13 63h39q36 0 60.5 17t51.5 58l43 67l-142 507h75l117 -435l271 435h81zM534 882q-28 -125 -157 -125q-59 0 -92 27t-33 75q0 12 1 23h60q-1 -10 -1 -19q0 -27 18 -42.5t51 -15.5q74 0 93 77h60z" />
    <glyph glyph-name="afii10145" unicode="&#x40f;" horiz-adv-x="645" 
d="M641 712l-143 -712h-189l-31 -165h-72l31 165h-188l143 712h72l-130 -648h304l130 648h73z" />
    <glyph glyph-name="afii10017" unicode="&#x410;" horiz-adv-x="581" 
d="M521 0h-74l-22 162h-296l-87 -162h-78l389 712h61zM418 223l-53 384l-204 -384h257z" />
    <glyph glyph-name="afii10018" unicode="&#x411;" horiz-adv-x="616" 
d="M598 712l-12 -63h-334l-47 -235h169q92 0 136.5 -49t44.5 -122q0 -105 -68 -174t-184 -69h-254l143 712h406zM482 239q0 49 -28.5 80.5t-89.5 31.5h-173l-57 -287h172q78 0 127 49t49 126z" />
    <glyph glyph-name="afii10019" unicode="&#x412;" horiz-adv-x="636" 
d="M610 552q0 -56 -31 -109t-102 -80q83 -39 83 -135q0 -101 -65 -164.5t-165 -63.5h-281l143 712h239q54 0 92 -16t55.5 -42t24.5 -50.5t7 -51.5zM487 226q0 50 -30 77.5t-83 27.5h-186l-54 -267h194q70 0 114.5 45.5t44.5 116.5zM536 547q0 101 -114 101h-170l-51 -252
h178q72 0 114.5 44t42.5 107z" />
    <glyph glyph-name="afii10020" unicode="&#x413;" horiz-adv-x="527" 
d="M601 712l-12 -63h-337l-131 -649h-72l143 712h409z" />
    <glyph glyph-name="afii10021" unicode="&#x414;" horiz-adv-x="655" 
d="M640 712l-130 -648h81l-46 -229h-72l33 165h-463l-33 -165h-72l46 229h64q64 83 104 183.5t69 245.5l44 219h375zM555 649h-234l-43 -216q-46 -227 -152 -369h312z" />
    <glyph glyph-name="afii10022" unicode="&#x415;" horiz-adv-x="572" 
d="M611 712l-13 -63h-346l-52 -258h297l-12 -63h-297l-54 -265h353l-12 -63h-426l143 712h419z" />
    <glyph glyph-name="afii10024" unicode="&#x416;" horiz-adv-x="853" 
d="M416 371l-362 -371h-102l381 376l-207 336h89zM489 370l330 342h96l-342 -342l224 -370h-94zM557 712l-143 -712h-72l143 712h72z" />
    <glyph glyph-name="afii10025" unicode="&#x417;" horiz-adv-x="579" 
d="M553 546q0 -56 -31.5 -105.5t-104.5 -77.5q88 -41 88 -136q0 -104 -67 -168.5t-179 -64.5q-108 0 -162.5 57t-55.5 152h73q0 -68 38 -107t107 -39q80 0 126 46.5t46 122.5q0 52 -32 79.5t-87 27.5h-86l12 62h80q74 0 118 41.5t44 105.5q0 45 -29.5 79t-96.5 34
q-72 0 -119.5 -42t-66.5 -104h-74q31 100 99 154.5t167 54.5q98 0 145.5 -49t47.5 -123z" />
    <glyph glyph-name="afii10026" unicode="&#x418;" horiz-adv-x="696" 
d="M692 712l-143 -712h-72l115 570l-476 -570h-67l143 712h72l-114 -571l475 571h67z" />
    <glyph glyph-name="afii10027" unicode="&#x419;" horiz-adv-x="696" 
d="M692 712l-143 -712h-72l115 570l-476 -570h-67l143 712h72l-114 -571l475 571h67zM611 882q-28 -125 -157 -125q-59 0 -92 27t-33 75q0 12 1 23h60q-1 -10 -1 -19q0 -27 18 -42.5t51 -15.5q74 0 93 77h60z" />
    <glyph glyph-name="afii10028" unicode="&#x41a;" horiz-adv-x="563" 
d="M196 371l336 341h95l-347 -342l230 -370h-94zM264 712l-143 -712h-72l143 712h72z" />
    <glyph glyph-name="afii10029" unicode="&#x41b;" horiz-adv-x="649" 
d="M645 712l-143 -712h-72l130 648h-235l-49 -244q-31 -156 -71.5 -245.5t-90 -124t-121.5 -34.5h-36l12 63h19q49 0 84.5 26.5t71.5 107.5t64 224l59 291h378z" />
    <glyph glyph-name="afii10030" unicode="&#x41c;" horiz-adv-x="775" 
d="M772 712l-143 -712h-72l110 542l-269 -414h-62l-104 420l-111 -548h-72l143 712h70l119 -495l320 495h71z" />
    <glyph glyph-name="afii10031" unicode="&#x41d;" horiz-adv-x="660" 
d="M657 712l-143 -712h-72l66 328h-320l-67 -328h-72l143 712h72l-63 -321h320l64 321h72z" />
    <glyph glyph-name="afii10032" unicode="&#x41e;" horiz-adv-x="617" 
d="M589 526q0 -51 -24 -170q-26 -130 -45.5 -186t-59.5 -97q-76 -79 -193 -79q-87 0 -142.5 52.5t-55.5 139.5q0 56 23 170q26 128 46 185t60 98q74 79 193 79q87 0 142.5 -52.5t55.5 -139.5zM516 521q0 63 -37.5 98.5t-91.5 35.5q-81 0 -138 -60q-27 -29 -44.5 -78.5
t-39.5 -160.5q-23 -119 -23 -165q0 -63 37.5 -98.5t91.5 -35.5q80 0 137 60q27 29 44.5 78t39.5 161q24 117 24 165z" />
    <glyph glyph-name="afii10033" unicode="&#x41f;" horiz-adv-x="645" 
d="M641 712l-143 -712h-72l130 648h-305l-130 -648h-72l143 712h449z" />
    <glyph glyph-name="afii10034" unicode="&#x420;" horiz-adv-x="598" 
d="M615 540q0 -104 -68 -173t-184 -69h-182l-60 -298h-72l143 712h242q92 0 136.5 -49.5t44.5 -122.5zM542 537q0 48 -28.5 79.5t-89.5 31.5h-173l-57 -287h172q78 0 127 49.5t49 126.5z" />
    <glyph glyph-name="afii10035" unicode="&#x421;" horiz-adv-x="607" 
d="M592 509h-73q-1 67 -36 106.5t-98 39.5q-78 0 -135 -60q-29 -30 -45.5 -78t-39.5 -161q-23 -119 -23 -168q0 -60 39.5 -95.5t96.5 -35.5q70 0 118 42t70 104h74q-31 -98 -102 -153.5t-165 -55.5q-87 0 -145.5 51.5t-58.5 140.5q0 56 23 170q28 135 47 188t60 96
q75 78 188 78q99 0 151.5 -57.5t53.5 -151.5z" />
    <glyph glyph-name="afii10036" unicode="&#x422;" horiz-adv-x="521" 
d="M585 712l-13 -64h-195l-130 -648h-72l130 648h-196l13 64h463z" />
    <glyph glyph-name="afii10037" unicode="&#x423;" horiz-adv-x="555" 
d="M644 712l-385 -599q-39 -61 -76 -87t-92 -26h-56l13 63h39q36 0 60.5 17t51.5 58l43 67l-142 507h75l117 -435l271 435h81z" />
    <glyph glyph-name="afii10038" unicode="&#x424;" horiz-adv-x="759" 
d="M735 465q0 -49 -9 -93q-18 -93 -42 -138.5t-71 -82.5q-78 -62 -229 -62l-18 -93h-73l18 93q-108 2 -171 54.5t-63 150.5q0 50 9 94q18 93 42 138.5t71 81.5q77 63 229 63l13 66h73l-13 -66q108 -2 171 -55t63 -151zM662 458q0 70 -46 109.5t-129 39.5l-92 -454
q110 0 169 44q34 25 54 62.5t35 113.5q9 41 9 85zM417 607q-110 0 -169 -44q-34 -25 -54 -62.5t-35 -113.5q-9 -41 -9 -85q0 -70 46 -109.5t129 -39.5z" />
    <glyph glyph-name="afii10039" unicode="&#x425;" horiz-adv-x="526" 
d="M587 712l-262 -351l141 -361h-81l-112 302l-223 -302h-85l279 371l-130 341h81l101 -284l205 284h86z" />
    <glyph glyph-name="afii10040" unicode="&#x426;" horiz-adv-x="656" 
d="M641 712l-131 -648h81l-46 -229h-71l32 165h-457l143 712h72l-130 -648h304l130 648h73z" />
    <glyph glyph-name="afii10041" unicode="&#x427;" horiz-adv-x="618" 
d="M615 712l-143 -712h-73l58 290q-95 -26 -177 -26q-78 0 -123.5 37t-45.5 106q0 24 5 51l50 254h73l-49 -243q-5 -23 -5 -46q0 -95 114 -95q82 0 171 24l72 360h73z" />
    <glyph glyph-name="afii10042" unicode="&#x428;" horiz-adv-x="921" 
d="M916 712l-143 -712h-724l143 712h72l-130 -648h254l130 648h72l-130 -648h254l130 648h72z" />
    <glyph glyph-name="afii10043" unicode="&#x429;" horiz-adv-x="932" 
d="M916 712l-130 -648h81l-46 -229h-71l32 165h-733l143 712h72l-130 -648h254l130 648h72l-130 -648h254l130 648h72z" />
    <glyph glyph-name="afii10044" unicode="&#x42a;" horiz-adv-x="694" 
d="M650 243q0 -105 -68 -174t-184 -69h-253l130 648h-166l13 64h238l-59 -298h168q92 0 136.5 -49t44.5 -122zM577 239q0 48 -28.5 80t-89.5 32h-172l-57 -287h171q78 0 127 49t49 126z" />
    <glyph glyph-name="afii10045" unicode="&#x42b;" horiz-adv-x="824" 
d="M554 243q0 -105 -68 -174t-184 -69h-253l143 712h72l-59 -298h168q92 0 136.5 -49t44.5 -122zM481 239q0 48 -28.5 80t-89.5 32h-172l-57 -287h171q78 0 127 49t49 126zM821 712l-143 -712h-72l143 712h72z" />
    <glyph glyph-name="afii10046" unicode="&#x42c;" horiz-adv-x="598" 
d="M554 243q0 -105 -68 -174t-184 -69h-253l143 712h72l-59 -298h168q92 0 136.5 -49t44.5 -122zM481 239q0 48 -28.5 80t-89.5 32h-172l-57 -287h171q78 0 127 49t49 126z" />
    <glyph glyph-name="afii10047" unicode="&#x42d;" horiz-adv-x="607" 
d="M580 526q0 -51 -24 -170q-27 -132 -46 -186.5t-60 -97.5q-75 -78 -190 -78q-97 0 -149.5 54.5t-54.5 154.5h74q1 -67 35.5 -106.5t97.5 -39.5q79 0 136 60q27 29 43 72.5t35 139.5h-254l13 62h253q18 89 18 133q0 59 -40 95t-96 36q-68 0 -116 -42t-68 -104h-74
q28 95 97.5 152t164.5 57q88 0 146.5 -51.5t58.5 -140.5z" />
    <glyph glyph-name="afii10048" unicode="&#x42e;" horiz-adv-x="859" 
d="M831 526q0 -51 -24 -170q-26 -130 -45.5 -186t-59.5 -97q-76 -79 -193 -79q-87 0 -142.5 52.5t-55.5 139.5q0 52 17 142h-142l-65 -328h-72l143 712h72l-65 -321h142q22 106 42 157.5t57 90.5q74 79 193 79q87 0 142.5 -52.5t55.5 -139.5zM758 521q0 63 -37.5 98.5
t-91.5 35.5q-81 0 -138 -60q-27 -29 -44.5 -78.5t-39.5 -160.5q-23 -119 -23 -165q0 -63 37.5 -98.5t91.5 -35.5q80 0 137 60q27 29 44.5 78t39.5 161q24 117 24 165z" />
    <glyph glyph-name="afii10049" unicode="&#x42f;" horiz-adv-x="625" 
d="M621 712l-143 -712h-73l64 319h-165l-225 -319h-85l236 331q-108 28 -108 151q0 40 14 79t42 74t77.5 56t113.5 21h252zM536 648h-177q-79 0 -121.5 -50t-42.5 -112q0 -48 28 -76t84 -28h175z" />
    <glyph glyph-name="afii10065" unicode="&#x430;" horiz-adv-x="501" 
d="M443 371q0 -11 -5 -39l-66 -332h-69l11 49q-55 -55 -141 -55q-65 0 -106.5 29t-41.5 91q0 72 44 115q53 52 145 52h144l11 52q4 18 4 33q0 35 -26 54t-73 19q-80 0 -133 -59l-41 48q65 71 178 71q30 0 56 -5.5t52 -18.5t41.5 -39.5t15.5 -64.5zM348 229h-127
q-58 0 -92.5 -29t-34.5 -82q0 -65 98 -65q66 0 105 39q31 29 40 80z" />
    <glyph glyph-name="afii10066" unicode="&#x431;" horiz-adv-x="498" 
d="M500 715l-13 -62q-172 -4 -233 -49q-35 -26 -55 -67t-37 -112q49 68 139 68q24 0 47.5 -7t47.5 -23t38.5 -49.5t14.5 -80.5q0 -36 -9 -88q-27 -139 -93 -199q-59 -52 -139 -52q-25 0 -49.5 7t-50.5 23.5t-42 50.5t-16 82q0 50 23 161q31 156 59.5 225t72.5 104
q43 34 110.5 50t184.5 18zM380 331q0 52 -27 77t-67 25q-52 0 -91 -39q-45 -45 -66 -149q-9 -48 -9 -87q0 -52 27 -77t66 -25q52 0 91 39q45 43 66 150q10 52 10 86z" />
    <glyph glyph-name="afii10067" unicode="&#x432;" horiz-adv-x="514" 
d="M468 376q0 -91 -92 -126q58 -28 58 -97q0 -73 -50.5 -113t-135.5 -40h-211l99 493h188q67 0 105.5 -28.5t38.5 -88.5zM363 149q0 75 -89 75h-123l-34 -167h127q119 0 119 92zM398 369q0 67 -88 67h-116l-32 -156h129q57 0 82 25.5t25 63.5z" />
    <glyph glyph-name="afii10068" unicode="&#x433;" horiz-adv-x="388" 
d="M426 493l-11 -61h-222l-86 -432h-70l99 493h290z" />
    <glyph glyph-name="afii10069" unicode="&#x434;" horiz-adv-x="537" 
d="M485 493l-87 -432h70l-39 -196h-67l27 135h-348l-28 -135h-67l39 196h55q41 52 69 120t53 193l24 119h299zM402 432h-161l-19 -98q-35 -178 -108 -273h214z" />
    <glyph glyph-name="afii10070" unicode="&#x435;" horiz-adv-x="506" 
d="M453 330q0 -36 -12 -101h-318q-6 -40 -6 -62q0 -51 26.5 -82t79.5 -31q75 0 139 58l42 -46q-78 -72 -186 -72q-75 0 -121.5 43.5t-46.5 126.5q0 58 14 115t41.5 107.5t76 81.5t111.5 31q76 0 118 -47.5t42 -121.5zM385 330q0 55 -27 82.5t-68 27.5q-116 0 -157 -160h248
q4 21 4 50z" />
    <glyph glyph-name="afii10072" unicode="&#x436;" horiz-adv-x="655" 
d="M291 253l-246 -253h-91l263 262l-148 231h78zM362 254l232 239h87l-243 -239l158 -254h-84zM409 493l-98 -493h-70l98 493h70z" />
    <glyph glyph-name="afii10073" unicode="&#x437;" horiz-adv-x="479" 
d="M432 373q0 -89 -96 -122q63 -30 63 -99q0 -75 -54.5 -116.5t-151.5 -41.5q-119 0 -182 77l49 44q50 -61 137 -61q66 0 98.5 26.5t32.5 68.5q0 76 -95 76h-63l10 54h71q58 0 85 24.5t27 62.5q0 33 -26 53.5t-76 20.5q-74 0 -140 -62l-38 44q85 77 185 77q80 0 122 -34.5
t42 -91.5z" />
    <glyph glyph-name="afii10074" unicode="&#x438;" horiz-adv-x="542" 
d="M506 493l-98 -493h-70l74 373l-305 -373h-70l98 493h70l-75 -373l306 373h70z" />
    <glyph glyph-name="afii10075" unicode="&#x439;" horiz-adv-x="542" 
d="M506 493l-98 -493h-70l74 373l-305 -373h-70l98 493h70l-75 -373l306 373h70zM493 701q-28 -125 -156 -125q-60 0 -93 27t-33 75q0 12 1 23h60q-1 -11 -1 -20q0 -26 18.5 -41.5t51.5 -15.5q74 0 92 77h60z" />
    <glyph glyph-name="afii10076" unicode="&#x43a;" horiz-adv-x="457" 
d="M487 493l-253 -239l166 -254h-82l-160 254l243 239h86zM205 493l-98 -493h-70l98 493h70z" />
    <glyph glyph-name="afii10077" unicode="&#x43b;" horiz-adv-x="514" 
d="M478 493l-98 -493h-70l86 432h-161l-35 -173q-30 -148 -79.5 -203.5t-121.5 -55.5h-31l12 59h15q19 0 34.5 6.5t36 26.5t38.5 67.5t33 119.5l43 214h298z" />
    <glyph glyph-name="afii10078" unicode="&#x43c;" horiz-adv-x="621" 
d="M585 493l-96 -493h-70l69 356l-181 -269h-53l-77 273l-70 -360h-70l95 493h69l93 -330l221 330h70z" />
    <glyph glyph-name="afii10079" unicode="&#x43d;" horiz-adv-x="535" 
d="M499 493l-98 -493h-70l44 222h-224l-45 -222h-70l99 493h70l-43 -210h225l42 210h70z" />
    <glyph glyph-name="afii10080" unicode="&#x43e;" horiz-adv-x="502" 
d="M452 337q0 -36 -10 -91q-27 -138 -93 -199q-59 -53 -140 -53q-66 0 -112.5 40t-46.5 122q0 35 10 90q26 140 93 199q60 54 140 54q66 0 112.5 -40t46.5 -122zM383 332q0 54 -27 80t-69 26q-53 0 -91 -38q-46 -46 -67 -154q-10 -50 -10 -85q0 -54 27 -80t68 -26
q54 0 92 38q46 45 67 153q10 51 10 86z" />
    <glyph glyph-name="afii10081" unicode="&#x43f;" horiz-adv-x="561" 
d="M500 493l-98 -493h-70l86 432h-224l-87 -432h-70l99 493h364z" />
    <glyph glyph-name="afii10082" unicode="&#x440;" horiz-adv-x="519" 
d="M470 345q0 -42 -11 -98q-29 -145 -85 -201q-52 -52 -132 -52q-88 0 -122 68l-57 -281h-70l142 712h69l-12 -58q53 64 137 64q75 0 108 -42.5t33 -111.5zM399 336q0 101 -88 101q-69 0 -103.5 -50.5t-51.5 -139.5q-11 -55 -11 -89q0 -102 89 -102q69 0 103 51t51 140
q11 55 11 89z" />
    <glyph glyph-name="afii10083" unicode="&#x441;" horiz-adv-x="466" 
d="M450 426l-52 -44q-37 55 -97 55q-62 0 -109 -48q-47 -50 -64 -142q-8 -42 -8 -74q0 -58 31 -87.5t76 -29.5q65 0 119 57l41 -50q-69 -69 -164 -69q-84 0 -128.5 49.5t-44.5 127.5q0 40 7 76q22 122 88.5 187t162.5 65q90 0 142 -73z" />
    <glyph glyph-name="afii10084" unicode="&#x442;" horiz-adv-x="404" 
d="M443 493l-11 -61h-158l-87 -432h-70l87 432h-158l12 61h385z" />
    <glyph glyph-name="afii10085" unicode="&#x443;" horiz-adv-x="424" 
d="M462 493l-328 -611q-22 -41 -42 -59q-36 -33 -102 -33h-31l13 62h21q34 0 51.5 13.5t37.5 51.5l49 94l-71 482h70l51 -397l204 397h77z" />
    <glyph glyph-name="afii10086" unicode="&#x444;" horiz-adv-x="647" 
d="M327 438q-78 -2 -125 -38q-58 -46 -79 -145q-6 -32 -6 -67q0 -124 134 -132zM600 310q0 -34 -7 -74q-15 -74 -40.5 -115.5t-67.5 -73.5q-68 -52 -178 -52l-42 -214h-70l42 215q-84 6 -137.5 54.5t-53.5 132.5q0 40 8 74q15 74 40 115.5t67 73.5q68 52 177 52l43 214h70
l-43 -215q85 -6 138.5 -54.5t53.5 -132.5zM530 305q0 124 -134 132l-76 -382q78 2 124 38q31 24 49.5 57t29.5 88q7 37 7 67z" />
    <glyph glyph-name="afii10087" unicode="&#x445;" horiz-adv-x="458" 
d="M467 493l-197 -244l114 -249h-82l-81 196l-152 -196h-86l206 256l-108 237h81l78 -185l141 185h86z" />
    <glyph glyph-name="afii10088" unicode="&#x446;" horiz-adv-x="552" 
d="M499 493l-87 -432h70l-39 -196h-67l27 135h-366l98 493h70l-86 -432h223l87 432h70z" />
    <glyph glyph-name="afii10089" unicode="&#x447;" horiz-adv-x="510" 
d="M474 493l-98 -493h-70l38 194q-68 -21 -136 -21q-58 0 -91.5 28.5t-33.5 82.5q0 17 5 44l32 165h70l-30 -155q-5 -28 -5 -40q0 -62 79 -62q59 0 122 18l48 239h70z" />
    <glyph glyph-name="afii10090" unicode="&#x448;" horiz-adv-x="765" 
d="M729 493l-98 -493h-594l98 493h70l-86 -432h192l86 432h70l-86 -432h192l86 432h70z" />
    <glyph glyph-name="afii10091" unicode="&#x449;" horiz-adv-x="782" 
d="M729 493l-86 -432h69l-39 -196h-67l27 135h-596l98 493h70l-86 -432h192l86 432h70l-86 -432h192l86 432h70z" />
    <glyph glyph-name="afii10092" unicode="&#x44a;" horiz-adv-x="516" 
d="M459 174q0 -78 -50 -126t-137 -48h-191l86 432h-121l13 61h190l-39 -195h115q67 0 100.5 -36t33.5 -88zM390 166q0 73 -83 73h-108l-37 -181h110q63 0 90.5 34.5t27.5 73.5z" />
    <glyph glyph-name="afii10093" unicode="&#x44b;" horiz-adv-x="660" 
d="M415 174q0 -77 -50 -125.5t-138 -48.5h-191l99 493h70l-40 -195h115q67 0 101 -36t34 -88zM345 166q0 73 -83 73h-108l-36 -181h109q63 0 90.5 34.5t27.5 73.5zM624 493l-98 -493h-70l98 493h70z" />
    <glyph glyph-name="afii10094" unicode="&#x44c;" horiz-adv-x="471" 
d="M415 174q0 -77 -50 -125.5t-138 -48.5h-191l99 493h70l-40 -195h115q67 0 101 -36t34 -88zM345 166q0 73 -83 73h-108l-36 -181h109q63 0 90.5 34.5t27.5 73.5z" />
    <glyph glyph-name="afii10095" unicode="&#x44d;" horiz-adv-x="466" 
d="M416 321q0 -37 -6 -76q-19 -120 -81 -185.5t-164 -65.5q-103 0 -154 70l49 48q40 -57 109 -57t111 47q43 48 58 126h-199l10 52h197q2 19 2 43q0 56 -31.5 85.5t-75.5 29.5q-63 0 -117 -57l-39 45q70 73 159 73q82 0 127 -51t45 -127z" />
    <glyph glyph-name="afii10096" unicode="&#x44e;" horiz-adv-x="693" 
d="M643 337q0 -41 -9 -91q-29 -140 -93 -198q-60 -54 -141 -54q-66 0 -112.5 40t-46.5 122q0 34 5 66h-95l-44 -222h-70l98 493h70l-43 -210h96q26 111 86 162q60 54 140 54q66 0 112.5 -40t46.5 -122zM574 332q0 54 -27 80t-69 26q-52 0 -91 -39q-45 -46 -67 -153
q-10 -50 -10 -85q0 -54 27 -80t69 -26q52 0 91 39q46 46 67 152q10 50 10 86z" />
    <glyph glyph-name="afii10097" unicode="&#x44f;" horiz-adv-x="491" 
d="M454 493l-98 -493h-70l39 194h-109l-132 -194h-79l145 205q-76 26 -76 113q0 78 50.5 126.5t138.5 48.5h191zM373 435h-109q-64 0 -92 -35t-28 -74q0 -74 84 -74h109z" />
    <glyph glyph-name="uni0450" unicode="&#x450;" horiz-adv-x="506" 
d="M453 330q0 -36 -12 -101h-318q-6 -40 -6 -62q0 -51 26.5 -82t79.5 -31q75 0 139 58l42 -46q-78 -72 -186 -72q-75 0 -121.5 43.5t-46.5 126.5q0 58 14 115t41.5 107.5t76 81.5t111.5 31q76 0 118 -47.5t42 -121.5zM385 330q0 55 -27 82.5t-68 27.5q-116 0 -157 -160h248
q4 21 4 50zM351 589h-63l-72 151h77z" />
    <glyph glyph-name="afii10071" unicode="&#x451;" horiz-adv-x="506" 
d="M453 330q0 -36 -12 -101h-318q-6 -40 -6 -62q0 -51 26.5 -82t79.5 -31q75 0 139 58l42 -46q-78 -72 -186 -72q-75 0 -121.5 43.5t-46.5 126.5q0 58 14 115t41.5 107.5t76 81.5t111.5 31q76 0 118 -47.5t42 -121.5zM385 330q0 55 -27 82.5t-68 27.5q-116 0 -157 -160h248
q4 21 4 50zM475 683l-17 -87h-68l17 87h68zM275 683l-17 -87h-68l17 87h68z" />
    <glyph glyph-name="afii10099" unicode="&#x452;" horiz-adv-x="534" 
d="M473 358q0 -24 -5 -49l-69 -343q-29 -146 -164 -146h-50l12 60h32q83 0 102 93l66 329q5 23 5 46q0 43 -24.5 65.5t-64.5 22.5q-17 0 -35 -5t-41.5 -18t-43 -42t-27.5 -71l-59 -300h-70l112 565h-60l11 49h59l20 98h70l-20 -98h218l-10 -49h-218l-25 -127q53 59 141 59
q60 0 99 -37t39 -102z" />
    <glyph glyph-name="afii10100" unicode="&#x453;" horiz-adv-x="388" 
d="M433 740l-128 -151h-70l118 151h80zM426 493l-11 -61h-222l-86 -432h-70l99 493h290z" />
    <glyph glyph-name="afii10101" unicode="&#x454;" horiz-adv-x="466" 
d="M450 425l-52 -43q-37 56 -98 56q-63 0 -109 -49q-40 -43 -57 -109h199l-10 -52h-200q-5 -35 -5 -57q0 -58 31 -87t77 -29q66 0 121 58l40 -50q-69 -69 -164 -69q-84 0 -128.5 50t-44.5 127q0 40 7 75q22 122 88.5 187.5t162.5 65.5q89 0 142 -74z" />
    <glyph glyph-name="afii10102" unicode="&#x455;" horiz-adv-x="470" 
d="M434 444l-50 -43q-46 40 -115 40q-58 0 -90.5 -30t-32.5 -70q0 -45 73 -56l66 -9q65 -10 92.5 -38t27.5 -83q0 -61 -49 -107q-55 -54 -169 -54q-117 0 -182 71l52 45q48 -56 136 -56q67 0 104.5 30.5t37.5 68.5q0 31 -17 44t-52 18l-67 10q-123 18 -123 107q0 66 46 112
q55 55 156 55q97 0 156 -55z" />
    <glyph glyph-name="afii10103" unicode="&#x456;" horiz-adv-x="240" 
d="M205 493l-98 -493h-70l98 493h70zM251 706l-15 -73h-79l14 73h80z" />
    <glyph glyph-name="afii10104" unicode="&#x457;" horiz-adv-x="240" 
d="M205 493l-98 -493h-70l98 493h70zM131 683l-17 -87h-68l17 87h68zM332 683l-17 -87h-68l17 87h68z" />
    <glyph glyph-name="afii10105" unicode="&#x458;" horiz-adv-x="241" 
d="M205 493l-116 -585q-26 -128 -145 -128h-51l12 60h34q66 0 80 75l116 578h70zM251 706l-15 -73h-79l14 73h80z" />
    <glyph glyph-name="afii10106" unicode="&#x459;" horiz-adv-x="752" 
d="M696 174q0 -78 -50 -126t-137 -48h-191l86 432h-169l-35 -173q-30 -148 -79.5 -203.5t-121.5 -55.5h-31l12 59h15q19 0 34.5 6.5t36 26.5t38.5 67.5t33 119.5l43 214h306l-39 -195h115q67 0 100.5 -36t33.5 -88zM627 166q0 73 -83 73h-109l-36 -181h109q64 0 91.5 34.5
t27.5 73.5z" />
    <glyph glyph-name="afii10107" unicode="&#x45a;" horiz-adv-x="765" 
d="M709 174q0 -78 -50 -126t-137 -48h-191l47 236h-225l-47 -236h-70l99 493h70l-40 -195h225l39 195h70l-39 -195h115q67 0 100.5 -36t33.5 -88zM640 166q0 73 -83 73h-109l-36 -181h110q63 0 90.5 34.5t27.5 73.5z" />
    <glyph glyph-name="afii10108" unicode="&#x45b;" horiz-adv-x="534" 
d="M473 358q0 -24 -5 -49l-62 -309h-70l61 302q5 23 5 46q0 43 -24.5 65.5t-64.5 22.5q-17 0 -35 -5t-41.5 -18t-43 -42t-27.5 -71l-59 -300h-70l112 565h-60l11 49h59l20 98h70l-20 -98h218l-10 -49h-218l-25 -127q53 59 141 59q60 0 99 -37t39 -102z" />
    <glyph glyph-name="afii10109" unicode="&#x45c;" horiz-adv-x="457" 
d="M487 493l-253 -239l166 -254h-82l-160 254l243 239h86zM205 493l-98 -493h-70l98 493h70zM468 740l-128 -151h-70l118 151h80z" />
    <glyph glyph-name="uni045D" unicode="&#x45d;" horiz-adv-x="542" 
d="M506 493l-98 -493h-70l74 373l-305 -373h-70l98 493h70l-75 -373l306 373h70zM372 589h-63l-72 151h77z" />
    <glyph glyph-name="afii10110" unicode="&#x45e;" horiz-adv-x="424" 
d="M462 493l-328 -611q-22 -41 -42 -59q-36 -33 -102 -33h-31l13 62h21q34 0 51.5 13.5t37.5 51.5l49 94l-71 482h70l51 -397l204 397h77zM427 701q-28 -125 -156 -125q-60 0 -93 27t-33 75q0 12 1 23h60q-1 -11 -1 -20q0 -26 18.5 -41.5t51.5 -15.5q74 0 92 77h60z" />
    <glyph glyph-name="afii10193" unicode="&#x45f;" horiz-adv-x="535" 
d="M498 493l-98 -493h-148l-27 -135h-67l27 135h-149l99 493h70l-87 -432h224l86 432h70z" />
    <glyph glyph-name="afii10146" unicode="&#x462;" horiz-adv-x="604" 
d="M560 243q0 -105 -68 -174t-184 -69h-253l110 551h-72l11 56h73l21 105h72l-21 -105h155l-11 -56h-155l-27 -137h168q92 0 136.5 -49t44.5 -122zM487 239q0 48 -28.5 80t-89.5 32h-172l-57 -287h171q78 0 127 49t49 126z" />
    <glyph glyph-name="afii10194" unicode="&#x463;" horiz-adv-x="480" 
d="M316 390h-123l-19 -92h115q67 0 101 -36t34 -88q0 -77 -50 -125.5t-138 -48.5h-191l78 390h-58l9 47h59l11 56h70l-11 -56h122zM354 166q0 73 -83 73h-108l-36 -181h109q63 0 90.5 34.5t27.5 73.5z" />
    <glyph glyph-name="afii10147" unicode="&#x472;" horiz-adv-x="617" 
d="M589 526q0 -51 -24 -170q-26 -130 -45.5 -186t-59.5 -97q-76 -79 -193 -79q-87 0 -142.5 52.5t-55.5 139.5q0 56 23 170q26 128 46 185t60 98q74 79 193 79q87 0 142.5 -52.5t55.5 -139.5zM408 117q25 26 41.5 71t36.5 141h-327q-17 -90 -17 -138q0 -63 37.5 -98.5
t91.5 -35.5q80 0 137 60zM516 521q0 63 -37.5 98.5t-91.5 35.5q-81 0 -138 -60q-25 -27 -41.5 -70.5t-35.5 -133.5h327q17 90 17 130z" />
    <glyph glyph-name="afii10195" unicode="&#x473;" horiz-adv-x="502" 
d="M452 337q0 -39 -10 -91q-29 -141 -93 -198q-60 -54 -140 -54q-66 0 -112.5 40t-46.5 122q0 43 9 90q28 141 93 199q60 54 141 54q66 0 112.5 -40t46.5 -122zM306 94q43 43 63 135h-243q-7 -39 -7 -68q0 -54 27 -80t69 -26q52 0 91 39zM383 332q0 54 -27 80t-69 26
q-52 0 -91 -39q-40 -40 -60 -119h243q4 28 4 52z" />
    <glyph glyph-name="afii10148" unicode="&#x474;" horiz-adv-x="519" 
d="M534 573l-291 -573h-60l-83 712h73l64 -582l232 468q57 113 168 113h56l-13 -63h-34q-74 0 -112 -75z" />
    <glyph glyph-name="afii10196" unicode="&#x475;" horiz-adv-x="425" 
d="M395 366l-199 -366h-63l-73 493h71l50 -397l158 306q19 37 42 58q36 33 102 33h31l-13 -62h-17q-33 0 -50.5 -13t-38.5 -52z" />
    <glyph glyph-name="afii10050" unicode="&#x490;" horiz-adv-x="527" 
d="M634 877l-45 -228h-337l-131 -649h-72l143 712h338l33 165h71z" />
    <glyph glyph-name="afii10098" unicode="&#x491;" horiz-adv-x="390" 
d="M456 636l-41 -204h-222l-86 -432h-70l99 493h223l29 143h68z" />
    <glyph glyph-name="uni0492" unicode="&#x492;" horiz-adv-x="540" 
d="M614 712l-12 -63h-337l-53 -262h154l-11 -56h-154l-67 -331h-72l66 331h-73l11 56h73l66 325h409z" />
    <glyph glyph-name="uni0493" unicode="&#x493;" horiz-adv-x="408" 
d="M446 493l-11 -61h-222l-28 -139h123l-9 -47h-123l-49 -246h-70l49 246h-58l9 47h59l40 200h290z" />
    <glyph glyph-name="uni0496" unicode="&#x496;" horiz-adv-x="848" 
d="M488 370l330 342h96l-342 -342l185 -306h52l-46 -229h-71l31 165h-21zM415 371l-362 -371h-102l381 376l-207 336h89zM556 712l-143 -712h-72l143 712h72z" />
    <glyph glyph-name="uni0497" unicode="&#x497;" horiz-adv-x="654" 
d="M362 254l232 239h87l-243 -239l120 -193h50l-39 -196h-67l27 135h-17zM291 253l-246 -253h-91l263 262l-148 231h78zM409 493l-98 -493h-70l98 493h70z" />
    <glyph glyph-name="uni049A" unicode="&#x49a;" horiz-adv-x="562" 
d="M196 371l336 341h95l-347 -342l190 -306h53l-46 -229h-71l32 165h-22zM264 712l-143 -712h-72l143 712h72z" />
    <glyph glyph-name="uni049B" unicode="&#x49b;" horiz-adv-x="456" 
d="M487 493l-253 -239l126 -193h52l-39 -196h-67l27 135h-15l-160 254l243 239h86zM205 493l-98 -493h-70l98 493h70z" />
    <glyph glyph-name="uni049C" unicode="&#x49c;" horiz-adv-x="631" 
d="M578 0h-94l-178 340h-28l-30 -149h-57l30 149h-32l-68 -340h-72l143 712h72l-63 -311h33l31 149h58l-32 -149h26l283 311h95l-321 -342z" />
    <glyph glyph-name="uni049D" unicode="&#x49d;" horiz-adv-x="522" 
d="M466 0h-82l-119 224h-28l-24 -127h-55l25 127h-32l-45 -224h-69l98 493h69l-42 -213h32l25 127h54l-24 -127h24l194 213h85l-227 -239z" />
    <glyph glyph-name="uni04A2" unicode="&#x4a2;" horiz-adv-x="660" 
d="M657 712l-130 -648h36l-46 -229h-71l32 165h-36l66 328h-320l-67 -328h-72l143 712h72l-63 -321h320l64 321h72z" />
    <glyph glyph-name="uni04A3" unicode="&#x4a3;" horiz-adv-x="535" 
d="M499 493l-86 -432h32l-39 -196h-67l27 135h-35l44 222h-224l-45 -222h-70l99 493h70l-43 -210h225l42 210h70z" />
    <glyph glyph-name="uni04AE" unicode="&#x4ae;" horiz-adv-x="490" 
d="M575 712l-282 -421l-59 -291h-73l60 296l-121 416h76l94 -344l224 344h81z" />
    <glyph glyph-name="uni04AF" unicode="&#x4af;" horiz-adv-x="424" 
d="M462 493l-259 -482l-45 -221h-71l44 221l-71 482h70l51 -397l204 397h77z" />
    <glyph glyph-name="uni04B0" unicode="&#x4b0;" horiz-adv-x="490" 
d="M575 712l-279 -416h110l-11 -56h-113l-48 -240h-73l48 240h-114l11 56h115l-121 416h76l94 -344l224 344h81z" />
    <glyph glyph-name="uni04B1" unicode="&#x4b1;" horiz-adv-x="424" 
d="M462 493l-259 -482h88l-9 -47h-89l-35 -174h-71l34 174h-90l9 47h91l-71 482h70l51 -397l204 397h77z" />
    <glyph glyph-name="uni04B2" unicode="&#x4b2;" horiz-adv-x="526" 
d="M587 712l-262 -351l116 -297h38l-46 -229h-71l32 165h-9l-112 302l-223 -302h-85l279 371l-130 341h81l101 -284l205 284h86z" />
    <glyph glyph-name="uni04B3" unicode="&#x4b3;" horiz-adv-x="458" 
d="M467 493l-197 -244l86 -188h40l-39 -196h-67l27 135h-15l-81 196l-152 -196h-86l206 256l-108 237h81l78 -185l141 185h86z" />
    <glyph glyph-name="uni04B6" unicode="&#x4b6;" horiz-adv-x="619" 
d="M615 712l-130 -648h35l-46 -229h-71l32 165h-36l58 290q-95 -26 -177 -26q-78 0 -123.5 37t-45.5 106q0 24 5 51l50 254h73l-49 -243q-5 -23 -5 -46q0 -95 114 -95q82 0 171 24l72 360h73z" />
    <glyph glyph-name="uni04B7" unicode="&#x4b7;" horiz-adv-x="511" 
d="M474 493l-86 -432h32l-39 -196h-67l27 135h-35l38 194q-68 -21 -136 -21q-58 0 -91.5 28.5t-33.5 82.5q0 17 5 44l32 165h70l-30 -155q-5 -28 -5 -40q0 -62 79 -62q59 0 122 18l48 239h70z" />
    <glyph glyph-name="uni04B8" unicode="&#x4b8;" horiz-adv-x="621" 
d="M617 712l-143 -712h-72l58 290q-65 -19 -128 -23l-31 -151h-60l30 148q-74 2 -117 39t-43 104q0 23 5 51l50 254h73l-49 -243q-5 -23 -5 -46q0 -87 99 -93l31 145h62l-31 -146q68 6 127 23l72 360h72z" />
    <glyph glyph-name="uni04B9" unicode="&#x4b9;" horiz-adv-x="518" 
d="M481 493l-99 -493h-69l38 194q-36 -13 -87 -18l-25 -127h-54l24 124q-59 1 -92.5 29t-33.5 82q0 17 5 44l32 165h70l-31 -155q-4 -23 -4 -40q0 -56 67 -61l24 121h55l-24 -121q44 4 86 16l48 240h70z" />
    <glyph glyph-name="uni04BA" unicode="&#x4ba;" horiz-adv-x="619" 
d="M49 0l143 712h73l-58 -290q95 26 177 26q78 0 123.5 -37t45.5 -106q0 -24 -5 -51l-50 -254h-73l49 243q5 23 5 46q0 95 -114 95q-82 0 -171 -24l-72 -360h-73z" />
    <glyph glyph-name="uni04BB" unicode="&#x4bb;" horiz-adv-x="510" 
d="M36 0l98 493h70l-38 -194q68 21 136 21q58 0 91.5 -28.5t33.5 -82.5q0 -17 -5 -44l-32 -165h-70l30 155q5 28 5 40q0 62 -79 62q-59 0 -122 -18l-48 -239h-70z" />
    <glyph glyph-name="uni04C0" unicode="&#x4c0;" horiz-adv-x="269" 
d="M264 712l-143 -712h-72l143 712h72z" />
    <glyph glyph-name="uni04CF" unicode="&#x4cf;" horiz-adv-x="243" 
d="M250 712l-143 -712h-70l143 712h70z" />
    <glyph glyph-name="uni04D8" unicode="&#x4d8;" horiz-adv-x="617" 
d="M593 526q0 -51 -24 -170q-27 -130 -46.5 -186t-59.5 -97q-74 -79 -192 -79q-88 0 -145 52.5t-57 139.5q0 58 22 164l4 22h403q22 105 22 149q0 63 -38 98.5t-92 35.5q-84 0 -141 -60q-29 -33 -47 -87h-75q25 82 71 131q76 79 196 79q88 0 143.5 -52.5t55.5 -139.5z
M486 310h-330q-14 -73 -14 -119q0 -63 39.5 -98.5t93.5 -35.5q80 0 137 60q24 26 40.5 67.5t33.5 125.5z" />
    <glyph glyph-name="afii10846" unicode="&#x4d9;" horiz-adv-x="506" 
d="M53 163q0 36 12 101h318q6 40 6 62q0 51 -27 82t-80 31q-74 0 -138 -58l-42 46q78 72 186 72q75 0 121.5 -43.5t46.5 -126.5q0 -59 -14 -115.5t-41.5 -107t-76 -81.5t-111.5 -31q-76 0 -118 47.5t-42 121.5zM121 163q0 -55 27 -82.5t68 -27.5q115 0 157 160h-248
q-4 -21 -4 -50z" />
    <glyph glyph-name="uni04E2" unicode="&#x4e2;" horiz-adv-x="696" 
d="M692 712l-143 -712h-72l115 570l-476 -570h-67l143 712h72l-114 -571l475 571h67zM327 851h287l-11 -53h-287z" />
    <glyph glyph-name="uni04E3" unicode="&#x4e3;" horiz-adv-x="542" 
d="M506 493l-98 -493h-70l74 373l-305 -373h-70l98 493h70l-75 -373l306 373h70zM499 665l-11 -53h-286l11 53h286z" />
    <glyph glyph-name="uni04E8" unicode="&#x4e8;" horiz-adv-x="617" 
d="M589 526q0 -51 -24 -170q-26 -130 -45.5 -186t-59.5 -97q-76 -79 -193 -79q-87 0 -142.5 52.5t-55.5 139.5q0 56 23 170q26 128 46 185t60 98q74 79 193 79q87 0 142.5 -52.5t55.5 -139.5zM408 117q25 26 41.5 71t36.5 141h-327q-17 -90 -17 -138q0 -63 37.5 -98.5
t91.5 -35.5q80 0 137 60zM516 521q0 63 -37.5 98.5t-91.5 35.5q-81 0 -138 -60q-25 -27 -41.5 -70.5t-35.5 -133.5h327q17 90 17 130z" />
    <glyph glyph-name="uni04E9" unicode="&#x4e9;" horiz-adv-x="502" 
d="M452 337q0 -39 -10 -91q-29 -141 -93 -198q-60 -54 -140 -54q-66 0 -112.5 40t-46.5 122q0 43 9 90q28 141 93 199q60 54 141 54q66 0 112.5 -40t46.5 -122zM306 94q43 43 63 135h-243q-7 -39 -7 -68q0 -54 27 -80t69 -26q52 0 91 39zM383 332q0 54 -27 80t-69 26
q-52 0 -91 -39q-40 -40 -60 -119h243q4 28 4 52z" />
    <glyph glyph-name="uni04EE" unicode="&#x4ee;" horiz-adv-x="555" 
d="M644 712l-385 -599q-39 -61 -76 -87t-92 -26h-56l13 63h39q36 0 60.5 17t51.5 58l43 67l-142 507h75l117 -435l271 435h81zM254 851h287l-11 -53h-287z" />
    <glyph glyph-name="uni04EF" unicode="&#x4ef;" horiz-adv-x="424" 
d="M462 493l-328 -611q-22 -41 -42 -59q-36 -33 -102 -33h-31l13 62h21q34 0 51.5 13.5t37.5 51.5l49 94l-71 482h70l51 -397l204 397h77zM433 665l-11 -53h-286l11 53h286z" />
    <glyph glyph-name="Wgrave" unicode="&#x1e80;" horiz-adv-x="815" 
d="M890 712l-309 -712h-68l-38 573l-267 -573h-67l-33 712h75l20 -577l264 577h65l37 -577l243 577h78zM532 775h-63l-71 151h77z" />
    <glyph glyph-name="wgrave" unicode="&#x1e81;" horiz-adv-x="688" 
d="M724 493l-239 -493h-64l-48 382l-197 -382h-64l-51 493h71l31 -394l200 394h57l47 -394l183 394h74zM442 589h-63l-72 151h77z" />
    <glyph glyph-name="Wacute" unicode="&#x1e82;" horiz-adv-x="815" 
d="M890 712l-309 -712h-68l-38 573l-267 -573h-67l-33 712h75l20 -577l264 577h65l37 -577l243 577h78zM675 926l-128 -151h-69l117 151h80z" />
    <glyph glyph-name="wacute" unicode="&#x1e83;" horiz-adv-x="688" 
d="M724 493l-239 -493h-64l-48 382l-197 -382h-64l-51 493h71l31 -394l200 394h57l47 -394l183 394h74zM572 740l-128 -151h-70l118 151h80z" />
    <glyph glyph-name="Wdieresis" unicode="&#x1e84;" horiz-adv-x="815" 
d="M890 712l-309 -712h-68l-38 573l-267 -573h-67l-33 712h75l20 -577l264 577h65l37 -577l243 577h78zM668 870l-17 -87h-68l17 87h68zM468 870l-17 -87h-68l17 87h68z" />
    <glyph glyph-name="wdieresis" unicode="&#x1e85;" horiz-adv-x="688" 
d="M724 493l-239 -493h-64l-48 382l-197 -382h-64l-51 493h71l31 -394l200 394h57l47 -394l183 394h74zM567 683l-17 -87h-68l17 87h68zM367 683l-17 -87h-68l17 87h68z" />
    <glyph glyph-name="uni1E8A" unicode="&#x1e8a;" horiz-adv-x="526" 
d="M587 712l-262 -351l141 -361h-81l-112 302l-223 -302h-85l279 371l-130 341h81l101 -284l205 284h86zM419 866l-15 -74h-72l15 74h72z" />
    <glyph glyph-name="uni1E8B" unicode="&#x1e8b;" horiz-adv-x="458" 
d="M467 493l-197 -244l114 -249h-82l-81 196l-152 -196h-86l206 256l-108 237h81l78 -185l141 185h86zM350 679l-15 -74h-72l15 74h72z" />
    <glyph glyph-name="Ygrave" unicode="&#x1ef2;" horiz-adv-x="495" 
d="M575 712l-282 -421l-59 -291h-73l60 296l-121 416h76l94 -344l224 344h81zM375 775h-63l-71 151h77z" />
    <glyph glyph-name="ygrave" unicode="&#x1ef3;" horiz-adv-x="424" 
d="M462 493l-328 -611q-22 -41 -42 -59q-36 -33 -102 -33h-31l13 62h21q34 0 51.5 13.5t37.5 51.5l49 94l-71 482h70l51 -397l204 397h77zM303 589h-63l-72 151h77z" />
    <glyph glyph-name="uni2007" unicode="&#x2007;" horiz-adv-x="496" 
 />
    <glyph glyph-name="uni2008" unicode="&#x2008;" horiz-adv-x="257" 
 />
    <glyph glyph-name="uni200B" unicode="&#x200b;" horiz-adv-x="0" 
 />
    <glyph glyph-name="endash" unicode="&#x2013;" horiz-adv-x="496" 
d="M458 302l-13 -64h-397l13 64h397z" />
    <glyph glyph-name="emdash" unicode="&#x2014;" horiz-adv-x="870" 
d="M810 302l-12 -64h-728l13 64h727z" />
    <glyph glyph-name="afii00208" unicode="&#x2015;" horiz-adv-x="870" 
d="M810 302l-12 -64h-728l13 64h727z" />
    <glyph glyph-name="quoteleft" unicode="&#x2018;" horiz-adv-x="250" 
d="M277 792l-33 -165h-84l17 85z" />
    <glyph glyph-name="quoteright" unicode="&#x2019;" horiz-adv-x="250" 
d="M261 712l-17 -85l-100 -80l33 165h84z" />
    <glyph glyph-name="quotesinglbase" unicode="&#x201a;" horiz-adv-x="250" 
d="M136 85l-17 -85l-101 -80l33 165h85z" />
    <glyph glyph-name="quotedblleft" unicode="&#x201c;" horiz-adv-x="413" 
d="M277 792l-33 -165h-84l17 85zM440 792l-34 -165h-83l17 85z" />
    <glyph glyph-name="quotedblright" unicode="&#x201d;" horiz-adv-x="413" 
d="M261 712l-17 -85l-100 -80l33 165h84zM424 712l-18 -85l-99 -80l33 165h84z" />
    <glyph glyph-name="quotedblbase" unicode="&#x201e;" horiz-adv-x="413" 
d="M136 85l-17 -85l-101 -80l33 165h85zM299 85l-18 -85l-100 -80l33 165h85z" />
    <glyph glyph-name="dagger" unicode="&#x2020;" horiz-adv-x="574" 
d="M556 507l-12 -62h-183l-89 -445h-70l89 445h-182l13 62h181l41 205h70l-41 -205h183z" />
    <glyph glyph-name="daggerdbl" unicode="&#x2021;" horiz-adv-x="574" 
d="M556 507l-12 -62h-183l-80 -395h185l-12 -62h-185l-41 -207h-70l42 207h-180l12 62h180l79 395h-182l13 62h181l41 205h70l-41 -205h183z" />
    <glyph glyph-name="bullet" unicode="&#x2022;" horiz-adv-x="505" 
d="M425 334q0 -68 -43.5 -111.5t-111.5 -43.5t-111.5 43.5t-43.5 111.5t43.5 111.5t111.5 43.5t111.5 -43.5t43.5 -111.5z" />
    <glyph glyph-name="ellipsis" unicode="&#x2026;" horiz-adv-x="721" 
d="M607 92l-17 -92h-90l19 92h88zM141 92l-18 -92h-89l19 92h88zM374 92l-18 -92h-88l18 92h88z" />
    <glyph glyph-name="perthousand" unicode="&#x2030;" horiz-adv-x="1129" 
d="M737 264q0 -20 -4 -40l-19 -95q-27 -135 -150 -135q-45 0 -78 25t-33 79q0 20 4 40l19 95q27 135 150 135q45 0 78 -25t33 -79zM682 259q0 60 -61 60q-74 0 -90 -86l-19 -95q-4 -20 -4 -35q0 -60 61 -60q72 0 90 86l19 95q4 20 4 35zM681 712l-458 -712h-60l458 712h60z
M390 615q0 -20 -4 -40l-19 -95q-27 -135 -150 -135q-45 0 -78 25t-33 79q0 20 4 40l19 95q27 135 150 135q45 0 78 -25t33 -79zM335 610q0 60 -61 60q-74 0 -90 -86l-19 -95q-4 -20 -4 -35q0 -60 61 -60q72 0 90 86l19 95q4 20 4 35zM1066 264q0 -20 -4 -40l-19 -95
q-27 -135 -150 -135q-45 0 -78 25t-33 79q0 20 4 40l19 95q27 135 150 135q45 0 78 -25t33 -79zM1011 259q0 60 -61 60q-74 0 -90 -86l-19 -95q-4 -20 -4 -35q0 -60 61 -60q72 0 90 86l19 95q4 20 4 35z" />
    <glyph glyph-name="guilsinglleft" unicode="&#x2039;" horiz-adv-x="312" 
d="M285 478l-19 -95l-138 -121l91 -121l-16 -84l-161 211z" />
    <glyph glyph-name="guilsinglright" unicode="&#x203a;" horiz-adv-x="312" 
d="M279 267l-242 -210l19 95l138 121l-92 121l17 84z" />
    <glyph glyph-name="fraction" unicode="&#x2044;" horiz-adv-x="179" 
d="M371 712l-459 -712h-60l459 712h60z" />
    <glyph glyph-name="uni2070" unicode="&#x2070;" 
d="M340 618q0 -16 -3 -28l-37 -185q-13 -66 -52 -95t-85 -29q-43 0 -71 26t-28 72q0 15 3 28l36 185q13 66 52 95t85 29q44 0 72 -26t28 -72zM284 614q0 26 -14 38t-35 12q-63 0 -77 -73l-36 -183q-3 -12 -3 -24q0 -51 48 -51q64 0 78 73l36 184q3 12 3 24z" />
    <glyph glyph-name="uni2074" unicode="&#x2074;" 
d="M316 401l-9 -50h-46l-13 -66h-54l14 66h-166l10 50l203 311h62l-205 -311h105l21 105h54l-21 -105h45z" />
    <glyph glyph-name="uni2075" unicode="&#x2075;" 
d="M353 712l-10 -50h-167l-22 -118q27 24 69 24q44 0 67 -26.5t23 -66.5q0 -27 -4 -48q-17 -81 -46 -110q-38 -36 -97 -36q-49 0 -75 26.5t-26 67.5q0 11 1 19h53v-13q0 -50 49 -50q67 0 85 96q5 25 5 42q0 52 -49 52q-47 0 -71 -40h-48l46 231h217z" />
    <glyph glyph-name="uni2076" unicode="&#x2076;" 
d="M305 422q0 -60 -37.5 -100.5t-92.5 -40.5q-56 0 -84 33t-28 78q0 49 46 119l134 201h63l-126 -186q25 5 29 5q45 0 70.5 -30t25.5 -79zM250 421q0 29 -15 47t-42 18q-36 0 -55.5 -28t-19.5 -62q0 -30 15 -47.5t42 -17.5q34 0 54.5 27t20.5 63z" />
    <glyph glyph-name="uni2077" unicode="&#x2077;" 
d="M369 712l-9 -51l-208 -376h-61l208 376h-131l-13 -70h-54l24 121h244z" />
    <glyph glyph-name="uni2078" unicode="&#x2078;" 
d="M341 612q0 -36 -19.5 -66t-50.5 -45q39 -28 39 -82q0 -57 -38 -97.5t-105 -40.5q-47 0 -79 27.5t-32 79.5q0 85 79 121q-34 29 -34 74q0 56 38 94.5t96 38.5q47 0 76.5 -28t29.5 -76zM254 420q0 27 -16 44.5t-43 17.5q-37 0 -60 -26t-23 -64q0 -27 15.5 -44t42.5 -17
q37 0 60.5 25t23.5 64zM286 611q0 24 -14.5 39.5t-39.5 15.5q-34 0 -55 -25t-21 -58q0 -25 14 -40t39 -15q34 0 55.5 25t21.5 58z" />
    <glyph glyph-name="uni2079" unicode="&#x2079;" 
d="M340 606q0 -51 -47 -120l-133 -201h-63l126 187q-20 -6 -30 -6q-44 0 -69.5 30t-25.5 79q0 61 37 101t92 40q56 0 84.5 -32.5t28.5 -77.5zM285 601q0 29 -15 46.5t-42 17.5q-37 0 -56 -26t-19 -63q0 -28 15 -45.5t42 -17.5q37 0 56 26t19 62z" />
    <glyph glyph-name="uni2080" unicode="&#x2080;" 
d="M253 183q0 -16 -3 -28l-37 -185q-13 -66 -52 -95t-85 -29q-43 0 -71 26t-28 72q0 14 3 28l36 185q13 66 52 95t85 29q44 0 72 -26t28 -72zM197 179q0 26 -14 38t-35 12q-63 0 -77 -73l-36 -183q-3 -12 -3 -24q0 -51 48 -51q64 0 78 73l36 184q3 12 3 24z" />
    <glyph glyph-name="uni2081" unicode="&#x2081;" 
d="M206 277l-86 -427h-54l72 361l-95 -71l13 68l95 69h55z" />
    <glyph glyph-name="uni2082" unicode="&#x2082;" 
d="M255 182q0 -60 -63 -123l-157 -159h168l-10 -50h-236l10 50l188 193q43 43 43 85q0 53 -52 53q-62 0 -75 -67h-55q21 117 135 117q51 0 77.5 -27.5t26.5 -71.5z" />
    <glyph glyph-name="uni2083" unicode="&#x2083;" 
d="M248 180q0 -84 -71 -112q22 -13 31.5 -32t9.5 -53q0 -57 -37 -97t-105 -40q-57 0 -84 29t-27 65q0 18 1 24h56q-8 -68 60 -68q31 0 56 22t25 65q0 62 -59 62h-9l10 48h7q42 0 61.5 24t19.5 60q0 29 -14.5 42t-36.5 13q-61 0 -78 -65h-55q26 114 136 114q47 0 75 -27.5
t28 -73.5z" />
    <glyph glyph-name="uni2084" unicode="&#x2084;" 
d="M229 -34l-9 -50h-46l-13 -66h-54l14 66h-166l10 50l203 311h62l-205 -311h105l21 105h54l-21 -105h45z" />
    <glyph glyph-name="uni2085" unicode="&#x2085;" 
d="M267 277l-10 -50h-167l-22 -118q27 24 69 24q44 0 67 -26.5t23 -66.5q0 -27 -4 -48q-17 -81 -46 -110q-38 -36 -97 -36q-49 0 -75 26.5t-26 67.5q0 11 1 19h53v-13q0 -50 49 -50q67 0 85 96q5 25 5 42q0 52 -49 52q-47 0 -71 -40h-48l46 231h217z" />
    <glyph glyph-name="uni2086" unicode="&#x2086;" 
d="M218 -13q0 -60 -37.5 -100.5t-92.5 -40.5q-56 0 -84 33t-28 78q0 49 46 119l134 201h63l-126 -186q25 5 29 5q45 0 70.5 -30t25.5 -79zM163 -14q0 29 -15 47t-42 18q-36 0 -55.5 -28t-19.5 -62q0 -30 15 -47.5t42 -17.5q34 0 54.5 27t20.5 63z" />
    <glyph glyph-name="uni2087" unicode="&#x2087;" 
d="M283 277l-9 -51l-208 -376h-61l208 376h-131l-13 -70h-54l24 121h244z" />
    <glyph glyph-name="uni2088" unicode="&#x2088;" 
d="M254 177q0 -36 -19.5 -66t-50.5 -45q39 -28 39 -82q0 -57 -38 -97.5t-105 -40.5q-47 0 -79 27.5t-32 79.5q0 85 79 121q-34 29 -34 74q0 56 38 94.5t96 38.5q47 0 76.5 -28t29.5 -76zM167 -15q0 27 -16 44.5t-43 17.5q-37 0 -60 -26t-23 -64q0 -27 15.5 -44t42.5 -17
q37 0 60.5 25t23.5 64zM199 176q0 24 -14.5 39.5t-39.5 15.5q-34 0 -55 -25t-21 -58q0 -25 14 -40t39 -15q34 0 55.5 25t21.5 58z" />
    <glyph glyph-name="uni2089" unicode="&#x2089;" 
d="M253 171q0 -51 -47 -120l-133 -201h-63l126 187q-20 -6 -30 -6q-44 0 -69.5 30t-25.5 79q0 61 37 101t92 40q56 0 84.5 -32.5t28.5 -77.5zM198 166q0 29 -15 46.5t-42 17.5q-37 0 -56 -26t-19 -63q0 -28 15 -45.5t42 -17.5q37 0 56 26t19 62z" />
    <glyph glyph-name="Euro" unicode="&#x20ac;" horiz-adv-x="643" 
d="M625 509h-73q-1 67 -36 106.5t-98 39.5q-78 0 -135 -60q-40 -43 -64 -140h208l-9 -47h-209l-20 -98h210l-9 -47h-208q-7 -37 -7 -75q0 -60 39.5 -95.5t96.5 -35.5q70 0 118 42t70 104h74q-31 -98 -102 -153.5t-165 -55.5q-88 0 -146.5 51.5t-58.5 140.5q0 26 8 77h-63
l9 47h62l19 98h-62l9 47h63q17 71 35.5 111t50.5 74q76 78 188 78q99 0 151.5 -57.5t53.5 -151.5z" />
    <glyph glyph-name="uni20B4" unicode="&#x20b4;" horiz-adv-x="631" 
d="M627 454l-9 -46h-76q-43 -33 -127 -55l-110 -30q-4 -1 -43 -13h337l-9 -46h-407q-28 -29 -28 -79q0 -55 42.5 -91.5t118.5 -36.5q58 0 102.5 19t92.5 64l45 -49q-57 -53 -114 -75t-134 -22q-104 0 -165 52.5t-61 129.5q0 50 18 88h-54l9 46h78q46 44 147 72l96 26h-302
l9 46h407q42 32 42 89q0 50 -36.5 81.5t-105.5 31.5q-93 0 -173 -71l-43 49q53 45 102 64.5t118 19.5q101 0 155.5 -47.5t54.5 -119.5q0 -59 -22 -97h45z" />
    <glyph glyph-name="afii61352" unicode="&#x2116;" horiz-adv-x="873" 
d="M906 601q0 -27 -7 -62q-20 -105 -59 -141q-38 -35 -96 -35q-17 0 -34 4.5t-35 16t-29.5 35.5t-11.5 58q0 27 7 62q20 106 59 141q39 36 96 36q17 0 34 -5t35 -16.5t29.5 -35.5t11.5 -58zM851 595q0 36 -17.5 53t-44.5 17q-36 0 -56 -24q-22 -24 -38 -102q-6 -31 -6 -56
q0 -36 17.5 -53t44.5 -17q36 0 56 25q22 25 38 101q6 32 6 56zM853 321l-11 -51h-250l11 51h250zM612 712l-144 -712h-64l-192 577l-116 -577h-68l143 712h65l191 -577l116 577h69z" />
    <glyph glyph-name="trademark" unicode="&#x2122;" horiz-adv-x="800" 
d="M838 712l-85 -427h-56l62 310l-135 -201h-54l-56 205l-64 -314h-55l84 427h55l72 -259l175 259h57zM407 712l-10 -51h-111l-76 -376h-55l75 376h-114l11 51h280z" />
    <glyph glyph-name="Omega" unicode="&#x2126;" horiz-adv-x="617" 
d="M590 526q0 -34 -25 -170q-23 -120 -40.5 -170t-54.5 -90q-20 -21 -37 -32h81l-12 -64h-189l12 60q45 15 85 56q27 28 44 77t38 161q24 129 24 168q0 63 -37.5 97.5t-87.5 34.5q-83 0 -142 -60q-28 -28 -45 -77t-39 -163q-24 -128 -24 -168q0 -46 21.5 -79.5t59.5 -46.5
l-12 -60h-181l13 64h80q-52 47 -52 130q0 38 23 162q24 128 44 184.5t62 98.5q79 79 193 79q86 0 142 -53.5t56 -138.5z" />
    <glyph glyph-name="onethird" unicode="&#x2153;" horiz-adv-x="787" 
d="M294 712l-86 -427h-54l72 361l-95 -71l13 68l95 69h55zM675 712l-459 -712h-60l459 712h60zM761 330q0 -84 -71 -112q22 -13 31.5 -32t9.5 -53q0 -57 -37 -97t-105 -40q-57 0 -84 29t-27 65q0 18 1 24h56q-8 -68 60 -68q31 0 56 22t25 65q0 62 -59 62h-9l10 48h7
q42 0 61.5 24t19.5 60q0 29 -14.5 42t-36.5 13q-61 0 -78 -65h-55q26 114 136 114q47 0 75 -27.5t28 -73.5z" />
    <glyph glyph-name="twothirds" unicode="&#x2154;" horiz-adv-x="787" 
d="M342 617q0 -60 -63 -123l-157 -159h168l-10 -50h-236l10 50l188 193q43 43 43 85q0 53 -52 53q-62 0 -75 -67h-55q21 117 135 117q51 0 77.5 -27.5t26.5 -71.5zM675 712l-459 -712h-60l459 712h60zM761 330q0 -84 -71 -112q22 -13 31.5 -32t9.5 -53q0 -57 -37 -97
t-105 -40q-57 0 -84 29t-27 65q0 18 1 24h56q-8 -68 60 -68q31 0 56 22t25 65q0 62 -59 62h-9l10 48h7q42 0 61.5 24t19.5 60q0 29 -14.5 42t-36.5 13q-61 0 -78 -65h-55q26 114 136 114q47 0 75 -27.5t28 -73.5z" />
    <glyph glyph-name="uni2155" unicode="&#x2155;" horiz-adv-x="787" 
d="M294 712l-86 -427h-54l72 361l-95 -71l13 68l95 69h55zM675 712l-459 -712h-60l459 712h60zM780 427l-10 -50h-167l-22 -118q27 24 69 24q44 0 67 -26.5t23 -66.5q0 -27 -4 -48q-17 -81 -46 -110q-38 -36 -97 -36q-49 0 -75 26.5t-26 67.5q0 11 1 19h53v-13q0 -50 49 -50
q67 0 85 96q5 25 5 42q0 52 -49 52q-47 0 -71 -40h-48l46 231h217z" />
    <glyph glyph-name="uni2156" unicode="&#x2156;" horiz-adv-x="787" 
d="M342 617q0 -60 -63 -123l-157 -159h168l-10 -50h-236l10 50l188 193q43 43 43 85q0 53 -52 53q-62 0 -75 -67h-55q21 117 135 117q51 0 77.5 -27.5t26.5 -71.5zM675 712l-459 -712h-60l459 712h60zM780 427l-10 -50h-167l-22 -118q27 24 69 24q44 0 67 -26.5t23 -66.5
q0 -27 -4 -48q-17 -81 -46 -110q-38 -36 -97 -36q-49 0 -75 26.5t-26 67.5q0 11 1 19h53v-13q0 -50 49 -50q67 0 85 96q5 25 5 42q0 52 -49 52q-47 0 -71 -40h-48l46 231h217z" />
    <glyph glyph-name="uni2157" unicode="&#x2157;" horiz-adv-x="787" 
d="M334 615q0 -84 -71 -112q22 -13 31.5 -32t9.5 -53q0 -57 -37 -97t-105 -40q-57 0 -84 29t-27 65q0 18 1 24h56q-8 -68 60 -68q31 0 56 22t25 65q0 62 -59 62h-9l10 48h7q42 0 61.5 24t19.5 60q0 29 -14.5 42t-36.5 13q-61 0 -78 -65h-55q26 114 136 114q47 0 75 -27.5
t28 -73.5zM675 712l-459 -712h-60l459 712h60zM780 427l-10 -50h-167l-22 -118q27 24 69 24q44 0 67 -26.5t23 -66.5q0 -27 -4 -48q-17 -81 -46 -110q-38 -36 -97 -36q-49 0 -75 26.5t-26 67.5q0 11 1 19h53v-13q0 -50 49 -50q67 0 85 96q5 25 5 42q0 52 -49 52
q-47 0 -71 -40h-48l46 231h217z" />
    <glyph glyph-name="uni2158" unicode="&#x2158;" horiz-adv-x="787" 
d="M316 401l-9 -50h-46l-13 -66h-54l14 66h-166l10 50l203 311h62l-205 -311h105l21 105h54l-21 -105h45zM675 712l-459 -712h-60l459 712h60zM780 427l-10 -50h-167l-22 -118q27 24 69 24q44 0 67 -26.5t23 -66.5q0 -27 -4 -48q-17 -81 -46 -110q-38 -36 -97 -36
q-49 0 -75 26.5t-26 67.5q0 11 1 19h53v-13q0 -50 49 -50q67 0 85 96q5 25 5 42q0 52 -49 52q-47 0 -71 -40h-48l46 231h217z" />
    <glyph glyph-name="uni2159" unicode="&#x2159;" horiz-adv-x="787" 
d="M294 712l-86 -427h-54l72 361l-95 -71l13 68l95 69h55zM675 712l-459 -712h-60l459 712h60zM731 137q0 -60 -37.5 -100.5t-92.5 -40.5q-56 0 -84 33t-28 78q0 49 46 119l134 201h63l-126 -186q25 5 29 5q45 0 70.5 -30t25.5 -79zM676 136q0 29 -15 47t-42 18
q-36 0 -55.5 -28t-19.5 -62q0 -30 15 -47.5t42 -17.5q34 0 54.5 27t20.5 63z" />
    <glyph glyph-name="uni215A" unicode="&#x215a;" horiz-adv-x="787" 
d="M353 712l-10 -50h-167l-22 -118q27 24 69 24q44 0 67 -26.5t23 -66.5q0 -27 -4 -48q-17 -81 -46 -110q-38 -36 -97 -36q-49 0 -75 26.5t-26 67.5q0 11 1 19h53v-13q0 -50 49 -50q67 0 85 96q5 25 5 42q0 52 -49 52q-47 0 -71 -40h-48l46 231h217zM675 712l-459 -712h-60
l459 712h60zM731 137q0 -60 -37.5 -100.5t-92.5 -40.5q-56 0 -84 33t-28 78q0 49 46 119l134 201h63l-126 -186q25 5 29 5q45 0 70.5 -30t25.5 -79zM676 136q0 29 -15 47t-42 18q-36 0 -55.5 -28t-19.5 -62q0 -30 15 -47.5t42 -17.5q34 0 54.5 27t20.5 63z" />
    <glyph glyph-name="oneeighth" unicode="&#x215b;" horiz-adv-x="787" 
d="M294 712l-86 -427h-54l72 361l-95 -71l13 68l95 69h55zM675 712l-459 -712h-60l459 712h60zM767 327q0 -36 -19.5 -66t-50.5 -45q39 -28 39 -82q0 -57 -38 -97.5t-105 -40.5q-47 0 -79 27.5t-32 79.5q0 85 79 121q-34 29 -34 74q0 56 38 94.5t96 38.5q47 0 76.5 -28
t29.5 -76zM680 135q0 27 -16 44.5t-43 17.5q-37 0 -60 -26t-23 -64q0 -27 15.5 -44t42.5 -17q37 0 60.5 25t23.5 64zM712 326q0 24 -14.5 39.5t-39.5 15.5q-34 0 -55 -25t-21 -58q0 -25 14 -40t39 -15q34 0 55.5 25t21.5 58z" />
    <glyph glyph-name="threeeighths" unicode="&#x215c;" horiz-adv-x="787" 
d="M334 615q0 -84 -71 -112q22 -13 31.5 -32t9.5 -53q0 -57 -37 -97t-105 -40q-57 0 -84 29t-27 65q0 18 1 24h56q-8 -68 60 -68q31 0 56 22t25 65q0 62 -59 62h-9l10 48h7q42 0 61.5 24t19.5 60q0 29 -14.5 42t-36.5 13q-61 0 -78 -65h-55q26 114 136 114q47 0 75 -27.5
t28 -73.5zM675 712l-459 -712h-60l459 712h60zM767 327q0 -36 -19.5 -66t-50.5 -45q39 -28 39 -82q0 -57 -38 -97.5t-105 -40.5q-47 0 -79 27.5t-32 79.5q0 85 79 121q-34 29 -34 74q0 56 38 94.5t96 38.5q47 0 76.5 -28t29.5 -76zM680 135q0 27 -16 44.5t-43 17.5
q-37 0 -60 -26t-23 -64q0 -27 15.5 -44t42.5 -17q37 0 60.5 25t23.5 64zM712 326q0 24 -14.5 39.5t-39.5 15.5q-34 0 -55 -25t-21 -58q0 -25 14 -40t39 -15q34 0 55.5 25t21.5 58z" />
    <glyph glyph-name="fiveeighths" unicode="&#x215d;" horiz-adv-x="787" 
d="M353 712l-10 -50h-167l-22 -118q27 24 69 24q44 0 67 -26.5t23 -66.5q0 -27 -4 -48q-17 -81 -46 -110q-38 -36 -97 -36q-49 0 -75 26.5t-26 67.5q0 11 1 19h53v-13q0 -50 49 -50q67 0 85 96q5 25 5 42q0 52 -49 52q-47 0 -71 -40h-48l46 231h217zM675 712l-459 -712h-60
l459 712h60zM767 327q0 -36 -19.5 -66t-50.5 -45q39 -28 39 -82q0 -57 -38 -97.5t-105 -40.5q-47 0 -79 27.5t-32 79.5q0 85 79 121q-34 29 -34 74q0 56 38 94.5t96 38.5q47 0 76.5 -28t29.5 -76zM680 135q0 27 -16 44.5t-43 17.5q-37 0 -60 -26t-23 -64q0 -27 15.5 -44
t42.5 -17q37 0 60.5 25t23.5 64zM712 326q0 24 -14.5 39.5t-39.5 15.5q-34 0 -55 -25t-21 -58q0 -25 14 -40t39 -15q34 0 55.5 25t21.5 58z" />
    <glyph glyph-name="seveneighths" unicode="&#x215e;" horiz-adv-x="787" 
d="M369 712l-9 -51l-208 -376h-61l208 376h-131l-13 -70h-54l24 121h244zM675 712l-459 -712h-60l459 712h60zM767 327q0 -36 -19.5 -66t-50.5 -45q39 -28 39 -82q0 -57 -38 -97.5t-105 -40.5q-47 0 -79 27.5t-32 79.5q0 85 79 121q-34 29 -34 74q0 56 38 94.5t96 38.5
q47 0 76.5 -28t29.5 -76zM680 135q0 27 -16 44.5t-43 17.5q-37 0 -60 -26t-23 -64q0 -27 15.5 -44t42.5 -17q37 0 60.5 25t23.5 64zM712 326q0 24 -14.5 39.5t-39.5 15.5q-34 0 -55 -25t-21 -58q0 -25 14 -40t39 -15q34 0 55.5 25t21.5 58z" />
    <glyph glyph-name="uni215F" unicode="&#x215f;" horiz-adv-x="483" 
d="M294 712l-86 -427h-54l72 361l-95 -71l13 68l95 69h55zM675 712l-459 -712h-60l459 712h60z" />
    <glyph glyph-name="arrowleft" unicode="&#x2190;" horiz-adv-x="1027" 
d="M962 279l1 -71h-788l364 -364h-95l-400 400l399 399h96l-363 -364h786z" />
    <glyph glyph-name="arrowup" unicode="&#x2191;" horiz-adv-x="1027" 
d="M539 -216l-71 -1v788l-364 -364v95l400 400l399 -399v-96l-364 363v-786z" />
    <glyph glyph-name="arrowright" unicode="&#x2192;" horiz-adv-x="1027" 
d="M45 206l-1 71h788l-364 364h95l400 -400l-399 -399h-96l363 364h-786z" />
    <glyph glyph-name="arrowdown" unicode="&#x2193;" horiz-adv-x="1027" 
d="M467 700l71 1v-788l364 364v-95l-400 -400l-399 399v96l364 -363v786z" />
    <glyph glyph-name="uni2196" unicode="&#x2196;" horiz-adv-x="1027" 
d="M858 -43l-49 -50l-558 556l1 -514l-68 67v565h564l68 -68h-514z" />
    <glyph glyph-name="uni2197" unicode="&#x2197;" horiz-adv-x="1027" 
d="M842 17l-67 -69v514l-557 -554l-50 49l556 556h-514l68 68h564v-564z" />
    <glyph glyph-name="uni2198" unicode="&#x2198;" horiz-adv-x="1027" 
d="M280 -69l-68 68l514 -3l-552 560l49 50l554 -559l2 514l67 -68l-1 -563z" />
    <glyph glyph-name="uni2199" unicode="&#x2199;" horiz-adv-x="1027" 
d="M808 -1l-68 -68l-565 -1l-1 563l67 68l2 -514l554 559l49 -50l-552 -560z" />
    <glyph glyph-name="partialdiff" unicode="&#x2202;" horiz-adv-x="517" 
d="M485 552q0 -28 -5 -51l-49 -256q-13 -68 -31.5 -116t-55.5 -83q-55 -52 -135 -52q-67 0 -112 41t-45 123q0 37 10 87q13 71 32.5 119.5t58.5 82.5q54 48 132 48q80 0 113 -59l13 72q4 20 4 41q0 52 -26 80.5t-76 28.5q-40 0 -67.5 -11.5t-58.5 -38.5l-37 48q74 62 167 62
q29 0 56 -7.5t53.5 -25t42.5 -52t16 -81.5zM372 333q0 52 -27.5 76t-65.5 24q-45 0 -83 -35q-44 -41 -64 -153q-11 -53 -11 -88q0 -52 27.5 -76.5t65.5 -24.5q46 0 84 35q42 40 63 154q11 53 11 88z" />
    <glyph glyph-name="Delta" unicode="&#x2206;" horiz-adv-x="572" 
d="M516 0h-557l391 712h60zM439 62l-76 546l-296 -546h372z" />
    <glyph glyph-name="product" unicode="&#x220f;" horiz-adv-x="661" 
d="M666 760l-195 -980h-73l183 917h-320l-183 -917h-72l195 980h465z" />
    <glyph glyph-name="summation" unicode="&#x2211;" horiz-adv-x="523" 
d="M574 760l-12 -63h-340l103 -390l-14 -67l-250 -396h337l-13 -64h-420l12 60l278 445l-112 416l12 59h419z" />
    <glyph glyph-name="minus" unicode="&#x2212;" horiz-adv-x="496" 
d="M458 303l-13 -64h-397l13 64h397z" />
    <glyph glyph-name="uni2219" unicode="&#x2219;" horiz-adv-x="496" 
d="M403 334q0 -68 -43.5 -111.5t-111.5 -43.5t-111.5 43.5t-43.5 111.5t43.5 111.5t111.5 43.5t111.5 -43.5t43.5 -111.5z" />
    <glyph glyph-name="radical" unicode="&#x221a;" horiz-adv-x="533" 
d="M600 712l-12 -63h-83l-329 -649h-59l-60 492h72l41 -363l291 583h139z" />
    <glyph glyph-name="infinity" unicode="&#x221e;" horiz-adv-x="768" 
d="M711 267q0 -66 -42 -109t-110 -43q-48 0 -87 23.5t-82 75.5q-43 -53 -82 -76.5t-86 -23.5q-68 0 -110 43.5t-42 109.5t42 110t110 44q46 0 85.5 -24.5t82.5 -76.5q44 53 82 77t87 24q68 0 110 -44t42 -110zM346 266l-42 48.5t-36 28.5t-44 13q-38 0 -63 -25t-25 -65
q0 -39 24.5 -63t63.5 -24q32 0 57.5 20t64.5 67zM644 266q0 39 -24.5 63.5t-63.5 24.5q-32 0 -58 -20.5t-65 -67.5q38 -46 64.5 -66.5t58.5 -20.5q39 0 63.5 24t24.5 63z" />
    <glyph glyph-name="integral" unicode="&#x222b;" horiz-adv-x="370" 
d="M413 714l-12 -60h-35q-71 0 -86 -77l-130 -653q-14 -69 -49 -105t-108 -36h-48l12 59h35q71 0 86 77l130 653q14 69 49.5 105.5t107.5 36.5h48z" />
    <glyph glyph-name="approxequal" unicode="&#x2248;" horiz-adv-x="513" 
d="M495 362q-72 -64 -132 -64q-40 0 -100 32q-41 22 -70 22q-37 0 -91 -44l-36 48q72 64 131 64q41 0 101 -32q43 -23 70 -23q36 0 90 44zM458 188q-73 -65 -131 -65q-41 0 -101 32q-43 23 -70 23q-37 0 -91 -44l-36 47q72 64 131 64q41 0 101 -32q41 -22 70 -22q37 0 91 44
z" />
    <glyph glyph-name="notequal" unicode="&#x2260;" horiz-adv-x="512" 
d="M504 458l-79 -73h66l-13 -64h-120l-113 -103h213l-13 -64h-265l-124 -116l-37 42l79 74h-66l12 64h120l113 103h-214l14 64h266l123 115z" />
    <glyph glyph-name="lessequal" unicode="&#x2264;" horiz-adv-x="496" 
d="M457 520l-15 -77l-261 -124l213 -126l-14 -70l-280 170l12 62zM366 52l-14 -68l-280 170l14 69z" />
    <glyph glyph-name="greaterequal" unicode="&#x2265;" horiz-adv-x="496" 
d="M430 353l-12 -61l-345 -166l15 78l260 124l-212 126l14 70zM406 220l-15 -76l-344 -166l14 76z" />
    <glyph glyph-name="dotmath" unicode="&#x22c5;" horiz-adv-x="496" 
d="M302 315l-18 -90h-90l18 90h90z" />
    <glyph glyph-name="lozenge" unicode="&#x25ca;" horiz-adv-x="618" 
d="M575 344l-312 -356l-176 372l310 356zM500 352l-119 256l-220 -256l119 -258z" />
    <glyph glyph-name="fi" unicode="&#xfb01;" horiz-adv-x="535" 
d="M364 714l-12 -60h-36q-64 0 -78 -70l-18 -91h102l-11 -53h-102l-88 -440h-70l88 440h-59l10 53h59l19 95q25 126 143 126h53zM500 493l-98 -493h-70l98 493h70zM546 706l-15 -73h-79l14 73h80z" />
    <glyph glyph-name="fl" unicode="&#xfb02;" horiz-adv-x="542" 
d="M364 714l-12 -60h-36q-64 0 -78 -70l-18 -91h102l-11 -53h-102l-88 -440h-70l88 440h-59l10 53h59l19 95q25 126 143 126h53zM541 712l-116 -578q-4 -19 -4 -33q0 -41 54 -41h41l-12 -60h-52q-40 0 -70.5 22t-30.5 72q0 23 4 40l116 578h70z" />
    <glyph glyph-name="i.latn_TRK" horiz-adv-x="240" 
d="M205 493l-98 -493h-70l98 493h70zM251 706l-15 -73h-79l14 73h80z" />
    <glyph glyph-name="Ldot.latn_CAT" horiz-adv-x="546" 
d="M482 63l-12 -63h-421l143 712h72l-130 -649h348zM472 396l-15 -74h-72l15 74h72z" />
    <glyph glyph-name="ldot.latn_CAT" horiz-adv-x="275" 
d="M247 712l-116 -578q-4 -19 -4 -33q0 -41 54 -41h41l-12 -60h-52q-40 0 -70.5 22t-30.5 72q0 23 4 40l116 578h70zM304 307l-15 -74h-72l15 74h72z" />
    <glyph glyph-name="zero.numr" 
d="M340 618q0 -16 -3 -28l-37 -185q-13 -66 -52 -95t-85 -29q-43 0 -71 26t-28 72q0 15 3 28l36 185q13 66 52 95t85 29q44 0 72 -26t28 -72zM284 614q0 26 -14 38t-35 12q-63 0 -77 -73l-36 -183q-3 -12 -3 -24q0 -51 48 -51q64 0 78 73l36 184q3 12 3 24z" />
    <glyph glyph-name="one.numr" 
d="M294 712l-86 -427h-54l72 361l-95 -71l13 68l95 69h55z" />
    <glyph glyph-name="two.numr" 
d="M342 617q0 -60 -63 -123l-157 -159h168l-10 -50h-236l10 50l188 193q43 43 43 85q0 53 -52 53q-62 0 -75 -67h-55q21 117 135 117q51 0 77.5 -27.5t26.5 -71.5z" />
    <glyph glyph-name="three.numr" 
d="M334 615q0 -84 -71 -112q22 -13 31.5 -32t9.5 -53q0 -57 -37 -97t-105 -40q-57 0 -84 29t-27 65q0 18 1 24h56q-8 -68 60 -68q31 0 56 22t25 65q0 62 -59 62h-9l10 48h7q42 0 61.5 24t19.5 60q0 29 -14.5 42t-36.5 13q-61 0 -78 -65h-55q26 114 136 114q47 0 75 -27.5
t28 -73.5z" />
    <glyph glyph-name="four.numr" 
d="M316 401l-9 -50h-46l-13 -66h-54l14 66h-166l10 50l203 311h62l-205 -311h105l21 105h54l-21 -105h45z" />
    <glyph glyph-name="five.numr" 
d="M353 712l-10 -50h-167l-22 -118q27 24 69 24q44 0 67 -26.5t23 -66.5q0 -27 -4 -48q-17 -81 -46 -110q-38 -36 -97 -36q-49 0 -75 26.5t-26 67.5q0 11 1 19h53v-13q0 -50 49 -50q67 0 85 96q5 25 5 42q0 52 -49 52q-47 0 -71 -40h-48l46 231h217z" />
    <glyph glyph-name="six.numr" 
d="M305 422q0 -60 -37.5 -100.5t-92.5 -40.5q-56 0 -84 33t-28 78q0 49 46 119l134 201h63l-126 -186q25 5 29 5q45 0 70.5 -30t25.5 -79zM250 421q0 29 -15 47t-42 18q-36 0 -55.5 -28t-19.5 -62q0 -30 15 -47.5t42 -17.5q34 0 54.5 27t20.5 63z" />
    <glyph glyph-name="seven.numr" 
d="M369 712l-9 -51l-208 -376h-61l208 376h-131l-13 -70h-54l24 121h244z" />
    <glyph glyph-name="eight.numr" 
d="M341 612q0 -36 -19.5 -66t-50.5 -45q39 -28 39 -82q0 -57 -38 -97.5t-105 -40.5q-47 0 -79 27.5t-32 79.5q0 85 79 121q-34 29 -34 74q0 56 38 94.5t96 38.5q47 0 76.5 -28t29.5 -76zM254 420q0 27 -16 44.5t-43 17.5q-37 0 -60 -26t-23 -64q0 -27 15.5 -44t42.5 -17
q37 0 60.5 25t23.5 64zM286 611q0 24 -14.5 39.5t-39.5 15.5q-34 0 -55 -25t-21 -58q0 -25 14 -40t39 -15q34 0 55.5 25t21.5 58z" />
    <glyph glyph-name="nine.numr" 
d="M340 606q0 -51 -47 -120l-133 -201h-63l126 187q-20 -6 -30 -6q-44 0 -69.5 30t-25.5 79q0 61 37 101t92 40q56 0 84.5 -32.5t28.5 -77.5zM285 601q0 29 -15 46.5t-42 17.5q-37 0 -56 -26t-19 -63q0 -28 15 -45.5t42 -17.5q37 0 56 26t19 62z" />
    <glyph glyph-name="zero.dnom" 
d="M283 333q0 -16 -3 -28l-37 -185q-13 -66 -52 -95t-85 -29q-43 0 -71 26t-28 72q0 14 3 28l36 185q13 66 52 95t85 29q44 0 72 -26t28 -72zM227 329q0 26 -14 38t-35 12q-63 0 -77 -73l-36 -183q-3 -12 -3 -24q0 -51 48 -51q64 0 78 73l36 184q3 12 3 24z" />
    <glyph glyph-name="one.dnom" 
d="M237 427l-86 -427h-54l72 361l-95 -71l13 68l95 69h55z" />
    <glyph glyph-name="two.dnom" 
d="M285 332q0 -60 -63 -123l-157 -159h168l-10 -50h-236l10 50l188 193q43 43 43 85q0 53 -52 53q-62 0 -75 -67h-55q21 117 135 117q51 0 77.5 -27.5t26.5 -71.5z" />
    <glyph glyph-name="three.dnom" 
d="M278 330q0 -84 -71 -112q22 -13 31.5 -32t9.5 -53q0 -57 -37 -97t-105 -40q-57 0 -84 29t-27 65q0 18 1 24h56q-8 -68 60 -68q31 0 56 22t25 65q0 62 -59 62h-9l10 48h7q42 0 61.5 24t19.5 60q0 29 -14.5 42t-36.5 13q-61 0 -78 -65h-55q26 114 136 114q47 0 75 -27.5
t28 -73.5z" />
    <glyph glyph-name="four.dnom" 
d="M259 116l-9 -50h-46l-13 -66h-54l14 66h-166l10 50l203 311h62l-205 -311h105l21 105h54l-21 -105h45z" />
    <glyph glyph-name="five.dnom" 
d="M297 427l-10 -50h-167l-22 -118q27 24 69 24q44 0 67 -26.5t23 -66.5q0 -27 -4 -48q-17 -81 -46 -110q-38 -36 -97 -36q-49 0 -75 26.5t-26 67.5q0 11 1 19h53v-13q0 -50 49 -50q67 0 85 96q5 25 5 42q0 52 -49 52q-47 0 -71 -40h-48l46 231h217z" />
    <glyph glyph-name="six.dnom" 
d="M248 137q0 -60 -37.5 -100.5t-92.5 -40.5q-56 0 -84 33t-28 78q0 49 46 119l134 201h63l-126 -186q25 5 29 5q45 0 70.5 -30t25.5 -79zM193 136q0 29 -15 47t-42 18q-36 0 -55.5 -28t-19.5 -62q0 -30 15 -47.5t42 -17.5q34 0 54.5 27t20.5 63z" />
    <glyph glyph-name="seven.dnom" 
d="M313 427l-9 -51l-208 -376h-61l208 376h-131l-13 -70h-54l24 121h244z" />
    <glyph glyph-name="eight.dnom" 
d="M284 327q0 -36 -19.5 -66t-50.5 -45q39 -28 39 -82q0 -57 -38 -97.5t-105 -40.5q-47 0 -79 27.5t-32 79.5q0 85 79 121q-34 29 -34 74q0 56 38 94.5t96 38.5q47 0 76.5 -28t29.5 -76zM197 135q0 27 -16 44.5t-43 17.5q-37 0 -60 -26t-23 -64q0 -27 15.5 -44t42.5 -17
q37 0 60.5 25t23.5 64zM229 326q0 24 -14.5 39.5t-39.5 15.5q-34 0 -55 -25t-21 -58q0 -25 14 -40t39 -15q34 0 55.5 25t21.5 58z" />
    <glyph glyph-name="nine.dnom" 
d="M283 321q0 -51 -47 -120l-133 -201h-63l126 187q-20 -6 -30 -6q-44 0 -69.5 30t-25.5 79q0 61 37 101t92 40q56 0 84.5 -32.5t28.5 -77.5zM228 316q0 29 -15 46.5t-42 17.5q-37 0 -56 -26t-19 -63q0 -28 15 -45.5t42 -17.5q37 0 56 26t19 62z" />
    <glyph glyph-name="space.frac" horiz-adv-x="47" 
 />
    <glyph glyph-name="zero.osf" horiz-adv-x="496" 
d="M470 448q0 -22 -5 -47l-42 -207q-22 -108 -84.5 -154t-134.5 -46q-65 0 -110.5 39.5t-45.5 115.5q0 22 5 47l41 207q22 108 85 154t135 46q65 0 110.5 -39.5t45.5 -115.5zM400 446q0 48 -26 71.5t-62 23.5q-50 0 -92 -32.5t-56 -104.5l-41 -209q-6 -28 -6 -44
q0 -48 26.5 -71.5t62.5 -23.5q50 0 92 32.5t56 104.5l41 209q5 23 5 44z" />
    <glyph glyph-name="one.osf" horiz-adv-x="357" 
d="M316 597l-120 -597h-69l103 514l-152 -114l16 85l152 112h70z" />
    <glyph glyph-name="two.osf" horiz-adv-x="483" 
d="M454 463q0 -55 -30.5 -101t-90.5 -98l-231 -202h297l-13 -62h-394l12 62l284 244q52 44 73.5 79t21.5 77q0 52 -28 75.5t-65 23.5q-116 0 -142 -120h-71q20 97 78.5 139.5t136.5 42.5q75 0 118.5 -42.5t43.5 -117.5z" />
    <glyph glyph-name="three.osf" horiz-adv-x="491" 
d="M456 448q0 -68 -32 -121.5t-92 -76.5q76 -29 76 -130q0 -97 -63.5 -170t-168.5 -73q-86 0 -130 43t-44 114q0 18 1 28h69q-2 -14 -2 -21q0 -45 27.5 -73.5t78.5 -28.5q69 0 115.5 53t46.5 127q0 99 -109 99h-16l12 61h16q64 0 105 49t41 117q0 45 -25.5 70.5t-72.5 25.5
q-49 0 -87.5 -32t-52.5 -85h-72q23 89 81.5 134t139.5 45q72 0 115 -42t43 -113z" />
    <glyph glyph-name="four.osf" horiz-adv-x="516" 
d="M453 96l-13 -63h-89l-31 -156h-68l31 156h-290l12 63l353 534h77l-353 -534h213l40 201h69l-40 -201h89z" />
    <glyph glyph-name="five.osf" horiz-adv-x="493" 
d="M486 597l-13 -62h-280l-45 -226q49 46 126 46q72 0 108.5 -42t36.5 -107q0 -36 -9 -86q-25 -130 -79 -184q-58 -58 -149 -58q-82 0 -121 42.5t-39 106.5q0 15 1 26h69q-1 -8 -1 -21q0 -42 23 -67t67 -25q72 0 106.5 47.5t51.5 132.5q9 49 9 77q0 98 -87 98
q-89 0 -131 -72h-61l75 374h342z" />
    <glyph glyph-name="six.osf" horiz-adv-x="500" 
d="M450 241q0 -99 -61 -173t-159 -74q-96 0 -142.5 56.5t-46.5 137.5q0 52 18.5 99t63.5 109l242 332h78l-229 -306q28 12 65 12q77 0 124 -52t47 -141zM381 240q0 59 -31 97.5t-85 38.5q-73 0 -114 -58.5t-41 -126.5q0 -59 31 -97.5t85 -38.5q70 0 112.5 56t42.5 129z" />
    <glyph glyph-name="seven.osf" horiz-adv-x="479" 
d="M515 597l-12 -62l-403 -658h-76l403 658h-260l-21 -107h-68l33 169h404z" />
    <glyph glyph-name="eight.osf" horiz-adv-x="509" 
d="M502 557q0 -64 -33 -116t-89 -77q70 -49 70 -142q0 -92 -60.5 -160t-170.5 -68q-74 0 -124.5 43.5t-50.5 126.5q0 150 140 210q-61 45 -61 120q0 96 61.5 160t154.5 64q71 0 117 -43.5t46 -117.5zM380 224q0 52 -29.5 82.5t-78.5 30.5q-70 0 -114 -48.5t-44 -119.5
q0 -52 30 -82.5t79 -30.5q71 0 114 48t43 120zM432 556q0 45 -25.5 72.5t-71.5 27.5q-64 0 -103 -48.5t-39 -109.5q0 -45 25.5 -72.5t71.5 -27.5q64 0 103 48.5t39 109.5z" />
    <glyph glyph-name="nine.osf" horiz-adv-x="500" 
d="M482 409q0 -52 -18.5 -99t-63.5 -109l-243 -332h-77l228 306q-29 -12 -65 -12q-77 0 -124 52t-47 141q0 99 61 173t159 74q96 0 143 -56.5t47 -137.5zM412 406q0 59 -31 97.5t-85 38.5q-69 0 -111.5 -56t-42.5 -129q0 -59 31 -97.5t85 -38.5q73 0 113.5 58.5t40.5 126.5z
" />
    <glyph glyph-name="zero.lf" horiz-adv-x="496" 
d="M493 563q0 -22 -5 -47l-64 -322q-22 -108 -85 -154t-135 -46q-65 0 -110 39.5t-45 115.5q0 22 5 47l63 322q22 108 85 154t135 46q65 0 110.5 -39.5t45.5 -115.5zM423 561q0 48 -26 71.5t-62 23.5q-50 0 -92 -32.5t-56 -104.5l-63 -324q-6 -28 -6 -44q0 -48 26.5 -71.5
t62.5 -23.5q50 0 92 32.5t56 104.5l63 324q5 23 5 44z" />
    <glyph glyph-name="one.lf" horiz-adv-x="442" 
d="M409 712l-143 -712h-70l127 629l-152 -114l16 85l151 112h71z" />
    <glyph glyph-name="two.lf" horiz-adv-x="496" 
d="M496 555q0 -55 -22 -96t-66 -87l-291 -311h291l-12 -61h-379l12 61l334 357q34 38 49 67.5t15 68.5q0 50 -25.5 76.5t-71.5 26.5q-52 0 -90 -31t-53 -97h-70q18 92 75 140.5t142 48.5q76 0 119 -42.5t43 -120.5z" />
    <glyph glyph-name="three.lf" horiz-adv-x="496" 
d="M482 564q0 -68 -32 -122t-92 -77q76 -29 76 -129q0 -97 -63.5 -170t-168.5 -73q-86 0 -130 43t-44 114q0 18 1 28h69q-2 -14 -2 -22q0 -45 27.5 -73t78.5 -28q69 0 115.5 53t46.5 127q0 99 -109 99h-16l12 60h16q64 0 105 49.5t41 117.5q0 45 -25.5 70.5t-72.5 25.5
q-49 0 -87.5 -32t-52.5 -85h-72q23 89 81.5 134t139.5 45q72 0 115 -42t43 -113z" />
    <glyph glyph-name="four.lf" horiz-adv-x="496" 
d="M450 179l-14 -64h-84l-23 -115h-68l23 115h-273l12 64l347 533h77l-346 -533h195l39 196h69l-39 -196h85z" />
    <glyph glyph-name="five.lf" horiz-adv-x="496" 
d="M516 712l-12 -62h-280l-45 -226q49 46 126 46q72 0 108.5 -42t36.5 -107q0 -36 -9 -86q-25 -129 -80 -184q-58 -58 -148 -58q-82 0 -121 42.5t-39 106.5q0 15 1 26h68q-1 -8 -1 -21q0 -41 23.5 -66.5t67.5 -25.5q72 0 106.5 47.5t51.5 132.5q9 49 9 77q0 98 -87 98
q-89 0 -131 -72h-62l75 374h342z" />
    <glyph glyph-name="six.lf" horiz-adv-x="496" 
d="M432 224q0 -98 -60.5 -164t-145.5 -66q-89 0 -132.5 52t-43.5 126q0 47 16 89t58 104l231 347h76l-215 -321q29 11 55 11q75 0 118 -49.5t43 -128.5zM361 223q0 52 -27 86.5t-76 34.5q-45 0 -78 -28t-47 -65t-14 -74q0 -52 27 -86.5t76 -34.5q64 0 101.5 51t37.5 116z
" />
    <glyph glyph-name="seven.lf" horiz-adv-x="496" 
d="M544 712l-12 -62l-358 -650h-77l358 650h-237l-21 -107h-68l33 169h382z" />
    <glyph glyph-name="eight.lf" horiz-adv-x="496" 
d="M494 557q0 -64 -33 -116t-89 -77q70 -49 70 -142q0 -92 -60.5 -160t-170.5 -68q-74 0 -124.5 43.5t-50.5 126.5q0 150 139 210q-60 45 -60 120q0 96 61.5 160t154.5 64q71 0 117 -43.5t46 -117.5zM372 224q0 52 -29.5 82.5t-78.5 30.5q-70 0 -114 -48.5t-44 -119.5
q0 -52 30 -82.5t79 -30.5q71 0 114 48t43 120zM424 556q0 45 -25.5 72.5t-71.5 27.5q-64 0 -103.5 -48.5t-39.5 -109.5q0 -45 26 -72.5t72 -27.5q64 0 103 48.5t39 109.5z" />
    <glyph glyph-name="nine.lf" horiz-adv-x="496" 
d="M491 540q0 -47 -16.5 -89t-58.5 -104l-231 -347h-75l214 321q-29 -11 -54 -11q-75 0 -118 49.5t-43 128.5q0 98 60.5 164t145.5 66q89 0 132.5 -52t43.5 -126zM422 535q0 52 -27.5 86.5t-76.5 34.5q-64 0 -101 -51t-37 -116q0 -52 27 -86.5t76 -34.5q45 0 78 28t47 65
t14 74z" />
    <glyph glyph-name="zero.tosf" horiz-adv-x="495" 
d="M469 448q0 -23 -5 -46l-42 -208q-11 -57 -36 -98.5t-57 -62t-63 -30t-63 -9.5q-65 0 -110 39.5t-45 115.5q0 23 5 46l42 208q11 57 36 98.5t57 62t63 30t63 9.5q65 0 110 -39.5t45 -115.5zM402 447q0 48 -26.5 72t-63.5 24q-51 0 -93 -33t-57 -106l-41 -210
q-6 -30 -6 -44q0 -48 26.5 -72t63.5 -24q51 0 93 33t57 106l41 210q6 30 6 44z" />
    <glyph glyph-name="one.tosf" horiz-adv-x="495" 
d="M382 597l-120 -597h-68l104 517l-151 -115l16 84l150 111h69z" />
    <glyph glyph-name="two.tosf" horiz-adv-x="495" 
d="M464 464q0 -56 -30.5 -103t-88.5 -96l-235 -205h299l-13 -60h-392l12 60l284 245q52 44 74 79.5t22 78.5q0 52 -29 76t-66 24q-117 0 -143 -122h-69q20 97 78 139.5t136 42.5q75 0 118 -42t43 -117z" />
    <glyph glyph-name="three.tosf" horiz-adv-x="495" 
d="M456 449q0 -69 -32.5 -122.5t-92.5 -76.5q77 -31 77 -130q0 -97 -63.5 -170t-168.5 -73q-86 0 -129.5 43t-43.5 114q0 17 1 27h66q-1 -7 -1 -21q0 -46 27.5 -74.5t79.5 -28.5q70 0 117 53.5t47 128.5q0 100 -111 100h-15l11 59h17q64 0 105.5 49.5t41.5 118.5
q0 45 -26 71t-73 26q-49 0 -88.5 -32.5t-53.5 -85.5h-70q24 88 82 133t138 45q72 0 115 -41.5t43 -112.5z" />
    <glyph glyph-name="four.tosf" horiz-adv-x="495" 
d="M441 94l-13 -61h-85l-31 -156h-66l31 156h-289l12 61l356 535h75l-356 -535h213l40 203h67l-40 -203h86z" />
    <glyph glyph-name="five.tosf" horiz-adv-x="495" 
d="M482 597l-12 -60h-280l-46 -228q49 46 127 46q72 0 108 -42t36 -107q0 -35 -9 -86q-23 -128 -79 -184q-56 -58 -148 -58q-81 0 -120 42t-39 106q0 15 1 26h66q-1 -8 -1 -21q0 -42 23.5 -67.5t67.5 -25.5q73 0 109 48t52 134q8 43 8 78q0 99 -88 99q-89 0 -132 -73h-59
l75 373h340z" />
    <glyph glyph-name="six.tosf" horiz-adv-x="495" 
d="M446 241q0 -99 -60.5 -173t-158.5 -74q-95 0 -142 56.5t-47 136.5q0 95 78 202l247 339h76l-229 -307q27 13 66 13q77 0 123.5 -52t46.5 -141zM379 240q0 60 -31 99t-86 39q-50 0 -87 -31t-53 -72.5t-16 -83.5q0 -60 31 -99t85 -39q71 0 114 56.5t43 130.5z" />
    <glyph glyph-name="seven.tosf" horiz-adv-x="495" 
d="M519 597l-12 -60l-400 -660h-74l400 660h-258l-21 -107h-66l32 167h399z" />
    <glyph glyph-name="eight.tosf" horiz-adv-x="495" 
d="M495 558q0 -65 -33 -116.5t-90 -76.5q71 -52 71 -143q0 -92 -60.5 -160t-170.5 -68q-73 0 -123.5 43.5t-50.5 126.5q0 149 140 210q-61 44 -61 120q0 96 61 160t154 64q71 0 117 -43.5t46 -116.5zM375 224q0 53 -30.5 83.5t-79.5 30.5q-70 0 -114.5 -49.5t-44.5 -120.5
q0 -53 30 -83.5t79 -30.5q73 0 116.5 48.5t43.5 121.5zM427 557q0 46 -26 73.5t-72 27.5q-66 0 -105.5 -49t-39.5 -110q0 -46 26 -74t73 -28q66 0 105 49.5t39 110.5z" />
    <glyph glyph-name="nine.tosf" horiz-adv-x="495" 
d="M478 410q0 -52 -17.5 -97.5t-61.5 -106.5l-246 -337h-75l229 307q-27 -13 -66 -13q-77 0 -124 52t-47 141q0 99 60.5 173t158.5 74q96 0 142.5 -56t46.5 -137zM411 406q0 59 -31.5 98.5t-85.5 39.5q-71 0 -113.5 -56.5t-42.5 -130.5q0 -60 31 -99t86 -39q73 0 114.5 59.5
t41.5 127.5z" />
    <glyph glyph-name="uni2007.tosf" horiz-adv-x="495" 
 />
    <glyph glyph-name="hyphen.case" horiz-adv-x="405" 
d="M362 388l-13 -65h-262l13 65h262z" />
    <glyph glyph-name="exclamdown.case" horiz-adv-x="301" 
d="M220 515l-91 -515h-82l113 515h60zM268 712l-17 -86h-83l17 86h83z" />
    <glyph glyph-name="guillemotleft.case" horiz-adv-x="528" 
d="M303 566l-19 -95l-138 -121l91 -121l-16 -84l-161 211zM519 566l-19 -95l-139 -121l93 -121l-17 -84l-161 211z" />
    <glyph glyph-name="uni00AD.case" horiz-adv-x="405" 
d="M362 388l-13 -65h-262l13 65h262z" />
    <glyph glyph-name="guillemotright.case" horiz-adv-x="528" 
d="M514 355l-243 -210l19 95l138 121l-91 121l16 84zM298 355l-243 -210l19 95l139 121l-93 121l17 84z" />
    <glyph glyph-name="questiondown.case" horiz-adv-x="474" 
d="M390 172q-16 -84 -72.5 -131t-141.5 -47q-62 0 -105.5 40t-43.5 107q0 78 70 158l101 117q24 28 30 58l8 42h70l-9 -45q-11 -53 -48 -95l-100 -115q-51 -59 -51 -116q0 -38 23.5 -63t65.5 -25q50 0 85.5 30.5t46.5 84.5h71zM345 712l-16 -86h-83l16 86h83z" />
    <glyph glyph-name="endash.case" horiz-adv-x="496" 
d="M475 388l-13 -64h-397l13 64h397z" />
    <glyph glyph-name="emdash.case" horiz-adv-x="870" 
d="M827 388l-12 -64h-728l13 64h727z" />
    <glyph glyph-name="afii00208.case" horiz-adv-x="870" 
d="M827 388l-12 -64h-728l13 64h727z" />
    <glyph glyph-name="guilsinglleft.case" horiz-adv-x="312" 
d="M303 566l-19 -95l-138 -121l91 -121l-16 -84l-161 211z" />
    <glyph glyph-name="guilsinglright.case" horiz-adv-x="312" 
d="M297 355l-242 -210l19 95l138 121l-92 121l17 84z" />
    <glyph glyph-name="caroncomma.ss01" horiz-adv-x="250" 
d="M667 721l-26 -127l-80 -63l39 190h67z" />
    <glyph glyph-name="commaaccent.ss01" horiz-adv-x="500" 
d="M256 -116q0 -50 -34.5 -78.5t-85.5 -28.5h-5l9 42q29 -1 46.5 16t17.5 45q0 19 -12.5 30.5t-30.5 13.5l8 42q38 -2 62.5 -25.5t24.5 -56.5z" />
    <glyph glyph-name="commaturn.ss01" horiz-adv-x="500" 
d="M384 746l-8 -43q-30 1 -47.5 -16t-17.5 -44q0 -19 13 -30.5t31 -13.5l-8 -42q-39 2 -63 25t-24 56q0 52 34.5 80t86.5 28h3z" />
    <glyph glyph-name="exclam.ss01" horiz-adv-x="301" 
d="M297 712l-112 -515h-60l91 515h81zM175 45q0 -20 -14 -34t-34 -14t-34.5 14t-14.5 34t14.5 34.5t34.5 14.5t34 -14.5t14 -34.5z" />
    <glyph glyph-name="period.ss01" horiz-adv-x="259" 
d="M147 52q0 -22 -16.5 -38.5t-39.5 -16.5t-39 16.5t-16 38.5t16 38.5t39 16.5t39.5 -16.5t16.5 -38.5z" />
    <glyph glyph-name="colon.ss01" horiz-adv-x="284" 
d="M230 342q0 -22 -16 -38.5t-39 -16.5t-39 16.5t-16 38.5t16 38.5t39 16.5t39 -16.5t16 -38.5zM173 52q0 -22 -16.5 -38.5t-38.5 -16.5t-38.5 16.5t-16.5 38.5t16.5 38.5t38.5 16.5t38.5 -16.5t16.5 -38.5z" />
    <glyph glyph-name="semicolon.ss01" horiz-adv-x="284" 
d="M170 89l-31 -153l-100 -80l46 233h85zM228 342q0 -22 -16.5 -38.5t-39.5 -16.5q-22 0 -38.5 16.5t-16.5 38.5t16.5 38.5t38.5 16.5q23 0 39.5 -16.5t16.5 -38.5z" />
    <glyph glyph-name="question.ss01" horiz-adv-x="474" 
d="M490 571q0 -77 -70 -157l-101 -118q-23 -26 -29 -58l-9 -42h-70l9 45q11 53 48 95l100 115q51 59 51 116q0 38 -23.5 63.5t-65.5 25.5q-50 0 -85 -31t-46 -85h-71q16 84 72 131t141 47q62 0 105.5 -40t43.5 -107zM270 45q0 -20 -14.5 -34t-34.5 -14t-34 14t-14 34
t14 34.5t34 14.5t34.5 -14.5t14.5 -34.5z" />
    <glyph glyph-name="at.ss01" horiz-adv-x="939" 
d="M889 321q0 -121 -82.5 -207.5t-207.5 -86.5h-61l12 58q-52 -64 -123 -64q-63 0 -101 36t-38 106q0 38 9 83q24 128 82 179q50 45 120 45q86 0 113 -68l12 62h63l-78 -388q95 1 157.5 74.5t62.5 170.5q0 133 -87.5 215.5t-224.5 82.5q-155 0 -263.5 -110t-108.5 -267
q0 -167 104 -274t275 -107h49l-11 -53h-48q-189 0 -311 123t-122 311q0 182 127 308t309 126q166 0 269 -98.5t103 -256.5zM586 321q0 47 -24.5 69.5t-59.5 22.5q-45 0 -81 -34q-41 -41 -59 -134q-8 -42 -8 -75q0 -47 24 -69.5t59 -22.5q48 0 82 34q41 41 59 135q8 42 8 74z
" />
    <glyph glyph-name="C.ss01" horiz-adv-x="559" 
d="M568 630l-54 -46q-27 37 -56.5 54t-73.5 17q-79 0 -134 -60q-29 -30 -45.5 -77.5t-39.5 -161.5q-23 -113 -23 -168q0 -59 39.5 -95t95.5 -36q82 0 155 71l42 -53q-89 -81 -201 -81q-88 0 -146 51.5t-58 140.5q0 62 23 170q27 133 47 188t61 97q74 77 186 77
q113 0 182 -88z" />
    <glyph glyph-name="G.ss01" horiz-adv-x="614" 
d="M579 620l-54 -47q-31 41 -61.5 61.5t-77.5 20.5q-79 0 -136 -60q-29 -30 -45.5 -78t-39.5 -161q-24 -119 -24 -168q0 -61 41 -96t96 -35q64 0 121 48t77 146l12 59h-167l11 62h240l-22 -113q-23 -121 -90 -188q-77 -77 -187 -77q-88 0 -146.5 52t-58.5 140q0 50 24 170
q28 135 47 188.5t60 95.5q75 78 190 78q64 0 108 -24.5t82 -73.5z" />
    <glyph glyph-name="a.ss01" horiz-adv-x="528" 
d="M492 493l-98 -493h-68l13 63q-54 -69 -138 -69q-70 0 -111 40.5t-41 115.5q0 42 11 97q28 145 91 201q58 51 133 51q94 0 126 -75l14 69h68zM383 334q0 51 -26.5 77t-67.5 26q-55 0 -93 -38q-45 -45 -66 -152q-10 -52 -10 -88q0 -51 26.5 -77t67.5 -26q54 0 93 39
q45 45 66 152q10 52 10 87z" />
    <glyph glyph-name="i.ss01" horiz-adv-x="240" 
d="M205 493l-98 -493h-70l98 493h70zM254 677q0 -20 -14.5 -34.5t-34.5 -14.5t-34.5 14t-14.5 34t14.5 35t33.5 15q20 0 35 -14.5t15 -34.5z" />
    <glyph glyph-name="j.ss01" horiz-adv-x="241" 
d="M205 493l-116 -585q-26 -128 -145 -128h-51l12 60h34q66 0 80 75l116 578h70zM254 677q0 -20 -14.5 -34.5t-34.5 -14.5t-34.5 14t-14.5 34t14.5 35t33.5 15q20 0 35 -14.5t15 -34.5z" />
    <glyph glyph-name="exclamdown.ss01" horiz-adv-x="301" 
d="M176 296l-91 -515h-82l113 515h60zM222 448q0 -20 -14 -34.5t-34 -14.5t-34 14.5t-14 34.5t14 34t34 14t34 -14t14 -34z" />
    <glyph glyph-name="dieresis.ss01" horiz-adv-x="475" 
d="M483 639q0 -18 -13 -31t-31 -13q-19 0 -31.5 13t-12.5 31t13 31t31 13q19 0 31.5 -13t12.5 -31zM282 639q0 -18 -13 -31t-31 -13q-19 0 -31.5 13t-12.5 31t13 31t31 13q19 0 31.5 -13t12.5 -31z" />
    <glyph glyph-name="ordfeminine.ss01" horiz-adv-x="445" 
d="M456 712l-78 -395h-57l10 49q-39 -54 -112 -54q-20 0 -39.5 6t-38.5 19.5t-30.5 39.5t-11.5 61q0 28 9 77q22 117 72 161q46 41 107 41q75 0 102 -58l10 53h57zM366 584q0 40 -21.5 59.5t-53.5 19.5q-43 0 -72 -29q-36 -35 -53 -119q-7 -40 -7 -69q0 -40 21 -60t53 -20
q41 0 71 30q37 36 54 119q8 46 8 69z" />
    <glyph glyph-name="periodcentered.ss01" horiz-adv-x="259" 
d="M189 267q0 -23 -16.5 -39t-38.5 -16t-38.5 16t-16.5 39t16.5 39t38.5 16t38.5 -16t16.5 -39z" />
    <glyph glyph-name="cedilla.ss01" horiz-adv-x="500" 
d="M256 -116q0 -50 -34.5 -78.5t-85.5 -28.5h-5l9 42q29 -1 46.5 16t17.5 45q0 19 -12.5 30.5t-30.5 13.5l8 42q38 -2 62.5 -25.5t24.5 -56.5z" />
    <glyph glyph-name="questiondown.ss01" horiz-adv-x="474" 
d="M347 -47q-16 -84 -72.5 -131t-141.5 -47q-62 0 -105.5 40t-43.5 107q0 78 70 158l101 117q24 28 30 58l8 42h70l-9 -45q-11 -53 -48 -95l-100 -115q-51 -59 -51 -116q0 -38 23.5 -63t65.5 -25q50 0 85.5 30.5t46.5 84.5h71zM302 448q0 -20 -14.5 -34.5t-34.5 -14.5
t-34 14.5t-14 34.5t14 34t34 14t34.5 -14t14.5 -34z" />
    <glyph glyph-name="Adieresis.ss01" horiz-adv-x="582" 
d="M521 0h-74l-22 162h-296l-87 -162h-78l389 712h61zM418 223l-53 384l-204 -384h257zM544 825q0 -18 -13 -31t-31 -13q-19 0 -31.5 13t-12.5 31t13 31t31 13q19 0 31.5 -13t12.5 -31zM343 825q0 -18 -13 -31t-31 -13q-19 0 -31.5 13t-12.5 31t13 31t31 13q19 0 31.5 -13
t12.5 -31z" />
    <glyph glyph-name="Ccedilla.ss01" horiz-adv-x="559" 
d="M568 630l-54 -46q-27 37 -56.5 54t-73.5 17q-79 0 -134 -60q-29 -30 -45.5 -77.5t-39.5 -161.5q-23 -113 -23 -168q0 -59 39.5 -95t95.5 -36q82 0 155 71l42 -53q-89 -81 -201 -81q-88 0 -146 51.5t-58 140.5q0 62 23 170q27 133 47 188t61 97q74 77 186 77
q113 0 182 -88zM312 -116q0 -50 -34.5 -78.5t-85.5 -28.5h-5l9 42q29 -1 46.5 16t17.5 45q0 19 -12.5 30.5t-30.5 13.5l8 42q38 -2 62.5 -25.5t24.5 -56.5z" />
    <glyph glyph-name="Edieresis.ss01" horiz-adv-x="572" 
d="M611 712l-13 -63h-346l-52 -258h297l-12 -63h-297l-54 -265h353l-12 -63h-426l143 712h419zM558 825q0 -18 -13 -31t-31 -13q-19 0 -31.5 13t-12.5 31t13 31t31 13q19 0 31.5 -13t12.5 -31zM357 825q0 -18 -13 -31t-31 -13q-19 0 -31.5 13t-12.5 31t13 31t31 13
q19 0 31.5 -13t12.5 -31z" />
    <glyph glyph-name="Idieresis.ss01" horiz-adv-x="269" 
d="M264 712l-143 -712h-72l143 712h72zM390 825q0 -18 -13 -31t-31 -13q-19 0 -31.5 13t-12.5 31t13 31t31 13q19 0 31.5 -13t12.5 -31zM189 825q0 -18 -13 -31t-31 -13q-19 0 -31.5 13t-12.5 31t13 31t31 13q19 0 31.5 -13t12.5 -31z" />
    <glyph glyph-name="Odieresis.ss01" horiz-adv-x="617" 
d="M589 526q0 -51 -24 -170q-26 -130 -45.5 -186t-59.5 -97q-76 -79 -193 -79q-87 0 -142.5 52.5t-55.5 139.5q0 56 23 170q26 128 46 185t60 98q74 79 193 79q87 0 142.5 -52.5t55.5 -139.5zM516 521q0 63 -37.5 98.5t-91.5 35.5q-81 0 -138 -60q-27 -29 -44.5 -78.5
t-39.5 -160.5q-23 -119 -23 -165q0 -63 37.5 -98.5t91.5 -35.5q80 0 137 60q27 29 44.5 78t39.5 161q24 117 24 165zM561 825q0 -18 -13 -31t-31 -13q-19 0 -31.5 13t-12.5 31t13 31t31 13q19 0 31.5 -13t12.5 -31zM360 825q0 -18 -13 -31t-31 -13q-19 0 -31.5 13t-12.5 31
t13 31t31 13q19 0 31.5 -13t12.5 -31z" />
    <glyph glyph-name="Udieresis.ss01" horiz-adv-x="649" 
d="M654 712l-95 -478q-23 -115 -97.5 -177.5t-181.5 -62.5q-80 0 -139 49.5t-59 143.5q0 24 7 61l92 464h73l-94 -471q-5 -27 -5 -51q0 -54 32.5 -93t99.5 -39q72 0 128 48t74 140l92 466h73zM580 825q0 -18 -13 -31t-31 -13q-19 0 -31.5 13t-12.5 31t13 31t31 13
q19 0 31.5 -13t12.5 -31zM379 825q0 -18 -13 -31t-31 -13q-19 0 -31.5 13t-12.5 31t13 31t31 13q19 0 31.5 -13t12.5 -31z" />
    <glyph glyph-name="agrave.ss01" horiz-adv-x="528" 
d="M492 493l-98 -493h-68l13 63q-54 -69 -138 -69q-70 0 -111 40.5t-41 115.5q0 42 11 97q28 145 91 201q58 51 133 51q94 0 126 -75l14 69h68zM383 334q0 51 -26.5 77t-67.5 26q-55 0 -93 -38q-45 -45 -66 -152q-10 -52 -10 -88q0 -51 26.5 -77t67.5 -26q54 0 93 39
q45 45 66 152q10 52 10 87zM340 589h-63l-72 151h77z" />
    <glyph glyph-name="aacute.ss01" horiz-adv-x="528" 
d="M492 493l-98 -493h-68l13 63q-54 -69 -138 -69q-70 0 -111 40.5t-41 115.5q0 42 11 97q28 145 91 201q58 51 133 51q94 0 126 -75l14 69h68zM383 334q0 51 -26.5 77t-67.5 26q-55 0 -93 -38q-45 -45 -66 -152q-10 -52 -10 -88q0 -51 26.5 -77t67.5 -26q54 0 93 39
q45 45 66 152q10 52 10 87zM457 740l-128 -151h-70l118 151h80z" />
    <glyph glyph-name="acircumflex.ss01" horiz-adv-x="528" 
d="M492 493l-98 -493h-68l13 63q-54 -69 -138 -69q-70 0 -111 40.5t-41 115.5q0 42 11 97q28 145 91 201q58 51 133 51q94 0 126 -75l14 69h68zM383 334q0 51 -26.5 77t-67.5 26q-55 0 -93 -38q-45 -45 -66 -152q-10 -52 -10 -88q0 -51 26.5 -77t67.5 -26q54 0 93 39
q45 45 66 152q10 52 10 87zM458 588h-62l-65 107l-108 -107h-69l150 153h64z" />
    <glyph glyph-name="atilde.ss01" horiz-adv-x="528" 
d="M492 493l-98 -493h-68l13 63q-54 -69 -138 -69q-70 0 -111 40.5t-41 115.5q0 42 11 97q28 145 91 201q58 51 133 51q94 0 126 -75l14 69h68zM383 334q0 51 -26.5 77t-67.5 26q-55 0 -93 -38q-45 -45 -66 -152q-10 -52 -10 -88q0 -51 26.5 -77t67.5 -26q54 0 93 39
q45 45 66 152q10 52 10 87zM471 649q-51 -48 -96 -48q-36 0 -69 24q-28 20 -52 20q-25 0 -62 -34l-29 37q51 48 96 48q34 0 69 -24q26 -20 51 -20t62 34z" />
    <glyph glyph-name="adieresis.ss01" horiz-adv-x="528" 
d="M492 493l-98 -493h-68l13 63q-54 -69 -138 -69q-70 0 -111 40.5t-41 115.5q0 42 11 97q28 145 91 201q58 51 133 51q94 0 126 -75l14 69h68zM383 334q0 51 -26.5 77t-67.5 26q-55 0 -93 -38q-45 -45 -66 -152q-10 -52 -10 -88q0 -51 26.5 -77t67.5 -26q54 0 93 39
q45 45 66 152q10 52 10 87zM463 639q0 -18 -13 -31t-31 -13q-19 0 -31.5 13t-12.5 31t13 31t31 13q19 0 31.5 -13t12.5 -31zM262 639q0 -18 -13 -31t-31 -13q-19 0 -31.5 13t-12.5 31t13 31t31 13q19 0 31.5 -13t12.5 -31z" />
    <glyph glyph-name="aring.ss01" horiz-adv-x="528" 
d="M492 493l-98 -493h-68l13 63q-54 -69 -138 -69q-70 0 -111 40.5t-41 115.5q0 42 11 97q28 145 91 201q58 51 133 51q94 0 126 -75l14 69h68zM383 334q0 51 -26.5 77t-67.5 26q-55 0 -93 -38q-45 -45 -66 -152q-10 -52 -10 -88q0 -51 26.5 -77t67.5 -26q54 0 93 39
q45 45 66 152q10 52 10 87zM443 686q0 -49 -34 -83.5t-83 -34.5t-83 34.5t-34 83.5t34 83t83 34t83 -34t34 -83zM397 686q0 28 -21 48.5t-50 20.5t-50 -20.5t-21 -48.5t21.5 -49.5t49.5 -21.5t49.5 21.5t21.5 49.5z" />
    <glyph glyph-name="ae.ss01" horiz-adv-x="825" 
d="M772 330q0 -39 -13 -101h-318q-6 -30 -6 -61q0 -51 27 -82t80 -31q74 0 138 58l42 -47q-76 -72 -185 -72q-101 0 -136 78l-14 -72h-57l14 66q-50 -72 -143 -72q-26 0 -50.5 7.5t-48.5 24t-38.5 49.5t-14.5 77q0 45 10 95q28 144 92 201q58 51 134 51q94 0 128 -75l14 69
h57l-13 -64q29 41 63.5 55.5t79.5 14.5q71 0 114.5 -46.5t43.5 -122.5zM387 331q0 53 -28 79.5t-69 26.5q-56 0 -94 -38q-44 -44 -66 -152q-10 -55 -10 -85q0 -53 27.5 -79.5t68.5 -26.5q55 0 94 39q46 46 66 152q11 53 11 84zM704 330q0 54 -27 82t-68 28q-116 0 -158 -160
h248q5 40 5 50z" />
    <glyph glyph-name="ccedilla.ss01" horiz-adv-x="466" 
d="M450 426l-52 -44q-37 55 -97 55q-62 0 -109 -48q-47 -50 -64 -142q-8 -42 -8 -74q0 -58 31 -87.5t76 -29.5q65 0 119 57l41 -50q-69 -69 -164 -69q-84 0 -128.5 49.5t-44.5 127.5q0 40 7 76q22 122 88.5 187t162.5 65q90 0 142 -73zM256 -116q0 -50 -34.5 -78.5
t-85.5 -28.5h-5l9 42q29 -1 46.5 16t17.5 45q0 19 -12.5 30.5t-30.5 13.5l8 42q38 -2 62.5 -25.5t24.5 -56.5z" />
    <glyph glyph-name="edieresis.ss01" horiz-adv-x="506" 
d="M453 330q0 -36 -12 -101h-318q-6 -40 -6 -62q0 -51 26.5 -82t79.5 -31q75 0 139 58l42 -46q-78 -72 -186 -72q-75 0 -121.5 43.5t-46.5 126.5q0 58 14 115t41.5 107.5t76 81.5t111.5 31q76 0 118 -47.5t42 -121.5zM385 330q0 55 -27 82.5t-68 27.5q-116 0 -157 -160h248
q4 21 4 50zM485 639q0 -18 -13 -31t-31 -13q-19 0 -31.5 13t-12.5 31t13 31t31 13q19 0 31.5 -13t12.5 -31zM284 639q0 -18 -13 -31t-31 -13q-19 0 -31.5 13t-12.5 31t13 31t31 13q19 0 31.5 -13t12.5 -31z" />
    <glyph glyph-name="idieresis.ss01" horiz-adv-x="240" 
d="M205 493l-98 -493h-70l98 493h70zM342 639q0 -18 -13 -31t-31 -13q-19 0 -31.5 13t-12.5 31t13 31t31 13q19 0 31.5 -13t12.5 -31zM141 639q0 -18 -13 -31t-31 -13q-19 0 -31.5 13t-12.5 31t13 31t31 13q19 0 31.5 -13t12.5 -31z" />
    <glyph glyph-name="odieresis.ss01" horiz-adv-x="501" 
d="M452 337q0 -36 -10 -91q-27 -138 -93 -199q-59 -53 -140 -53q-66 0 -112.5 40t-46.5 122q0 35 10 90q26 140 93 199q60 54 140 54q66 0 112.5 -40t46.5 -122zM383 332q0 54 -27 80t-69 26q-53 0 -91 -38q-46 -46 -67 -154q-10 -50 -10 -85q0 -54 27 -80t68 -26
q54 0 92 38q46 45 67 153q10 51 10 86zM483 639q0 -18 -13 -31t-31 -13q-19 0 -31.5 13t-12.5 31t13 31t31 13q19 0 31.5 -13t12.5 -31zM282 639q0 -18 -13 -31t-31 -13q-19 0 -31.5 13t-12.5 31t13 31t31 13q19 0 31.5 -13t12.5 -31z" />
    <glyph glyph-name="divide.ss01" horiz-adv-x="496" 
d="M342 447q0 -23 -16 -39t-39 -16t-39 16t-16 39t16.5 39.5t38.5 16.5t38.5 -16.5t16.5 -39.5zM459 303l-13 -67h-399l13 67h399zM275 92q0 -22 -16.5 -38.5t-38.5 -16.5t-38.5 16.5t-16.5 38.5t16.5 38.5t38.5 16.5t38.5 -16.5t16.5 -38.5z" />
    <glyph glyph-name="udieresis.ss01" horiz-adv-x="534" 
d="M498 493l-98 -493h-68l10 55q-53 -61 -143 -61q-59 0 -98.5 37t-39.5 102q0 19 6 49l62 311h70l-61 -304q-6 -28 -6 -46q0 -43 25 -65.5t65 -22.5q17 0 35 5t41.5 18t42.5 42t27 71l60 302h70zM496 639q0 -18 -13 -31t-31 -13q-19 0 -31.5 13t-12.5 31t13 31t31 13
q19 0 31.5 -13t12.5 -31zM295 639q0 -18 -13 -31t-31 -13q-19 0 -31.5 13t-12.5 31t13 31t31 13q19 0 31.5 -13t12.5 -31z" />
    <glyph glyph-name="ydieresis.ss01" horiz-adv-x="422" 
d="M462 493l-328 -611q-22 -41 -42 -59q-36 -33 -102 -33h-31l13 62h21q34 0 51.5 13.5t37.5 51.5l49 94l-71 482h70l51 -397l204 397h77zM438 639q0 -18 -13 -31t-31 -13q-19 0 -31.5 13t-12.5 31t13 31t31 13q19 0 31.5 -13t12.5 -31zM237 639q0 -18 -13 -31t-31 -13
q-19 0 -31.5 13t-12.5 31t13 31t31 13q19 0 31.5 -13t12.5 -31z" />
    <glyph glyph-name="amacron.ss01" horiz-adv-x="528" 
d="M492 493l-98 -493h-68l13 63q-54 -69 -138 -69q-70 0 -111 40.5t-41 115.5q0 42 11 97q28 145 91 201q58 51 133 51q94 0 126 -75l14 69h68zM383 334q0 51 -26.5 77t-67.5 26q-55 0 -93 -38q-45 -45 -66 -152q-10 -52 -10 -88q0 -51 26.5 -77t67.5 -26q54 0 93 39
q45 45 66 152q10 52 10 87zM469 665l-11 -53h-286l11 53h286z" />
    <glyph glyph-name="abreve.ss01" horiz-adv-x="528" 
d="M492 493l-98 -493h-68l13 63q-54 -69 -138 -69q-70 0 -111 40.5t-41 115.5q0 42 11 97q28 145 91 201q58 51 133 51q94 0 126 -75l14 69h68zM383 334q0 51 -26.5 77t-67.5 26q-55 0 -93 -38q-45 -45 -66 -152q-10 -52 -10 -88q0 -51 26.5 -77t67.5 -26q54 0 93 39
q45 45 66 152q10 52 10 87zM469 706q-28 -125 -155 -125q-58 0 -91 26.5t-33 75.5q0 12 1 23h55q-1 -9 -1 -18q0 -25 20 -39t55 -14q76 0 94 71h55z" />
    <glyph glyph-name="Aogonek.ss01" horiz-adv-x="582" 
d="M521 0h-74l-22 162h-296l-87 -162h-78l389 712h61zM418 223l-53 384l-204 -384h257zM505 -36l-9 -42q-29 1 -46.5 -16t-17.5 -44q0 -19 12.5 -30.5t30.5 -13.5l-8 -43q-38 2 -62.5 25.5t-24.5 56.5q0 50 34.5 78.5t85.5 28.5h5z" />
    <glyph glyph-name="aogonek.ss01" horiz-adv-x="528" 
d="M492 493l-98 -493h-68l13 63q-54 -69 -138 -69q-70 0 -111 40.5t-41 115.5q0 42 11 97q28 145 91 201q58 51 133 51q94 0 126 -75l14 69h68zM383 334q0 51 -26.5 77t-67.5 26q-55 0 -93 -38q-45 -45 -66 -152q-10 -52 -10 -88q0 -51 26.5 -77t67.5 -26q54 0 93 39
q45 45 66 152q10 52 10 87zM377 -36l-9 -42q-29 1 -46.5 -16t-17.5 -44q0 -19 12.5 -30.5t30.5 -13.5l-8 -43q-38 2 -62.5 25.5t-24.5 56.5q0 50 34.5 78.5t85.5 28.5h5z" />
    <glyph glyph-name="Cacute.ss01" horiz-adv-x="559" 
d="M568 630l-54 -46q-27 37 -56.5 54t-73.5 17q-79 0 -134 -60q-29 -30 -45.5 -77.5t-39.5 -161.5q-23 -113 -23 -168q0 -59 39.5 -95t95.5 -36q82 0 155 71l42 -53q-89 -81 -201 -81q-88 0 -146 51.5t-58 140.5q0 62 23 170q27 133 47 188t61 97q74 77 186 77
q113 0 182 -88zM551 926l-128 -151h-69l117 151h80z" />
    <glyph glyph-name="Ccircumflex.ss01" horiz-adv-x="559" 
d="M568 630l-54 -46q-27 37 -56.5 54t-73.5 17q-79 0 -134 -60q-29 -30 -45.5 -77.5t-39.5 -161.5q-23 -113 -23 -168q0 -59 39.5 -95t95.5 -36q82 0 155 71l42 -53q-89 -81 -201 -81q-88 0 -146 51.5t-58 140.5q0 62 23 170q27 133 47 188t61 97q74 77 186 77
q113 0 182 -88zM552 775h-61l-65 107l-109 -107h-68l149 153h65z" />
    <glyph glyph-name="Cdotaccent.ss01" horiz-adv-x="559" 
d="M568 630l-54 -46q-27 37 -56.5 54t-73.5 17q-79 0 -134 -60q-29 -30 -45.5 -77.5t-39.5 -161.5q-23 -113 -23 -168q0 -59 39.5 -95t95.5 -36q82 0 155 71l42 -53q-89 -81 -201 -81q-88 0 -146 51.5t-58 140.5q0 62 23 170q27 133 47 188t61 97q74 77 186 77
q113 0 182 -88zM459 836q0 -19 -13 -32t-31 -13q-19 0 -32 13t-13 31q0 19 13 32t31 13q19 0 32 -13t13 -31z" />
    <glyph glyph-name="cdotaccent.ss01" horiz-adv-x="466" 
d="M450 426l-52 -44q-37 55 -97 55q-62 0 -109 -48q-47 -50 -64 -142q-8 -42 -8 -74q0 -58 31 -87.5t76 -29.5q65 0 119 57l41 -50q-69 -69 -164 -69q-84 0 -128.5 49.5t-44.5 127.5q0 40 7 76q22 122 88.5 187t162.5 65q90 0 142 -73zM389 649q0 -19 -13 -32t-31 -13
q-19 0 -32 13t-13 31q0 19 13 32t31 13q19 0 32 -13t13 -31z" />
    <glyph glyph-name="Ccaron.ss01" horiz-adv-x="559" 
d="M568 630l-54 -46q-27 37 -56.5 54t-73.5 17q-79 0 -134 -60q-29 -30 -45.5 -77.5t-39.5 -161.5q-23 -113 -23 -168q0 -59 39.5 -95t95.5 -36q82 0 155 71l42 -53q-89 -81 -201 -81q-88 0 -146 51.5t-58 140.5q0 62 23 170q27 133 47 188t61 97q74 77 186 77
q113 0 182 -88zM577 928l-149 -153h-64l-90 153h61l65 -107l109 107h68z" />
    <glyph glyph-name="dcaron.ss01" horiz-adv-x="518" 
d="M527 712l-142 -712h-69l12 59q-54 -65 -137 -65q-141 0 -141 155q0 45 11 98q28 143 85 200q52 52 132 52q88 0 122 -68l57 281h70zM375 336q0 101 -89 101q-69 0 -103 -50.5t-51 -139.5q-11 -55 -11 -89q0 -102 88 -102q69 0 103.5 51t51.5 140q11 55 11 89zM679 721
l-26 -127l-80 -63l39 190h67z" />
    <glyph glyph-name="Edotaccent.ss01" horiz-adv-x="572" 
d="M611 712l-13 -63h-346l-52 -258h297l-12 -63h-297l-54 -265h353l-12 -63h-426l143 712h419zM457 836q0 -19 -13 -32t-31 -13q-19 0 -32 13t-13 31q0 19 13 32t31 13q19 0 32 -13t13 -31z" />
    <glyph glyph-name="edotaccent.ss01" horiz-adv-x="505" 
d="M453 330q0 -36 -12 -101h-318q-6 -40 -6 -62q0 -51 26.5 -82t79.5 -31q75 0 139 58l42 -46q-78 -72 -186 -72q-75 0 -121.5 43.5t-46.5 126.5q0 58 14 115t41.5 107.5t76 81.5t111.5 31q76 0 118 -47.5t42 -121.5zM385 330q0 55 -27 82.5t-68 27.5q-116 0 -157 -160h248
q4 21 4 50zM377 649q0 -19 -13 -32t-31 -13q-19 0 -32 13t-13 31q0 19 13 32t31 13q19 0 32 -13t13 -31z" />
    <glyph glyph-name="Eogonek.ss01" horiz-adv-x="572" 
d="M611 712l-13 -63h-346l-52 -258h297l-12 -63h-297l-54 -265h353l-12 -63h-426l143 712h419zM455 -36l-9 -42q-29 1 -46.5 -16t-17.5 -44q0 -19 12.5 -30.5t30.5 -13.5l-8 -43q-38 2 -62.5 25.5t-24.5 56.5q0 50 34.5 78.5t85.5 28.5h5z" />
    <glyph glyph-name="eogonek.ss01" horiz-adv-x="505" 
d="M453 330q0 -36 -12 -101h-318q-6 -40 -6 -62q0 -51 26.5 -82t79.5 -31q75 0 139 58l42 -46q-78 -72 -186 -72q-75 0 -121.5 43.5t-46.5 126.5q0 58 14 115t41.5 107.5t76 81.5t111.5 31q76 0 118 -47.5t42 -121.5zM385 330q0 55 -27 82.5t-68 27.5q-116 0 -157 -160h248
q4 21 4 50zM348 -36l-9 -42q-29 1 -46.5 -16t-17.5 -44q0 -19 12.5 -30.5t30.5 -13.5l-8 -43q-38 2 -62.5 25.5t-24.5 56.5q0 50 34.5 78.5t85.5 28.5h5z" />
    <glyph glyph-name="Gcircumflex.ss01" horiz-adv-x="614" 
d="M579 620l-54 -47q-31 41 -61.5 61.5t-77.5 20.5q-79 0 -136 -60q-29 -30 -45.5 -78t-39.5 -161q-24 -119 -24 -168q0 -61 41 -96t96 -35q64 0 121 48t77 146l12 59h-167l11 62h240l-22 -113q-23 -121 -90 -188q-77 -77 -187 -77q-88 0 -146.5 52t-58.5 140q0 50 24 170
q28 135 47 188.5t60 95.5q75 78 190 78q64 0 108 -24.5t82 -73.5zM552 775h-61l-65 107l-109 -107h-68l149 153h65z" />
    <glyph glyph-name="Gbreve.ss01" horiz-adv-x="614" 
d="M579 620l-54 -47q-31 41 -61.5 61.5t-77.5 20.5q-79 0 -136 -60q-29 -30 -45.5 -78t-39.5 -161q-24 -119 -24 -168q0 -61 41 -96t96 -35q64 0 121 48t77 146l12 59h-167l11 62h240l-22 -113q-23 -121 -90 -188q-77 -77 -187 -77q-88 0 -146.5 52t-58.5 140q0 50 24 170
q28 135 47 188.5t60 95.5q75 78 190 78q64 0 108 -24.5t82 -73.5zM566 898q-30 -126 -156 -126q-58 0 -91 26.5t-33 75.5q0 13 1 24h55q-1 -10 -1 -18q0 -26 20 -40t55 -14q78 0 94 72h56z" />
    <glyph glyph-name="Gdotaccent.ss01" horiz-adv-x="614" 
d="M579 620l-54 -47q-31 41 -61.5 61.5t-77.5 20.5q-79 0 -136 -60q-29 -30 -45.5 -78t-39.5 -161q-24 -119 -24 -168q0 -61 41 -96t96 -35q64 0 121 48t77 146l12 59h-167l11 62h240l-22 -113q-23 -121 -90 -188q-77 -77 -187 -77q-88 0 -146.5 52t-58.5 140q0 50 24 170
q28 135 47 188.5t60 95.5q75 78 190 78q64 0 108 -24.5t82 -73.5zM459 836q0 -19 -13 -32t-31 -13q-19 0 -32 13t-13 31q0 19 13 32t31 13q19 0 32 -13t13 -31z" />
    <glyph glyph-name="gdotaccent.ss01" horiz-adv-x="517" 
d="M481 493l-101 -504q-12 -63 -38 -107.5t-59.5 -66.5t-65.5 -31t-67 -9q-95 0 -151 66l50 44q41 -50 101 -50q57 0 100.5 37.5t60.5 116.5l16 76q-50 -63 -136 -63q-66 0 -103.5 40t-37.5 112q0 39 11 97q26 140 83 197q51 51 132 51q91 0 124 -69l12 63h69zM374 337
q0 100 -89 100q-67 0 -101.5 -50.5t-51.5 -136.5q-11 -57 -11 -86q0 -100 89 -100q117 0 153 187q11 57 11 86zM371 649q0 -19 -13 -32t-31 -13q-19 0 -32 13t-13 31q0 19 13 32t31 13q19 0 32 -13t13 -31z" />
    <glyph glyph-name="Gcommaaccent.ss01" horiz-adv-x="614" 
d="M579 620l-54 -47q-31 41 -61.5 61.5t-77.5 20.5q-79 0 -136 -60q-29 -30 -45.5 -78t-39.5 -161q-24 -119 -24 -168q0 -61 41 -96t96 -35q64 0 121 48t77 146l12 59h-167l11 62h240l-22 -113q-23 -121 -90 -188q-77 -77 -187 -77q-88 0 -146.5 52t-58.5 140q0 50 24 170
q28 135 47 188.5t60 95.5q75 78 190 78q64 0 108 -24.5t82 -73.5zM312 -116q0 -50 -34.5 -78.5t-85.5 -28.5h-5l9 42q29 -1 46.5 16t17.5 45q0 19 -12.5 30.5t-30.5 13.5l8 42q38 -2 62.5 -25.5t24.5 -56.5z" />
    <glyph glyph-name="gcommaaccent.ss01" horiz-adv-x="517" 
d="M481 493l-101 -504q-12 -63 -38 -107.5t-59.5 -66.5t-65.5 -31t-67 -9q-95 0 -151 66l50 44q41 -50 101 -50q57 0 100.5 37.5t60.5 116.5l16 76q-50 -63 -136 -63q-66 0 -103.5 40t-37.5 112q0 39 11 97q26 140 83 197q51 51 132 51q91 0 124 -69l12 63h69zM374 337
q0 100 -89 100q-67 0 -101.5 -50.5t-51.5 -136.5q-11 -57 -11 -86q0 -100 89 -100q117 0 153 187q11 57 11 86zM386 746l-8 -43q-30 1 -47.5 -16t-17.5 -44q0 -19 13 -30.5t31 -13.5l-8 -42q-39 2 -63 25t-24 56q0 52 34.5 80t86.5 28h3z" />
    <glyph glyph-name="Iogonek.ss01" horiz-adv-x="269" 
d="M264 712l-143 -712h-72l143 712h72zM121 -36l-9 -42q-29 1 -46.5 -16t-17.5 -44q0 -19 12.5 -30.5t30.5 -13.5l-8 -43q-38 2 -62.5 25.5t-24.5 56.5q0 50 34.5 78.5t85.5 28.5h5z" />
    <glyph glyph-name="iogonek.ss01" horiz-adv-x="240" 
d="M205 493l-98 -493h-70l98 493h70zM254 677q0 -20 -14.5 -34.5t-34.5 -14.5t-34.5 14t-14.5 34t14.5 35t33.5 15q20 0 35 -14.5t15 -34.5zM107 -36l-9 -42q-29 1 -46.5 -16t-17.5 -44q0 -19 12.5 -30.5t30.5 -13.5l-8 -43q-38 2 -62.5 25.5t-24.5 56.5q0 50 34.5 78.5
t85.5 28.5h5z" />
    <glyph glyph-name="Idotaccent.ss01" horiz-adv-x="269" 
d="M264 712l-143 -712h-72l143 712h72zM297 836q0 -19 -13 -32t-31 -13q-19 0 -32 13t-13 31q0 19 13 32t31 13q19 0 32 -13t13 -31z" />
    <glyph glyph-name="ij.ss01" horiz-adv-x="481" 
d="M205 493l-98 -493h-70l98 493h70zM254 677q0 -20 -14.5 -34.5t-34.5 -14.5t-34.5 14t-14.5 34t14.5 35t33.5 15q20 0 35 -14.5t15 -34.5zM444 493l-116 -585q-26 -128 -145 -128h-51l12 60h34q66 0 80 75l116 578h70zM493 677q0 -20 -14.5 -34.5t-34.5 -14.5t-34.5 14
t-14.5 34t14.5 35t33.5 15q20 0 35 -14.5t15 -34.5z" />
    <glyph glyph-name="Kcommaaccent.ss01" horiz-adv-x="622" 
d="M667 712l-268 -279l164 -433h-79l-142 383l-181 -183l-40 -200h-72l143 712h72l-81 -405l393 405h91zM325 -116q0 -50 -34.5 -78.5t-85.5 -28.5h-5l9 42q29 -1 46.5 16t17.5 45q0 19 -12.5 30.5t-30.5 13.5l8 42q38 -2 62.5 -25.5t24.5 -56.5z" />
    <glyph glyph-name="kcommaaccent.ss01" horiz-adv-x="512" 
d="M502 493l-197 -192l133 -301h-81l-106 256l-115 -109l-29 -147h-70l142 712h70l-94 -471l257 252h90zM263 -116q0 -50 -34.5 -78.5t-85.5 -28.5h-5l9 42q29 -1 46.5 16t17.5 45q0 19 -12.5 30.5t-30.5 13.5l8 42q38 -2 62.5 -25.5t24.5 -56.5z" />
    <glyph glyph-name="Lcommaaccent.ss01" horiz-adv-x="546" 
d="M482 63l-12 -63h-421l143 712h72l-130 -649h348zM283 -116q0 -50 -34.5 -78.5t-85.5 -28.5h-5l9 42q29 -1 46.5 16t17.5 45q0 19 -12.5 30.5t-30.5 13.5l8 42q38 -2 62.5 -25.5t24.5 -56.5z" />
    <glyph glyph-name="lcommaaccent.ss01" horiz-adv-x="284" 
d="M247 712l-116 -578q-4 -19 -4 -33q0 -41 54 -41h41l-12 -60h-52q-40 0 -70.5 22t-30.5 72q0 23 4 40l116 578h70zM156 -116q0 -50 -34.5 -78.5t-85.5 -28.5h-5l9 42q29 -1 46.5 16t17.5 45q0 19 -12.5 30.5t-30.5 13.5l8 42q38 -2 62.5 -25.5t24.5 -56.5z" />
    <glyph glyph-name="Lcaron.ss01" horiz-adv-x="546" 
d="M482 63l-12 -63h-421l143 712h72l-130 -649h348zM437 712l-26 -127l-80 -63l39 190h67z" />
    <glyph glyph-name="lcaron.ss01" horiz-adv-x="284" 
d="M247 712l-116 -578q-4 -19 -4 -33q0 -41 54 -41h41l-12 -60h-52q-40 0 -70.5 22t-30.5 72q0 23 4 40l116 578h70zM400 721l-26 -127l-80 -63l39 190h67z" />
    <glyph glyph-name="Ldot.ss01" horiz-adv-x="546" 
d="M482 63l-12 -63h-421l143 712h72l-130 -649h348zM473 360q0 -19 -13 -32t-31 -13q-19 0 -32 13t-13 31q0 19 13 32t31 13q19 0 32 -13t13 -31z" />
    <glyph glyph-name="ldot.ss01" horiz-adv-x="270" 
d="M247 712l-116 -578q-4 -19 -4 -33q0 -41 54 -41h41l-12 -60h-52q-40 0 -70.5 22t-30.5 72q0 23 4 40l116 578h70zM304 270q0 -19 -13 -32t-31 -13q-19 0 -32 13t-13 31q0 19 13 32t31 13q19 0 32 -13t13 -31z" />
    <glyph glyph-name="Ncommaaccent.ss01" horiz-adv-x="695" 
d="M692 712l-143 -712h-67l-245 577l-116 -577h-72l143 712h67l245 -577l115 577h73zM334 -116q0 -50 -34.5 -78.5t-85.5 -28.5h-5l9 42q29 -1 46.5 16t17.5 45q0 19 -12.5 30.5t-30.5 13.5l8 42q38 -2 62.5 -25.5t24.5 -56.5z" />
    <glyph glyph-name="ncommaaccent.ss01" horiz-adv-x="534" 
d="M474 360q0 -19 -6 -49l-62 -311h-70l61 304q5 27 5 46q0 43 -24.5 65.5t-65.5 22.5q-16 0 -34 -5t-41.5 -18t-42.5 -42t-27 -71l-60 -302h-70l98 493h68l-10 -55q53 61 145 61q58 0 97 -37t39 -102zM271 -116q0 -50 -34.5 -78.5t-85.5 -28.5h-5l9 42q29 -1 46.5 16
t17.5 45q0 19 -12.5 30.5t-30.5 13.5l8 42q38 -2 62.5 -25.5t24.5 -56.5z" />
    <glyph glyph-name="Rcommaaccent.ss01" horiz-adv-x="626" 
d="M614 548q0 -81 -50 -143.5t-138 -79.5l104 -325h-80l-98 320h-166l-65 -320h-72l143 712h245q93 0 135 -47t42 -117zM541 544q0 49 -28.5 76.5t-84.5 27.5h-176l-54 -266h178q77 0 121 49t44 113zM307 -116q0 -50 -34.5 -78.5t-85.5 -28.5h-5l9 42q29 -1 46.5 16t17.5 45
q0 19 -12.5 30.5t-30.5 13.5l8 42q38 -2 62.5 -25.5t24.5 -56.5z" />
    <glyph glyph-name="rcommaaccent.ss01" horiz-adv-x="398" 
d="M437 453l-57 -51q-27 35 -70 35q-52 0 -92 -38.5t-51 -96.5l-60 -302h-70l98 493h69l-12 -60q48 66 138 66q67 0 107 -46zM118 -116q0 -50 -34.5 -78.5t-85.5 -28.5h-5l9 42q29 -1 46.5 16t17.5 45q0 19 -12.5 30.5t-30.5 13.5l8 42q38 -2 62.5 -25.5t24.5 -56.5z" />
    <glyph glyph-name="Scedilla.ss01" horiz-adv-x="559" 
d="M552 636l-52 -44q-28 32 -60 48t-83 16q-79 0 -127.5 -48t-48.5 -112q0 -74 102 -98l67 -15q81 -19 117.5 -59t36.5 -114q0 -101 -76.5 -158.5t-191.5 -57.5q-74 0 -125 23t-95 75l55 48q65 -82 172 -82q79 0 133.5 42t54.5 107q0 51 -26 75t-75 35l-67 16
q-154 36 -154 160q0 39 15 77.5t44 72t80 54.5t116 21q119 0 188 -82zM276 -116q0 -50 -34.5 -78.5t-85.5 -28.5h-5l9 42q29 -1 46.5 16t17.5 45q0 19 -12.5 30.5t-30.5 13.5l8 42q38 -2 62.5 -25.5t24.5 -56.5z" />
    <glyph glyph-name="scedilla.ss01" horiz-adv-x="470" 
d="M434 444l-50 -43q-46 40 -115 40q-58 0 -90.5 -30t-32.5 -70q0 -45 73 -56l66 -9q65 -10 92.5 -38t27.5 -83q0 -61 -49 -107q-55 -54 -169 -54q-117 0 -182 71l52 45q48 -56 136 -56q67 0 104.5 30.5t37.5 68.5q0 31 -17 44t-52 18l-67 10q-123 18 -123 107q0 66 46 112
q55 55 156 55q97 0 156 -55zM229 -116q0 -50 -34.5 -78.5t-85.5 -28.5h-5l9 42q29 -1 46.5 16t17.5 45q0 19 -12.5 30.5t-30.5 13.5l8 42q38 -2 62.5 -25.5t24.5 -56.5z" />
    <glyph glyph-name="Tcommaaccent.ss01" horiz-adv-x="521" 
d="M585 712l-13 -64h-195l-130 -648h-72l130 648h-196l13 64h463zM247 -116q0 -50 -34.5 -78.5t-85.5 -28.5h-5l9 42q29 -1 46.5 16t17.5 45q0 19 -12.5 30.5t-30.5 13.5l8 42q38 -2 62.5 -25.5t24.5 -56.5z" />
    <glyph glyph-name="tcommaaccent.ss01" horiz-adv-x="318" 
d="M315 493l-11 -53h-96l-62 -306q-4 -19 -4 -32q0 -42 55 -42h40l-13 -60h-50q-40 0 -71 22t-31 72q0 16 4 40l61 306h-61l10 53h62l30 150h70l-30 -150h97zM167 -116q0 -50 -34.5 -78.5t-85.5 -28.5h-5l9 42q29 -1 46.5 16t17.5 45q0 19 -12.5 30.5t-30.5 13.5l8 42
q38 -2 62.5 -25.5t24.5 -56.5z" />
    </font>
</defs>
</svg>
