<?xml version="1.0" standalone="no"?>
<!DOCTYPE svg PUBLIC "-//W3C//DTD SVG 1.1//EN" "http://www.w3.org/Graphics/SVG/1.1/DTD/svg11.dtd" >
<svg>
<metadata>
Created by FontForge 20090622 at Mon Aug  1 15:03:58 2016
 By deploy user
2005 Albert-Jan Pool published by FSI FontShop International GmbH
</metadata>
<defs>
<font id="DINPro-Black" horiz-adv-x="556" >
  <font-face 
    font-family="DINPro-Black"
    font-weight="900"
    font-stretch="normal"
    units-per-em="1000"
    panose-1="2 11 10 4 2 1 1 1 1 2"
    ascent="764"
    descent="-236"
    x-height="538"
    cap-height="712"
    bbox="-232 -237 1184 1221"
    underline-thickness="108"
    underline-position="-24"
    unicode-range="U+000D-U+FB02"
  />
<missing-glyph horiz-adv-x="579" 
d="M62 0v712h455v-712h-455zM170 108h239v496h-239v-496z" />
    <glyph glyph-name=".notdef" horiz-adv-x="579" 
d="M62 0v712h455v-712h-455zM170 108h239v496h-239v-496z" />
    <glyph glyph-name=".null" horiz-adv-x="0" 
 />
    <glyph glyph-name=".null" horiz-adv-x="0" 
 />
    <glyph glyph-name="nonmarkingreturn" horiz-adv-x="333" 
 />
    <glyph glyph-name="CR" unicode="&#xd;" horiz-adv-x="222" 
 />
    <glyph glyph-name="space" unicode=" " horiz-adv-x="222" 
 />
    <glyph glyph-name="exclam" unicode="!" horiz-adv-x="366" 
d="M306 712l-44 -475h-118l-44 475h206zM287 0h-168v161h168v-161z" />
    <glyph glyph-name="quotedbl" unicode="&#x22;" horiz-adv-x="488" 
d="M431 478h-147v234h147v-234zM204 478h-147v234h147v-234z" />
    <glyph glyph-name="numbersign" unicode="#" horiz-adv-x="713" 
d="M666 412h-83l-13 -88h58v-155h-83l-27 -169h-174l27 169h-90l-27 -169h-174l27 169h-58v155h83l13 88h-58v155h83l24 153h174l-24 -153h90l24 153h174l-24 -153h58v-155zM409 412h-90l-13 -88h90z" />
    <glyph glyph-name="dollar" unicode="$" horiz-adv-x="633" 
d="M590 218q0 -90 -59.5 -147t-154.5 -72v-113h-126v108q-158 5 -245 94l112 112q48 -48 153 -50v132l-39 5q-93 12 -143 63q-49 50 -49 143q0 88 56.5 148.5t154.5 73.5v91h126v-89q127 -8 203 -84l-110 -110q-36 36 -113 41v-125l41 -6q94 -13 140 -59q53 -52 53 -156z
M418 214q0 28 -14 42q-14 15 -48 19v-122q62 12 62 61zM270 445v118q-31 -6 -46.5 -24t-15.5 -40q0 -19 14 -33q17 -17 48 -21z" />
    <glyph glyph-name="percent" unicode="%" horiz-adv-x="857" 
d="M812 133q0 -67 -43.5 -103t-107.5 -36t-107.5 36t-43.5 103v95q0 67 43.5 103t107.5 36t107.5 -36t43.5 -103v-95zM347 484q0 -67 -43.5 -103t-107.5 -36t-107.5 36t-43.5 103v95q0 67 43.5 103t107.5 36t107.5 -36t43.5 -103v-95zM661 712l-339 -712h-126l339 712h126z
M231 488v87q0 39 -35 39t-35 -39v-87q0 -39 35 -39t35 39zM696 137v87q0 39 -35 39t-35 -39v-87q0 -39 35 -39t35 39z" />
    <glyph glyph-name="ampersand" unicode="&#x26;" horiz-adv-x="710" 
d="M710 0h-206l-45 52q-25 -19 -41.5 -29t-50.5 -19.5t-77 -9.5q-241 0 -241 222q0 103 113 178q-67 75 -67 147q0 81 54.5 129t154.5 48q93 0 146 -49.5t53 -129.5q0 -44 -21 -73.5t-70 -64.5l-29 -21l84 -97q27 31 33 103h154q-11 -144 -83 -223zM360 168l-111 127
q-42 -29 -42 -78q0 -32 24.5 -53.5t58.5 -21.5q40 0 70 26zM349 538q0 19 -11.5 30.5t-33.5 11.5q-45 0 -45 -43q0 -20 38 -58l24 17q28 20 28 42z" />
    <glyph glyph-name="quotesingle" unicode="'" horiz-adv-x="262" 
d="M205 478h-148v234h148v-234z" />
    <glyph glyph-name="parenleft" unicode="(" horiz-adv-x="358" 
d="M309 16l-110 -110l-17 17l-18.5 18.5t-16 17l-18 20t-14.5 19t-14 21.5q-29 48 -29 144v386q0 96 29 144q6 10 14 21.5t14.5 19l18 20t16 17l18.5 18.5l17 17l110 -110q-41 -41 -57 -67q-16 -27 -16 -86v-374q0 -59 16 -86q16 -26 57 -67z" />
    <glyph glyph-name="parenright" unicode=")" horiz-adv-x="358" 
d="M286 163q0 -96 -29 -144q-6 -10 -14 -21.5t-14.5 -19l-18 -20t-16 -17l-18.5 -18.5l-17 -17l-110 110q41 41 57 67q16 27 16 86v374q0 59 -16 86q-16 26 -57 67l110 110l17 -17l18.5 -18.5t16 -17l18 -20t14.5 -19t14 -21.5q29 -48 29 -144v-386z" />
    <glyph glyph-name="asterisk" unicode="*" horiz-adv-x="506" 
d="M459 453l-56 -97l-99 64l5 -118h-112l5 118l-99 -64l-56 97l105 54l-105 54l56 97l99 -64l-5 118h112l-5 -118l99 64l56 -97l-105 -54z" />
    <glyph glyph-name="plus" unicode="+" 
d="M507 206h-152v-152h-154v152h-152v154h152v152h154v-152h152v-154z" />
    <glyph glyph-name="comma" unicode="," horiz-adv-x="288" 
d="M231 -50l-174 -128v352h174v-224z" />
    <glyph glyph-name="hyphen" unicode="-" horiz-adv-x="426" 
d="M377 218h-328v154h328v-154z" />
    <glyph glyph-name="period" unicode="." horiz-adv-x="294" 
d="M237 0h-180v180h180v-180z" />
    <glyph glyph-name="slash" unicode="/" horiz-adv-x="431" 
d="M437 786l-285 -860h-152l285 860h152z" />
    <glyph glyph-name="zero" unicode="0" 
d="M507 216q0 -105 -67 -163.5t-162 -58.5t-162 58.5t-67 163.5v280q0 105 67 163.5t162 58.5t162 -58.5t67 -163.5v-280zM343 215v281q0 36 -18.5 55t-46.5 19t-46.5 -19t-18.5 -55v-281q0 -36 18.5 -54.5t46.5 -18.5t46.5 18.5t18.5 54.5z" />
    <glyph glyph-name="one" unicode="1" 
d="M406 0h-164v537l-152 -132v175l152 132h164v-712z" />
    <glyph glyph-name="two" unicode="2" 
d="M511 0h-458v148l258 280q36 39 36 76q0 30 -16.5 48t-47.5 18q-27 0 -46.5 -16t-19.5 -53h-164q0 101 66.5 159t163.5 58q101 0 164.5 -58t63.5 -157q0 -52 -20 -88t-68 -87l-170 -180h258v-148z" />
    <glyph glyph-name="three" unicode="3" 
d="M516 213q0 -106 -68 -162.5t-169 -56.5q-63 0 -114.5 21.5t-87 73.5t-35.5 128h164q0 -36 20.5 -55.5t52.5 -19.5q33 0 53 19.5t20 56.5q0 32 -21.5 53.5t-54.5 21.5h-23v142h23q34 0 51 20t17 47q0 32 -19 50t-46 18t-46 -18t-19 -49h-164q0 98 65.5 156.5t163.5 58.5
q99 0 164 -59.5t65 -151.5t-74 -139q82 -57 82 -155z" />
    <glyph glyph-name="four" unicode="4" 
d="M530 94h-53v-94h-156v94h-295v156l236 462h180l-236 -462h115v94h156v-94h53v-156z" />
    <glyph glyph-name="five" unicode="5" 
d="M512 243q0 -67 -14 -108t-52 -80q-61 -61 -165 -61q-107 0 -169 62q-24 24 -38 54t-17.5 52t-6.5 55h164q8 -75 67 -75q28 0 46 18q21 21 21 83q0 56 -17 78.5t-50 22.5q-17 0 -29.5 -5t-20 -14t-10.5 -15.5t-7 -16.5h-151v419h434v-148h-285v-110q36 28 96 28
q88 0 138 -50q40 -40 53 -85t13 -104z" />
    <glyph glyph-name="six" unicode="6" 
d="M512 223q0 -109 -68 -169t-169 -60t-169 60t-68 169q0 70 62 195l143 294h180l-141 -279q14 5 40 5q72 0 131 -58t59 -157zM348 223q0 38 -21 59.5t-52 21.5t-52 -21.5t-21 -59.5t21 -59.5t52 -21.5t52 21.5t21 59.5z" />
    <glyph glyph-name="seven" unicode="7" 
d="M522 564l-222 -564h-180l222 564h-152v-112h-156v260h488v-148z" />
    <glyph glyph-name="eight" unicode="8" 
d="M517 213q0 -106 -67.5 -162.5t-171.5 -56.5t-171.5 56.5t-67.5 162.5q0 41 16.5 75.5t29.5 47.5t34 30q-73 61 -73 141q0 97 68 154t164 57t164 -57t68 -154q0 -80 -73 -141q21 -17 34 -30t29.5 -47.5t16.5 -75.5zM353 217q0 31 -22 53t-53 22t-53 -22t-22 -53t22 -53
t53 -22t53 22t22 53zM346 502q0 28 -20 48t-48 20t-48 -20t-20 -48t20 -48t48 -20t48 20t20 48z" />
    <glyph glyph-name="nine" unicode="9" 
d="M518 489q0 -43 -14 -83.5t-48 -110.5l-143 -295h-180l141 279q-14 -5 -40 -5q-72 0 -131 58t-59 157q0 109 68 169t169 60t169 -60t68 -169zM354 489q0 38 -21 59.5t-52 21.5t-52 -21.5t-21 -59.5t21 -59.5t52 -21.5t52 21.5t21 59.5z" />
    <glyph glyph-name="colon" unicode=":" horiz-adv-x="317" 
d="M260 253h-180v180h180v-180zM260 0h-180v180h180v-180z" />
    <glyph glyph-name="semicolon" unicode=";" horiz-adv-x="317" 
d="M257 -50l-174 -128v352h174v-224zM260 253h-180v180h180v-180z" />
    <glyph glyph-name="less" unicode="&#x3c;" 
d="M503 26l-450 198v142l450 198v-173l-235 -96l235 -96v-173z" />
    <glyph glyph-name="equal" unicode="=" 
d="M507 340h-458v154h458v-154zM507 96h-458v154h458v-154z" />
    <glyph glyph-name="greater" unicode="&#x3e;" 
d="M503 224l-450 -198v173l235 96l-235 96v173l450 -198v-142z" />
    <glyph glyph-name="question" unicode="?" horiz-adv-x="538" 
d="M508 508q0 -62 -51 -128l-69 -87q-18 -22 -18 -47v-9h-164v23q0 63 41 111l70 82q27 31 27 56q0 27 -15.5 44t-44.5 17q-60 0 -60 -63h-164q0 98 64.5 154.5t159.5 56.5q94 0 159 -55.5t65 -154.5zM372 0h-168v161h168v-161z" />
    <glyph glyph-name="at" unicode="@" horiz-adv-x="784" 
d="M735 0h-151v40q-48 -46 -113 -46q-74 0 -120 44q-32 30 -40 70t-8 118t8 117.5t40 70.5q46 44 119 44q66 0 109 -41v26q0 63 -32 95t-95 32h-120q-63 0 -95 -32t-32 -95v-262q0 -30 8 -48t28 -38l-113 -113q-43 43 -61 83.5t-18 105.5v278q0 72 14 120.5t50 84.5t85.5 50
t122.5 14h142q72 0 121.5 -13.5t86.5 -50.5q36 -36 50 -84.5t14 -120.5v-449zM579 226q0 52 -14.5 74t-45.5 22t-45.5 -22t-14.5 -74t14.5 -74t45.5 -22t45.5 22t14.5 74z" />
    <glyph glyph-name="A" unicode="A" horiz-adv-x="653" 
d="M653 0h-183l-33 106h-219l-35 -106h-183l259 712h135zM391 252l-60 190l-64 -190h124z" />
    <glyph glyph-name="B" unicode="B" horiz-adv-x="653" 
d="M604 210q0 -99 -62 -154.5t-160 -55.5h-310v712h295q109 0 168 -56t59 -150q0 -88 -78 -141q16 -10 27 -18.5t27 -27t25 -46.5t9 -63zM429 220q0 26 -15.5 44t-48.5 18h-118v-125h118q33 0 48.5 18.5t15.5 44.5zM419 497q0 24 -15 41t-48 17h-109v-116h109q33 0 48 17
t15 41z" />
    <glyph glyph-name="C" unicode="C" horiz-adv-x="609" 
d="M589 226q-19 -114 -91.5 -173t-177.5 -59q-120 0 -198 78q-26 26 -42 56t-22 71t-7.5 70t-1.5 87t1.5 87t7.5 70t22 71t42 56q78 78 198 78q105 0 177.5 -59t91.5 -173h-178q-21 76 -91 76q-46 0 -69 -30q-14 -18 -20.5 -52.5t-6.5 -123.5t6.5 -123.5t20.5 -52.5
q23 -30 69 -30q70 0 91 76h178z" />
    <glyph glyph-name="D" unicode="D" horiz-adv-x="651" 
d="M602 356q0 -106 -5.5 -151.5t-29.5 -84.5q-74 -120 -231 -120h-264v712h264q157 0 231 -120q24 -39 29.5 -84.5t5.5 -151.5zM427 356q0 86 -4 115t-15 45q-27 40 -84 40h-77v-400h77q57 0 84 40q11 16 15 45t4 115z" />
    <glyph glyph-name="E" unicode="E" horiz-adv-x="608" 
d="M556 0h-484v712h484v-156h-309v-119h264v-156h-264v-125h309v-156z" />
    <glyph glyph-name="F" unicode="F" horiz-adv-x="596" 
d="M556 556h-309v-125h264v-156h-264v-275h-175v712h484v-156z" />
    <glyph glyph-name="G" unicode="G" horiz-adv-x="647" 
d="M598 311q0 -88 -16 -142t-56 -95q-77 -80 -207 -80q-119 0 -197 78q-26 26 -42 56t-22 71t-7.5 70t-1.5 87t1.5 87t7.5 70t22 71t42 56q78 78 197 78q127 0 195 -68t83 -168h-176q-11 42 -34.5 61t-67.5 19q-45 0 -69 -31q-14 -18 -20 -51.5t-6 -123.5t6 -124t20 -52
q23 -30 69 -30q52 0 78 28q27 27 27 76v10h-105v146h279v-99z" />
    <glyph glyph-name="H" unicode="H" horiz-adv-x="680" 
d="M608 0h-175v282h-186v-282h-175v712h175v-274h186v274h175v-712z" />
    <glyph glyph-name="I" unicode="I" horiz-adv-x="319" 
d="M247 0h-175v712h175v-712z" />
    <glyph glyph-name="J" unicode="J" horiz-adv-x="516" 
d="M454 244q0 -119 -79.5 -184.5t-188.5 -65.5q-63 0 -107 17.5t-87 60.5l115 114q36 -36 79 -36t68 24.5t25 73.5v464h175v-468z" />
    <glyph glyph-name="K" unicode="K" horiz-adv-x="673" 
d="M673 0h-204l-164 292l-60 -69v-223h-173v712h173v-252l206 252h214l-243 -288z" />
    <glyph glyph-name="L" unicode="L" horiz-adv-x="576" 
d="M546 0h-474v712h175v-556h299v-156z" />
    <glyph glyph-name="M" unicode="M" horiz-adv-x="808" 
d="M736 0h-175v341l-101 -176h-112l-101 176v-341h-175v712h172l160 -314l160 314h172v-712z" />
    <glyph glyph-name="N" unicode="N" horiz-adv-x="700" 
d="M628 0h-153l-228 358v-358h-175v712h153l228 -358v358h175v-712z" />
    <glyph glyph-name="O" unicode="O" horiz-adv-x="640" 
d="M591 356q0 -58 -1.5 -87t-7.5 -70t-22 -71t-42 -56q-78 -78 -198 -78t-198 78q-26 26 -42 56t-22 71t-7.5 70t-1.5 87t1.5 87t7.5 70t22 71t42 56q78 78 198 78t198 -78q26 -26 42 -56t22 -71t7.5 -70t1.5 -87zM416 356q0 90 -6 123.5t-20 51.5q-24 31 -70 31t-70 -31
q-14 -18 -20 -51.5t-6 -123.5t6 -123t20 -51q24 -32 70 -32t70 32q14 18 20 51t6 123z" />
    <glyph glyph-name="P" unicode="P" horiz-adv-x="627" 
d="M597 483q0 -94 -65 -161.5t-178 -67.5h-107v-254h-175v712h282q113 0 178 -67.5t65 -161.5zM422 483q0 29 -21 50.5t-55 21.5h-99v-144h99q34 0 55 21.5t21 50.5z" />
    <glyph glyph-name="Q" unicode="Q" horiz-adv-x="640" 
d="M591 356q0 -64 -1.5 -96t-11 -74.5t-28.5 -73.5l52 -51l-89 -89l-55 54q-58 -32 -138 -32q-120 0 -198 78q-26 26 -42 56t-22 71t-7.5 70t-1.5 87t1.5 87t7.5 70t22 71t42 56q78 78 198 78t198 -78q26 -26 42 -56t22 -71t7.5 -70t1.5 -87zM416 356q0 90 -6 123.5
t-20 51.5q-24 31 -70 31t-70 -31q-14 -18 -20 -51.5t-6 -123.5t6 -123t20 -51q24 -32 70 -32q9 0 14 1l-45 45l89 89l34 -34q4 48 4 105z" />
    <glyph glyph-name="R" unicode="R" horiz-adv-x="652" 
d="M635 0h-203l-126 265h-59v-265h-175v712h282q113 0 178 -67.5t65 -161.5q0 -67 -34 -114.5t-82 -71.5zM422 483q0 29 -21 50.5t-55 21.5h-99v-144h99q34 0 55 21.5t21 50.5z" />
    <glyph glyph-name="S" unicode="S" horiz-adv-x="593" 
d="M550 218q0 -105 -78.5 -164.5t-196.5 -59.5q-88 0 -153.5 20.5t-116.5 73.5l112 112q50 -50 159 -50q102 0 102 64q0 27 -14 42q-15 15 -47 19l-86 12q-95 14 -143 63q-49 50 -49 143q0 99 70.5 162t189.5 63q155 0 240 -85l-110 -110q-26 26 -56.5 34t-78.5 8
q-42 0 -64 -20t-22 -46q0 -19 14 -33q17 -17 49 -21l86 -12q94 -13 140 -59q53 -52 53 -156z" />
    <glyph glyph-name="T" unicode="T" horiz-adv-x="585" 
d="M555 556h-175v-556h-175v556h-175v156h525v-156z" />
    <glyph glyph-name="U" unicode="U" horiz-adv-x="660" 
d="M600 250q0 -114 -78.5 -185t-192.5 -71t-191.5 71t-77.5 185v462h175v-458q0 -49 25 -76.5t69 -27.5t70 27.5t26 76.5v458h175v-462z" />
    <glyph glyph-name="V" unicode="V" horiz-adv-x="601" 
d="M601 712l-236 -712h-130l-235 712h181l120 -398l118 398h182z" />
    <glyph glyph-name="W" unicode="W" horiz-adv-x="906" 
d="M906 712l-195 -712h-143l-115 351l-115 -351h-142l-196 712h183l93 -376l115 376h124l115 -376l93 376h183z" />
    <glyph glyph-name="X" unicode="X" horiz-adv-x="634" 
d="M634 0h-200l-117 219l-117 -219h-200l222 365l-208 347h199l104 -201l104 201h199l-208 -347z" />
    <glyph glyph-name="Y" unicode="Y" horiz-adv-x="605" 
d="M605 712l-215 -422v-290h-175v290l-215 422h191l112 -256l111 256h191z" />
    <glyph glyph-name="Z" unicode="Z" horiz-adv-x="543" 
d="M513 0h-483v136l273 420h-261v156h471v-136l-274 -420h274v-156z" />
    <glyph glyph-name="bracketleft" unicode="[" horiz-adv-x="416" 
d="M376 -74h-304v860h304v-148h-140v-564h140v-148z" />
    <glyph glyph-name="backslash" unicode="\" horiz-adv-x="431" 
d="M431 -74h-152l-279 842h152z" />
    <glyph glyph-name="bracketright" unicode="]" horiz-adv-x="416" 
d="M344 -74h-304v148h140v564h-140v148h304v-860z" />
    <glyph glyph-name="asciicircum" unicode="^" horiz-adv-x="640" 
d="M583 375h-173l-90 165l-90 -165h-173l187 345h152z" />
    <glyph glyph-name="underscore" unicode="_" horiz-adv-x="640" 
d="M640 -186h-640v108h640v-108z" />
    <glyph glyph-name="grave" unicode="`" horiz-adv-x="500" 
d="M341 610h-117l-101 180h153z" />
    <glyph glyph-name="a" unicode="a" horiz-adv-x="536" 
d="M483 0h-160v44q-26 -26 -52.5 -37.5t-67.5 -11.5q-81 0 -129 48q-47 47 -47 126q0 66 47 111t139 45h106v14q0 36 -19 51.5t-62 15.5q-47 0 -85 -38l-102 102q41 41 84 57.5t111 16.5q237 0 237 -195v-349zM319 202v14h-78q-57 0 -57 -44q0 -20 15 -32t44 -12q37 0 59 19
q17 16 17 55z" />
    <glyph glyph-name="b" unicode="b" horiz-adv-x="569" 
d="M526 269q0 -59 -2 -91t-14 -71.5t-35 -63.5q-47 -49 -130 -49q-74 0 -124 50v-44h-159v712h164v-213q45 45 120 45q82 0 129 -49q23 -24 35 -63.5t14 -71.5t2 -91zM362 269q0 67 -13 97t-55 30t-55 -30t-13 -97t13 -97t55 -30t55 30t13 97z" />
    <glyph glyph-name="c" unicode="c" horiz-adv-x="475" 
d="M457 63q-69 -69 -177 -69q-32 0 -61.5 5.5t-63.5 23.5t-59 47t-41.5 80.5t-16.5 118.5t16.5 118.5t41.5 80.5t59 47t63.5 23.5t61.5 5.5q108 0 177 -69l-111 -111q-32 32 -66 32q-30 0 -51 -21q-27 -28 -27 -106t27 -106q21 -21 51 -21q34 0 66 32z" />
    <glyph glyph-name="d" unicode="d" horiz-adv-x="569" 
d="M507 0h-159v44q-50 -50 -124 -50q-83 0 -130 49q-23 24 -35 63.5t-14 71.5t-2 91t2 91t14 71.5t35 63.5q47 49 129 49q75 0 120 -45v213h164v-712zM343 269q0 67 -13 97t-55 30t-55 -30t-13 -97t13 -97t55 -30t55 30t13 97z" />
    <glyph glyph-name="e" unicode="e" horiz-adv-x="559" 
d="M521 216h-322q0 -35 25.5 -59.5t69.5 -24.5q40 0 63.5 10.5t47.5 34.5l98 -98q-44 -44 -91 -64.5t-118 -20.5q-256 0 -256 275q0 129 66.5 202t174.5 73q114 0 178 -72.5t64 -187.5v-68zM359 325q0 23 -9 42q-19 42 -71 42t-71 -42q-9 -19 -9 -42h160z" />
    <glyph glyph-name="f" unicode="f" horiz-adv-x="358" 
d="M333 391h-90v-391h-164v391h-49v126h49v47q0 63 42 111t125 48h87v-138h-57q-33 0 -33 -33v-35h90v-126z" />
    <glyph glyph-name="g" unicode="g" horiz-adv-x="561" 
d="M499 39q0 -96 -67 -157.5t-176 -61.5q-67 0 -115 15.5t-87 54.5l102 102q34 -34 92 -34q47 0 67 25t20 57v39q-45 -45 -116 -45q-78 0 -126 48q-34 34 -42 77t-8 130t8 130t42 77q48 48 127 48q70 0 120 -50v44h159v-499zM335 289q0 25 -1.5 40.5t-7.5 32.5t-19.5 25.5
t-35.5 8.5t-35.5 -8.5t-19.5 -25.5t-7.5 -32.5t-1.5 -40.5t1.5 -40.5t7.5 -32.5t19.5 -25.5t35.5 -8.5t35.5 8.5t19.5 25.5t7.5 32.5t1.5 40.5z" />
    <glyph glyph-name="h" unicode="h" horiz-adv-x="579" 
d="M522 0h-164v322q0 41 -21 57.5t-45 16.5t-45 -16.5t-21 -57.5v-322h-164v712h164v-218q48 50 121 50q75 0 121 -46q54 -54 54 -154v-344z" />
    <glyph glyph-name="i" unicode="i" horiz-adv-x="288" 
d="M226 0h-164v517h164v-517zM226 593h-164v125h164v-125z" />
    <glyph glyph-name="j" unicode="j" horiz-adv-x="288" 
d="M226 -21q0 -63 -42 -111t-125 -48h-87v138h57q33 0 33 33v526h164v-538zM226 593h-164v125h164v-125z" />
    <glyph glyph-name="k" unicode="k" horiz-adv-x="573" 
d="M573 0h-203l-112 197l-32 -35v-162h-164v712h164v-362l145 188h197l-198 -223z" />
    <glyph glyph-name="l" unicode="l" horiz-adv-x="341" 
d="M311 0h-87q-83 0 -125 48t-42 111v553h164v-541q0 -33 33 -33h57v-138z" />
    <glyph glyph-name="m" unicode="m" horiz-adv-x="875" 
d="M818 0h-164v322q0 41 -21 57.5t-45 16.5t-45 -16.5t-21 -57.5v-322h-164v322q0 41 -21 57.5t-45 16.5t-45 -16.5t-21 -57.5v-322h-164v538h160v-44q50 50 125 50q81 0 131 -57q65 57 152 57q83 0 129 -46q59 -59 59 -154v-344z" />
    <glyph glyph-name="n" unicode="n" horiz-adv-x="579" 
d="M522 0h-164v322q0 41 -21 57.5t-45 16.5t-45 -16.5t-21 -57.5v-322h-164v538h160v-44q50 50 125 50t121 -46q54 -54 54 -154v-344z" />
    <glyph glyph-name="o" unicode="o" horiz-adv-x="550" 
d="M507 269q0 -80 -12.5 -124.5t-46.5 -81.5q-65 -69 -173 -69t-173 69q-34 37 -46.5 81.5t-12.5 124.5q0 79 13 124.5t46 81.5q65 69 173 69t173 -69q33 -36 46 -81.5t13 -124.5zM343 269q0 88 -24 112q-15 15 -44 15t-44 -15q-24 -24 -24 -112t24 -112q15 -15 44 -15
t44 15q24 24 24 112z" />
    <glyph glyph-name="p" unicode="p" horiz-adv-x="569" 
d="M526 269q0 -59 -2 -91t-14 -71.5t-35 -63.5q-47 -49 -129 -49q-75 0 -120 45v-213h-164v712h159v-44q50 50 124 50q83 0 130 -49q23 -24 35 -63.5t14 -71.5t2 -91zM362 269q0 67 -13 97t-55 30t-55 -30t-13 -97t13 -97t55 -30t55 30t13 97z" />
    <glyph glyph-name="q" unicode="q" horiz-adv-x="569" 
d="M507 -174h-164v213q-45 -45 -120 -45q-82 0 -129 49q-23 24 -35 63.5t-14 71.5t-2 91t2 91t14 71.5t35 63.5q47 49 130 49q74 0 124 -50v44h159v-712zM343 269q0 67 -13 97t-55 30t-55 -30t-13 -97t13 -97t55 -30t55 30t13 97z" />
    <glyph glyph-name="r" unicode="r" horiz-adv-x="475" 
d="M475 494l-124 -126q-28 28 -59 28q-23 0 -44.5 -17t-21.5 -57v-322h-164v538h160v-44q50 50 127 50q76 0 126 -50z" />
    <glyph glyph-name="s" unicode="s" horiz-adv-x="504" 
d="M477 176q0 -90 -66 -136t-167 -46q-50 0 -82 3.5t-74.5 21.5t-77.5 53l106 106q45 -45 131 -45q25 0 47.5 8t22.5 27q0 30 -39 34l-83 8q-156 15 -156 156q0 84 63.5 131t150.5 47q146 0 212 -66l-101 -101q-32 32 -114 32q-27 0 -40 -10t-13 -21q0 -26 35 -30l83 -8
q81 -8 121.5 -52t40.5 -112z" />
    <glyph glyph-name="t" unicode="t" horiz-adv-x="363" 
d="M323 0h-82q-83 0 -125 48t-42 111v232h-49v126h49v154h164v-154h85v-126h-85v-220q0 -33 33 -33h52v-138z" />
    <glyph glyph-name="u" unicode="u" horiz-adv-x="579" 
d="M517 0h-160v44q-50 -50 -125 -50t-121 46q-54 54 -54 154v344h164v-322q0 -41 21 -57.5t45 -16.5t45 16.5t21 57.5v322h164v-538z" />
    <glyph glyph-name="v" unicode="v" horiz-adv-x="521" 
d="M521 538l-198 -538h-125l-198 538h172l89 -279l88 279h172z" />
    <glyph glyph-name="w" unicode="w" horiz-adv-x="780" 
d="M780 538l-162 -538h-131l-97 295l-97 -295h-131l-162 538h173l67 -279l93 279h114l93 -279l67 279h173z" />
    <glyph glyph-name="x" unicode="x" 
d="M556 0h-197l-82 136l-80 -136h-197l187 275l-180 263h197l73 -130l75 130h197l-180 -263z" />
    <glyph glyph-name="y" unicode="y" horiz-adv-x="514" 
d="M522 538l-223 -602q-16 -45 -42 -71q-42 -45 -121 -45h-62v148h35q23 0 35 8t20 32l15 45l-179 485h172l91 -279l87 279h172z" />
    <glyph glyph-name="z" unicode="z" horiz-adv-x="489" 
d="M449 0h-419v121l205 269h-193v148h407v-121l-209 -269h209v-148z" />
    <glyph glyph-name="braceleft" unicode="{" horiz-adv-x="518" 
d="M478 -74h-140q-77 0 -119 42q-48 48 -48 117v119q0 43 -17 60q-18 18 -56 18h-58v148h58q38 0 56 18q17 17 17 60v119q0 69 48 117q42 42 119 42h140v-148h-70q-43 0 -57 -14q-16 -16 -16 -64v-104q0 -81 -73 -100q73 -19 73 -100v-104q0 -48 16 -64q14 -14 57 -14h70
v-148z" />
    <glyph glyph-name="bar" unicode="|" horiz-adv-x="364" 
d="M264 -74h-164v860h164v-860z" />
    <glyph glyph-name="braceright" unicode="}" horiz-adv-x="518" 
d="M478 282h-58q-38 0 -56 -18q-17 -17 -17 -60v-119q0 -69 -48 -117q-42 -42 -119 -42h-140v148h70q43 0 57 14q16 16 16 64v104q0 81 73 100q-73 19 -73 100v104q0 48 -16 64q-14 14 -57 14h-70v148h140q77 0 119 -42q48 -48 48 -117v-119q0 -43 17 -60q18 -18 56 -18h58
v-148z" />
    <glyph glyph-name="asciitilde" unicode="~" horiz-adv-x="646" 
d="M616 283q-51 -51 -93.5 -73.5t-93.5 -22.5q-65 0 -123 34q-43 25 -84 25q-47 0 -88 -41l-104 104q51 51 92.5 73.5t92.5 22.5q65 0 123 -34q43 -25 84 -25q47 0 88 41z" />
    <glyph glyph-name="uni00A0" unicode="&#xa0;" horiz-adv-x="222" 
 />
    <glyph glyph-name="exclamdown" unicode="&#xa1;" horiz-adv-x="366" 
d="M266 -174h-206l44 475h118zM247 377h-168v161h168v-161z" />
    <glyph glyph-name="cent" unicode="&#xa2;" horiz-adv-x="499" 
d="M481 174q-59 -59 -131 -76v-98h-126v98q-82 19 -134 86.5t-52 181.5t52 181.5t134 86.5v78h126v-78q72 -17 131 -76l-107 -107q-25 25 -44 33v-236q19 8 44 33zM244 250v232q-8 -6 -12 -10q-30 -32 -30 -106q0 -73 29 -105q8 -8 13 -11z" />
    <glyph glyph-name="sterling" unicode="&#xa3;" horiz-adv-x="597" 
d="M557 0h-462v278h-60v126h60v64q0 119 79.5 184.5t188.5 65.5q63 0 107 -17.5t87 -60.5l-115 -114q-36 36 -79 36t-68 -24.5t-25 -73.5v-60h93v-126h-93v-122h287v-156z" />
    <glyph glyph-name="currency" unicode="&#xa4;" horiz-adv-x="674" 
d="M627 114l-109 -109l-73 73q-54 -26 -108 -26t-108 26l-73 -73l-109 109l73 73q-26 54 -26 108t26 108l-73 73l109 109l73 -73q54 26 108 26t108 -26l73 73l109 -109l-73 -73q26 -54 26 -108t-26 -108zM432 295q0 39 -28 67t-67 28t-67 -28t-28 -67t28 -67t67 -28t67 28
t28 67z" />
    <glyph glyph-name="yen" unicode="&#xa5;" horiz-adv-x="605" 
d="M605 712l-125 -246h60v-126h-125l-25 -50v-50h150v-126h-150v-114h-175v114h-150v126h150v50l-25 50h-125v126h60l-125 246h191l112 -256l111 256h191z" />
    <glyph glyph-name="brokenbar" unicode="&#xa6;" horiz-adv-x="364" 
d="M264 436h-164v350h164v-350zM264 -74h-164v350h164v-350z" />
    <glyph glyph-name="section" unicode="&#xa7;" horiz-adv-x="516" 
d="M475 285q0 -46 -26 -83t-55 -57q71 -43 71 -135q0 -94 -62 -142t-144 -48q-39 0 -73.5 10t-65.5 30.5t-49 58.5t-18 88h156q0 -18 13.5 -31t36.5 -13q24 0 37 12t13 29q0 36 -59 58l-54 20q-81 30 -116 70t-35 121q0 47 26.5 84t56.5 56q-66 40 -66 126q0 73 49.5 126
t149.5 53q102 0 150.5 -51t48.5 -130h-152q0 42 -47 42q-23 0 -35 -10.5t-12 -24.5q0 -28 56 -48l54 -20q81 -30 116 -70t35 -121zM319 279q0 35 -20 53q-15 13 -39 13t-39 -13q-20 -18 -20 -53t20 -53q15 -13 39 -13t39 13q20 18 20 53z" />
    <glyph glyph-name="dieresis" unicode="&#xa8;" horiz-adv-x="500" 
d="M430 609h-134v145h134v-145zM204 609h-134v145h134v-145z" />
    <glyph glyph-name="copyright" unicode="&#xa9;" horiz-adv-x="822" 
d="M773 356q0 -150 -106 -256t-256 -106t-256 106t-106 256t106 256t256 106t256 -106t106 -256zM670 356q0 116 -73.5 190.5t-185.5 74.5t-185.5 -74.5t-73.5 -190.5t73.5 -190.5t185.5 -74.5t185.5 74.5t73.5 190.5zM552 216q-60 -52 -132 -52q-75 0 -128 48.5t-53 143.5
t53 143.5t128 48.5q72 0 132 -52l-67 -67q-33 27 -65 27q-36 0 -57 -25.5t-21 -74.5t21 -74.5t57 -25.5q32 0 65 27z" />
    <glyph glyph-name="ordfeminine" unicode="&#xaa;" horiz-adv-x="457" 
d="M407 283h-128v35q-39 -39 -96 -39q-63 0 -102 39q-38 38 -38 100q0 53 37 89t109 36h87v11q0 29 -15 41.5t-50 12.5q-24 0 -37.5 -6t-30.5 -23l-82 82q33 33 67 45t90 12q189 0 189 -156v-279zM276 444v12h-66q-19 0 -29.5 -9.5t-10.5 -24.5t11 -25t30 -10q37 0 52 15
q13 13 13 42z" />
    <glyph glyph-name="guillemotleft" unicode="&#xab;" horiz-adv-x="672" 
d="M303 9l-273 271l273 270v-193l-79 -77l79 -78v-193zM612 9l-273 271l273 270v-193l-81 -77l81 -78v-193z" />
    <glyph glyph-name="logicalnot" unicode="&#xac;" 
d="M513 88h-154v150h-316v154h470v-304z" />
    <glyph glyph-name="uni00AD" unicode="&#xad;" horiz-adv-x="426" 
d="M377 218h-328v154h328v-154z" />
    <glyph glyph-name="registered" unicode="&#xae;" horiz-adv-x="822" 
d="M773 356q0 -150 -106 -256t-256 -106t-256 106t-106 256t106 256t256 106t256 -106t106 -256zM670 356q0 116 -73.5 190.5t-185.5 74.5t-185.5 -74.5t-73.5 -190.5t73.5 -190.5t185.5 -74.5t185.5 74.5t73.5 190.5zM580 167h-117l-57 141h-31v-141h-103v378h169
q60 0 94.5 -36t34.5 -86q0 -67 -61 -98zM467 423q0 16 -11 27t-29 11h-52v-76h52q18 0 29 11t11 27z" />
    <glyph glyph-name="macron" unicode="&#xaf;" horiz-adv-x="500" 
d="M413 629h-326v105h326v-105z" />
    <glyph glyph-name="degree" unicode="&#xb0;" horiz-adv-x="486" 
d="M439 534q0 -81 -57.5 -138.5t-138.5 -57.5t-138.5 57.5t-57.5 138.5t57.5 138.5t138.5 57.5t138.5 -57.5t57.5 -138.5zM308 534q0 27 -19 46t-46 19t-46 -19t-19 -46t19 -46t46 -19t46 19t19 46z" />
    <glyph glyph-name="plusminus" unicode="&#xb1;" 
d="M507 371h-152v-152h-154v152h-152v154h152v152h154v-152h152v-154zM507 0h-458v154h458v-154z" />
    <glyph glyph-name="twosuperior" unicode="&#xb2;" horiz-adv-x="340" 
d="M316 285h-287v104l151 154q22 22 22 40q0 13 -8 21t-21 8q-28 0 -28 -30h-116q0 64 41.5 99t102.5 35q63 0 103 -35.5t40 -97.5q0 -34 -13.5 -57t-45.5 -54l-87 -83h146v-104z" />
    <glyph glyph-name="threesuperior" unicode="&#xb3;" horiz-adv-x="340" 
d="M320 416q0 -66 -42.5 -100.5t-105.5 -34.5q-61 0 -104 34t-43 106h115q0 -36 32 -36t32 35q0 14 -10 24t-23 10h-16v99h16q15 0 22.5 9.5t7.5 19.5q0 14 -8.5 22t-19.5 8q-12 0 -20 -8t-8 -23h-116q0 61 41.5 98t102.5 37q62 0 102.5 -37t40.5 -93q0 -49 -40 -80
q44 -41 44 -90z" />
    <glyph glyph-name="acute" unicode="&#xb4;" horiz-adv-x="500" 
d="M427 790l-101 -180h-117l65 180h153z" />
    <glyph glyph-name="mu" unicode="&#xb5;" horiz-adv-x="584" 
d="M522 0h-160v44q-50 -50 -125 -50h-11v-168h-164v712h164v-322q0 -41 21 -57.5t45 -16.5t45 16.5t21 57.5v322h164v-538z" />
    <glyph glyph-name="paragraph" unicode="&#xb6;" horiz-adv-x="707" 
d="M635 -174h-164v730h-90v-730h-164v472q-70 0 -128.5 60t-58.5 145q0 104 66 156.5t175 52.5h364v-886z" />
    <glyph glyph-name="periodcentered" unicode="&#xb7;" horiz-adv-x="294" 
d="M237 205h-180v180h180v-180z" />
    <glyph glyph-name="cedilla" unicode="&#xb8;" horiz-adv-x="500" 
d="M334 -53l-36 -144h-146l67 144h115z" />
    <glyph glyph-name="onesuperior" unicode="&#xb9;" horiz-adv-x="340" 
d="M258 285h-116v297l-95 -82v130l95 82h116v-427z" />
    <glyph glyph-name="ordmasculine" unicode="&#xba;" horiz-adv-x="466" 
d="M419 498q0 -64 -10.5 -100t-37.5 -65q-51 -55 -138 -55t-138 55q-27 29 -37.5 65t-10.5 100q0 63 10.5 99.5t37.5 65.5q51 55 138 55t138 -55q27 -29 37.5 -65.5t10.5 -99.5zM287 498q0 71 -19 90q-12 12 -35 12t-35 -12q-19 -19 -19 -90t19 -90q12 -12 35 -12t35 12
q19 19 19 90z" />
    <glyph glyph-name="guillemotright" unicode="&#xbb;" horiz-adv-x="672" 
d="M642 280l-273 -271v193l79 78l-79 77v193zM333 280l-273 -271v193l80 78l-80 77v193z" />
    <glyph glyph-name="onequarter" unicode="&#xbc;" horiz-adv-x="901" 
d="M258 285h-116v297l-95 -82v130l95 82h116v-427zM683 712l-339 -712h-126l339 712h126zM893 55h-26v-55h-114v55h-179v104l138 268h127l-141 -268h55v41h114v-41h26v-104z" />
    <glyph glyph-name="onehalf" unicode="&#xbd;" horiz-adv-x="901" 
d="M258 285h-116v297l-95 -82v130l95 82h116v-427zM683 712l-339 -712h-126l339 712h126zM877 0h-287v104l151 154q22 22 22 40q0 13 -8 21t-21 8q-28 0 -28 -30h-116q0 64 41.5 99t102.5 35q63 0 103 -35.5t40 -97.5q0 -34 -13.5 -57t-45.5 -54l-87 -83h146v-104z" />
    <glyph glyph-name="threequarters" unicode="&#xbe;" horiz-adv-x="901" 
d="M320 416q0 -66 -42.5 -100.5t-105.5 -34.5q-61 0 -104 34t-43 106h115q0 -36 32 -36t32 35q0 14 -10 24t-23 10h-16v99h16q15 0 22.5 9.5t7.5 19.5q0 14 -8.5 22t-19.5 8q-12 0 -20 -8t-8 -23h-116q0 61 41.5 98t102.5 37q62 0 102.5 -37t40.5 -93q0 -49 -40 -80
q44 -41 44 -90zM683 712l-339 -712h-126l339 712h126zM893 55h-26v-55h-114v55h-179v104l138 268h127l-141 -268h55v41h114v-41h26v-104z" />
    <glyph glyph-name="questiondown" unicode="&#xbf;" horiz-adv-x="538" 
d="M478 31q0 -98 -64.5 -154.5t-159.5 -56.5q-94 0 -159 55.5t-65 154.5q0 62 51 128l69 87q18 22 18 47v9h164v-23q0 -63 -41 -111l-70 -82q-27 -31 -27 -56q0 -27 15.5 -44t44.5 -17q60 0 60 63h164zM334 377h-168v161h168v-161z" />
    <glyph glyph-name="Agrave" unicode="&#xc0;" horiz-adv-x="653" 
d="M653 0h-183l-33 106h-219l-35 -106h-183l259 712h135zM391 252l-60 190l-64 -190h124zM393 782h-117l-101 180h153z" />
    <glyph glyph-name="Aacute" unicode="&#xc1;" horiz-adv-x="653" 
d="M653 0h-183l-33 106h-219l-35 -106h-183l259 712h135zM391 252l-60 190l-64 -190h124zM477 962l-101 -180h-117l65 180h153z" />
    <glyph glyph-name="Acircumflex" unicode="&#xc2;" horiz-adv-x="653" 
d="M653 0h-183l-33 106h-219l-35 -106h-183l259 712h135zM391 252l-60 190l-64 -190h124zM527 782h-122l-79 83l-79 -83h-122l136 179h130z" />
    <glyph glyph-name="Atilde" unicode="&#xc3;" horiz-adv-x="653" 
d="M653 0h-183l-33 106h-219l-35 -106h-183l259 712h135zM391 252l-60 190l-64 -190h124zM519 851q-34 -34 -61.5 -48.5t-61.5 -14.5q-44 0 -81 22q-29 17 -56 17q-31 0 -58 -27l-68 69q34 34 61 48.5t61 14.5q44 0 81 -22q29 -17 55 -17q31 0 58 27z" />
    <glyph glyph-name="Adieresis" unicode="&#xc4;" horiz-adv-x="653" 
d="M653 0h-183l-33 106h-219l-35 -106h-183l259 712h135zM391 252l-60 190l-64 -190h124zM506 781h-134v145h134v-145zM280 781h-134v145h134v-145z" />
    <glyph glyph-name="Aring" unicode="&#xc5;" horiz-adv-x="653" 
d="M653 0h-183l-33 106h-219l-35 -106h-183l259 712h135zM391 252l-60 190l-64 -190h124zM464 893q0 -57 -40.5 -97.5t-97.5 -40.5t-97.5 40.5t-40.5 97.5t40.5 97.5t97.5 40.5t97.5 -40t40.5 -98zM378 893q0 21 -15.5 36.5t-36.5 15.5t-36.5 -15.5t-15.5 -36.5t15.5 -36.5
t36.5 -15.5t36.5 15.5t15.5 36.5z" />
    <glyph glyph-name="AE" unicode="&#xc6;" horiz-adv-x="1013" 
d="M961 0h-484v149h-212l-77 -149h-188l370 712h591v-156h-309v-119h264v-156h-264v-125h309v-156zM477 295v261l-136 -261h136z" />
    <glyph glyph-name="Ccedilla" unicode="&#xc7;" horiz-adv-x="609" 
d="M589 226q-19 -114 -91.5 -173t-177.5 -59q-120 0 -198 78q-26 26 -42 56t-22 71t-7.5 70t-1.5 87t1.5 87t7.5 70t22 71t42 56q78 78 198 78q105 0 177.5 -59t91.5 -173h-178q-21 76 -91 76q-46 0 -69 -30q-14 -18 -20.5 -52.5t-6.5 -123.5t6.5 -123.5t20.5 -52.5
q23 -30 69 -30q70 0 91 76h178zM386 -53l-36 -144h-146l67 144h115z" />
    <glyph glyph-name="Egrave" unicode="&#xc8;" horiz-adv-x="608" 
d="M556 0h-484v712h484v-156h-309v-119h264v-156h-264v-125h309v-156zM375 782h-117l-101 180h153z" />
    <glyph glyph-name="Eacute" unicode="&#xc9;" horiz-adv-x="608" 
d="M556 0h-484v712h484v-156h-309v-119h264v-156h-264v-125h309v-156zM459 962l-101 -180h-117l65 180h153z" />
    <glyph glyph-name="Ecircumflex" unicode="&#xca;" horiz-adv-x="608" 
d="M556 0h-484v712h484v-156h-309v-119h264v-156h-264v-125h309v-156zM509 782h-122l-79 83l-79 -83h-122l136 179h130z" />
    <glyph glyph-name="Edieresis" unicode="&#xcb;" horiz-adv-x="608" 
d="M556 0h-484v712h484v-156h-309v-119h264v-156h-264v-125h309v-156zM488 781h-134v145h134v-145zM262 781h-134v145h134v-145z" />
    <glyph glyph-name="Igrave" unicode="&#xcc;" horiz-adv-x="319" 
d="M247 0h-175v712h175v-712zM227 782h-117l-101 180h153z" />
    <glyph glyph-name="Iacute" unicode="&#xcd;" horiz-adv-x="319" 
d="M247 0h-175v712h175v-712zM310 962l-101 -180h-117l65 180h153z" />
    <glyph glyph-name="Icircumflex" unicode="&#xce;" horiz-adv-x="319" 
d="M247 0h-175v712h175v-712zM362 782h-122l-79 83l-79 -83h-122l136 179h130z" />
    <glyph glyph-name="Idieresis" unicode="&#xcf;" horiz-adv-x="319" 
d="M247 0h-175v712h175v-712zM341 781h-134v145h134v-145zM115 781h-134v145h134v-145z" />
    <glyph glyph-name="Eth" unicode="&#xd0;" horiz-adv-x="679" 
d="M455 356q0 86 -4 115t-15 45q-27 40 -84 40h-77v-130h90v-134h-90v-136h77q57 0 84 40q11 16 15 45t4 115zM630 356q0 -106 -5.5 -151.5t-29.5 -84.5q-74 -120 -231 -120h-264v292h-65v134h65v286h264q157 0 231 -120q24 -39 29.5 -84.5t5.5 -151.5z" />
    <glyph glyph-name="Ntilde" unicode="&#xd1;" horiz-adv-x="700" 
d="M628 0h-153l-228 358v-358h-175v712h153l228 -358v358h175v-712zM543 851q-34 -34 -61.5 -48.5t-61.5 -14.5q-44 0 -81 22q-29 17 -56 17q-31 0 -58 -27l-68 69q34 34 61 48.5t61 14.5q44 0 81 -22q29 -17 55 -17q31 0 58 27z" />
    <glyph glyph-name="Ograve" unicode="&#xd2;" horiz-adv-x="640" 
d="M591 356q0 -58 -1.5 -87t-7.5 -70t-22 -71t-42 -56q-78 -78 -198 -78t-198 78q-26 26 -42 56t-22 71t-7.5 70t-1.5 87t1.5 87t7.5 70t22 71t42 56q78 78 198 78t198 -78q26 -26 42 -56t22 -71t7.5 -70t1.5 -87zM416 356q0 90 -6 123.5t-20 51.5q-24 31 -70 31t-70 -31
q-14 -18 -20 -51.5t-6 -123.5t6 -123t20 -51q24 -32 70 -32t70 32q14 18 20 51t6 123zM387 782h-117l-101 180h153z" />
    <glyph glyph-name="Oacute" unicode="&#xd3;" horiz-adv-x="640" 
d="M591 356q0 -58 -1.5 -87t-7.5 -70t-22 -71t-42 -56q-78 -78 -198 -78t-198 78q-26 26 -42 56t-22 71t-7.5 70t-1.5 87t1.5 87t7.5 70t22 71t42 56q78 78 198 78t198 -78q26 -26 42 -56t22 -71t7.5 -70t1.5 -87zM416 356q0 90 -6 123.5t-20 51.5q-24 31 -70 31t-70 -31
q-14 -18 -20 -51.5t-6 -123.5t6 -123t20 -51q24 -32 70 -32t70 32q14 18 20 51t6 123zM471 962l-101 -180h-117l65 180h153z" />
    <glyph glyph-name="Ocircumflex" unicode="&#xd4;" horiz-adv-x="640" 
d="M591 356q0 -58 -1.5 -87t-7.5 -70t-22 -71t-42 -56q-78 -78 -198 -78t-198 78q-26 26 -42 56t-22 71t-7.5 70t-1.5 87t1.5 87t7.5 70t22 71t42 56q78 78 198 78t198 -78q26 -26 42 -56t22 -71t7.5 -70t1.5 -87zM416 356q0 90 -6 123.5t-20 51.5q-24 31 -70 31t-70 -31
q-14 -18 -20 -51.5t-6 -123.5t6 -123t20 -51q24 -32 70 -32t70 32q14 18 20 51t6 123zM521 782h-122l-79 83l-79 -83h-122l136 179h130z" />
    <glyph glyph-name="Otilde" unicode="&#xd5;" horiz-adv-x="640" 
d="M591 356q0 -58 -1.5 -87t-7.5 -70t-22 -71t-42 -56q-78 -78 -198 -78t-198 78q-26 26 -42 56t-22 71t-7.5 70t-1.5 87t1.5 87t7.5 70t22 71t42 56q78 78 198 78t198 -78q26 -26 42 -56t22 -71t7.5 -70t1.5 -87zM416 356q0 90 -6 123.5t-20 51.5q-24 31 -70 31t-70 -31
q-14 -18 -20 -51.5t-6 -123.5t6 -123t20 -51q24 -32 70 -32t70 32q14 18 20 51t6 123zM513 851q-34 -34 -61.5 -48.5t-61.5 -14.5q-44 0 -81 22q-29 17 -56 17q-31 0 -58 -27l-68 69q34 34 61 48.5t61 14.5q44 0 81 -22q29 -17 55 -17q31 0 58 27z" />
    <glyph glyph-name="Odieresis" unicode="&#xd6;" horiz-adv-x="640" 
d="M591 356q0 -58 -1.5 -87t-7.5 -70t-22 -71t-42 -56q-78 -78 -198 -78t-198 78q-26 26 -42 56t-22 71t-7.5 70t-1.5 87t1.5 87t7.5 70t22 71t42 56q78 78 198 78t198 -78q26 -26 42 -56t22 -71t7.5 -70t1.5 -87zM416 356q0 90 -6 123.5t-20 51.5q-24 31 -70 31t-70 -31
q-14 -18 -20 -51.5t-6 -123.5t6 -123t20 -51q24 -32 70 -32t70 32q14 18 20 51t6 123zM500 781h-134v145h134v-145zM274 781h-134v145h134v-145z" />
    <glyph glyph-name="multiply" unicode="&#xd7;" 
d="M517 161l-104 -104l-135 135l-134 -135l-105 104l136 134l-136 135l104 104l134 -135l135 135l105 -104l-136 -135z" />
    <glyph glyph-name="Oslash" unicode="&#xd8;" horiz-adv-x="640" 
d="M591 356q0 -58 -1.5 -87t-7.5 -70t-22 -71t-42 -56q-78 -78 -198 -78q-60 0 -105 18l-27 -56h-118l55 113q-27 27 -43.5 57.5t-23 72t-8 70.5t-1.5 87t1.5 87t7.5 70t22 71t42 56q78 78 198 78q60 0 105 -18l27 56h118l-54 -114q27 -27 43 -57t22.5 -71.5t8 -70.5
t1.5 -87zM416 356q0 58 -3 93l-137 -288q19 -11 44 -11q46 0 70 32q14 18 20 51t6 123zM364 552q-20 10 -44 10q-46 0 -70 -31q-14 -18 -20 -51.5t-6 -123.5q0 -58 3 -93z" />
    <glyph glyph-name="Ugrave" unicode="&#xd9;" horiz-adv-x="660" 
d="M600 250q0 -114 -78.5 -185t-192.5 -71t-191.5 71t-77.5 185v462h175v-458q0 -49 25 -76.5t69 -27.5t70 27.5t26 76.5v458h175v-462zM397 782h-117l-101 180h153z" />
    <glyph glyph-name="Uacute" unicode="&#xda;" horiz-adv-x="660" 
d="M600 250q0 -114 -78.5 -185t-192.5 -71t-191.5 71t-77.5 185v462h175v-458q0 -49 25 -76.5t69 -27.5t70 27.5t26 76.5v458h175v-462zM481 962l-101 -180h-117l65 180h153z" />
    <glyph glyph-name="Ucircumflex" unicode="&#xdb;" horiz-adv-x="660" 
d="M600 250q0 -114 -78.5 -185t-192.5 -71t-191.5 71t-77.5 185v462h175v-458q0 -49 25 -76.5t69 -27.5t70 27.5t26 76.5v458h175v-462zM531 782h-122l-79 83l-79 -83h-122l136 179h130z" />
    <glyph glyph-name="Udieresis" unicode="&#xdc;" horiz-adv-x="660" 
d="M600 250q0 -114 -78.5 -185t-192.5 -71t-191.5 71t-77.5 185v462h175v-458q0 -49 25 -76.5t69 -27.5t70 27.5t26 76.5v458h175v-462zM510 781h-134v145h134v-145zM284 781h-134v145h134v-145z" />
    <glyph glyph-name="Yacute" unicode="&#xdd;" horiz-adv-x="605" 
d="M605 712l-215 -422v-290h-175v290l-215 422h191l112 -256l111 256h191zM453 962l-101 -180h-117l65 180h153z" />
    <glyph glyph-name="Thorn" unicode="&#xde;" horiz-adv-x="627" 
d="M597 360q0 -94 -65 -161.5t-178 -67.5h-107v-131h-175v712h175v-123h107q113 0 178 -67.5t65 -161.5zM422 360q0 29 -21 50.5t-55 21.5h-99v-144h99q34 0 55 21.5t21 50.5z" />
    <glyph glyph-name="germandbls" unicode="&#xdf;" horiz-adv-x="584" 
d="M534 173q0 -85 -42 -128q-45 -45 -138 -45h-52v138h19q23 0 35 12q13 12 13 36v129q0 23 -12 35q-12 13 -36 13h-19v126h23q44 0 44 42q0 19 -12 29q-17 15 -55 15q-42 0 -58.5 -17t-16.5 -53v-505h-165v519q0 104 65.5 151.5t174.5 47.5q107 0 169.5 -45t62.5 -136
q0 -74 -61 -109q61 -30 61 -103v-152z" />
    <glyph glyph-name="agrave" unicode="&#xe0;" horiz-adv-x="536" 
d="M483 0h-160v44q-26 -26 -52.5 -37.5t-67.5 -11.5q-81 0 -129 48q-47 47 -47 126q0 66 47 111t139 45h106v14q0 36 -19 51.5t-62 15.5q-47 0 -85 -38l-102 102q41 41 84 57.5t111 16.5q237 0 237 -195v-349zM319 202v14h-78q-57 0 -57 -44q0 -20 15 -32t44 -12q37 0 59 19
q17 16 17 55zM332 610h-117l-101 180h153z" />
    <glyph glyph-name="aacute" unicode="&#xe1;" horiz-adv-x="536" 
d="M483 0h-160v44q-26 -26 -52.5 -37.5t-67.5 -11.5q-81 0 -129 48q-47 47 -47 126q0 66 47 111t139 45h106v14q0 36 -19 51.5t-62 15.5q-47 0 -85 -38l-102 102q41 41 84 57.5t111 16.5q237 0 237 -195v-349zM319 202v14h-78q-57 0 -57 -44q0 -20 15 -32t44 -12q37 0 59 19
q17 16 17 55zM418 790l-101 -180h-117l65 180h153z" />
    <glyph glyph-name="acircumflex" unicode="&#xe2;" horiz-adv-x="536" 
d="M483 0h-160v44q-26 -26 -52.5 -37.5t-67.5 -11.5q-81 0 -129 48q-47 47 -47 126q0 66 47 111t139 45h106v14q0 36 -19 51.5t-62 15.5q-47 0 -85 -38l-102 102q41 41 84 57.5t111 16.5q237 0 237 -195v-349zM319 202v14h-78q-57 0 -57 -44q0 -20 15 -32t44 -12q37 0 59 19
q17 16 17 55zM467 610h-122l-79 83l-79 -83h-122l136 179h130z" />
    <glyph glyph-name="atilde" unicode="&#xe3;" horiz-adv-x="536" 
d="M483 0h-160v44q-26 -26 -52.5 -37.5t-67.5 -11.5q-81 0 -129 48q-47 47 -47 126q0 66 47 111t139 45h106v14q0 36 -19 51.5t-62 15.5q-47 0 -85 -38l-102 102q41 41 84 57.5t111 16.5q237 0 237 -195v-349zM319 202v14h-78q-57 0 -57 -44q0 -20 15 -32t44 -12q37 0 59 19
q17 16 17 55zM459 679q-34 -34 -61.5 -48.5t-61.5 -14.5q-44 0 -81 22q-29 17 -56 17q-31 0 -58 -27l-68 69q34 34 61 48.5t61 14.5q44 0 81 -22q29 -17 55 -17q31 0 58 27z" />
    <glyph glyph-name="adieresis" unicode="&#xe4;" horiz-adv-x="536" 
d="M483 0h-160v44q-26 -26 -52.5 -37.5t-67.5 -11.5q-81 0 -129 48q-47 47 -47 126q0 66 47 111t139 45h106v14q0 36 -19 51.5t-62 15.5q-47 0 -85 -38l-102 102q41 41 84 57.5t111 16.5q237 0 237 -195v-349zM319 202v14h-78q-57 0 -57 -44q0 -20 15 -32t44 -12q37 0 59 19
q17 16 17 55zM220 609h-134v145h134v-145zM446 609h-134v145h134v-145z" />
    <glyph glyph-name="aring" unicode="&#xe5;" horiz-adv-x="536" 
d="M483 0h-160v44q-26 -26 -52.5 -37.5t-67.5 -11.5q-81 0 -129 48q-47 47 -47 126q0 66 47 111t139 45h106v14q0 36 -19 51.5t-62 15.5q-47 0 -85 -38l-102 102q41 41 84 57.5t111 16.5q237 0 237 -195v-349zM319 202v14h-78q-57 0 -57 -44q0 -20 15 -32t44 -12q37 0 59 19
q17 16 17 55zM404 731q0 -57 -40.5 -97.5t-97.5 -40.5t-97.5 40.5t-40.5 97.5t40.5 97.5t97.5 40.5t97.5 -40t40.5 -98zM318 731q0 21 -15.5 36.5t-36.5 15.5t-36.5 -15.5t-15.5 -36.5t15.5 -36.5t36.5 -15.5t36.5 15.5t15.5 36.5z" />
    <glyph glyph-name="ae" unicode="&#xe6;" horiz-adv-x="840" 
d="M802 216h-322q0 -35 25.5 -59.5t69.5 -24.5q40 0 63.5 10.5t47.5 34.5l98 -98q-44 -44 -91 -64.5t-118 -20.5q-123 0 -188 65q-45 -41 -85 -53t-99 -12q-80 0 -129 49q-47 47 -47 126q0 66 47 111t139 45h106v14q0 36 -19 51.5t-62 15.5q-47 0 -85 -38l-102 102
q41 41 84 57.5t111 16.5q112 0 170 -45q58 45 144 45q114 0 178 -72.5t64 -187.5v-68zM640 325q0 23 -9 42q-19 42 -71 42t-71 -42q-9 -19 -9 -42h160zM319 202v14h-78q-57 0 -57 -44q0 -20 15 -32t44 -12q37 0 59 19q17 16 17 55z" />
    <glyph glyph-name="ccedilla" unicode="&#xe7;" horiz-adv-x="475" 
d="M457 63q-69 -69 -177 -69q-32 0 -61.5 5.5t-63.5 23.5t-59 47t-41.5 80.5t-16.5 118.5t16.5 118.5t41.5 80.5t59 47t63.5 23.5t61.5 5.5q108 0 177 -69l-111 -111q-32 32 -66 32q-30 0 -51 -21q-27 -28 -27 -106t27 -106q21 -21 51 -21q34 0 66 32zM334 -53l-36 -144
h-146l67 144h115z" />
    <glyph glyph-name="egrave" unicode="&#xe8;" horiz-adv-x="559" 
d="M521 216h-322q0 -35 25.5 -59.5t69.5 -24.5q40 0 63.5 10.5t47.5 34.5l98 -98q-44 -44 -91 -64.5t-118 -20.5q-256 0 -256 275q0 129 66.5 202t174.5 73q114 0 178 -72.5t64 -187.5v-68zM359 325q0 23 -9 42q-19 42 -71 42t-71 -42q-9 -19 -9 -42h160zM349 610h-117
l-101 180h153z" />
    <glyph glyph-name="eacute" unicode="&#xe9;" horiz-adv-x="559" 
d="M521 216h-322q0 -35 25.5 -59.5t69.5 -24.5q40 0 63.5 10.5t47.5 34.5l98 -98q-44 -44 -91 -64.5t-118 -20.5q-256 0 -256 275q0 129 66.5 202t174.5 73q114 0 178 -72.5t64 -187.5v-68zM359 325q0 23 -9 42q-19 42 -71 42t-71 -42q-9 -19 -9 -42h160zM435 790l-101 -180
h-117l65 180h153z" />
    <glyph glyph-name="ecircumflex" unicode="&#xea;" horiz-adv-x="559" 
d="M521 216h-322q0 -35 25.5 -59.5t69.5 -24.5q40 0 63.5 10.5t47.5 34.5l98 -98q-44 -44 -91 -64.5t-118 -20.5q-256 0 -256 275q0 129 66.5 202t174.5 73q114 0 178 -72.5t64 -187.5v-68zM359 325q0 23 -9 42q-19 42 -71 42t-71 -42q-9 -19 -9 -42h160zM484 610h-122
l-79 83l-79 -83h-122l136 179h130z" />
    <glyph glyph-name="edieresis" unicode="&#xeb;" horiz-adv-x="559" 
d="M521 216h-322q0 -35 25.5 -59.5t69.5 -24.5q40 0 63.5 10.5t47.5 34.5l98 -98q-44 -44 -91 -64.5t-118 -20.5q-256 0 -256 275q0 129 66.5 202t174.5 73q114 0 178 -72.5t64 -187.5v-68zM359 325q0 23 -9 42q-19 42 -71 42t-71 -42q-9 -19 -9 -42h160zM237 609h-134v145
h134v-145zM463 609h-134v145h134v-145z" />
    <glyph glyph-name="igrave" unicode="&#xec;" horiz-adv-x="288" 
d="M226 0h-164v517h164v-517zM226 610h-117l-101 180h153z" />
    <glyph glyph-name="iacute" unicode="&#xed;" horiz-adv-x="288" 
d="M226 0h-164v517h164v-517zM280 790l-101 -180h-117l65 180h153z" />
    <glyph glyph-name="icircumflex" unicode="&#xee;" horiz-adv-x="288" 
d="M226 0h-164v517h164v-517zM347 610h-122l-79 83l-79 -83h-122l136 179h130z" />
    <glyph glyph-name="idieresis" unicode="&#xef;" horiz-adv-x="288" 
d="M226 0h-164v517h164v-517zM100 609h-134v145h134v-145zM326 609h-134v145h134v-145z" />
    <glyph glyph-name="eth" unicode="&#xf0;" horiz-adv-x="550" 
d="M499 259q0 -77 -12 -120.5t-45 -78.5q-62 -66 -167 -66t-167 66q-33 35 -45 78.5t-12 120.5t12 120.5t45 78.5q27 29 69 47q37 17 77 18l-20 40h-113v114h57l-22 46h176l22 -46h97v-114h-41l26 -57q37 -82 50 -128t13 -119zM335 259q0 82 -21 103q-14 14 -39 14t-39 -14
q-21 -21 -21 -103t21 -103q14 -14 39 -14t39 14q21 21 21 103z" />
    <glyph glyph-name="ntilde" unicode="&#xf1;" horiz-adv-x="579" 
d="M522 0h-164v322q0 41 -21 57.5t-45 16.5t-45 -16.5t-21 -57.5v-322h-164v538h160v-44q50 50 125 50t121 -46q54 -54 54 -154v-344zM485 679q-34 -34 -61.5 -48.5t-61.5 -14.5q-44 0 -81 22q-29 17 -56 17q-31 0 -58 -27l-68 69q34 34 61 48.5t61 14.5q44 0 81 -22
q29 -17 55 -17q31 0 58 27z" />
    <glyph glyph-name="ograve" unicode="&#xf2;" horiz-adv-x="550" 
d="M507 269q0 -80 -12.5 -124.5t-46.5 -81.5q-65 -69 -173 -69t-173 69q-34 37 -46.5 81.5t-12.5 124.5q0 79 13 124.5t46 81.5q65 69 173 69t173 -69q33 -36 46 -81.5t13 -124.5zM343 269q0 88 -24 112q-15 15 -44 15t-44 -15q-24 -24 -24 -112t24 -112q15 -15 44 -15
t44 15q24 24 24 112zM341 610h-117l-101 180h153z" />
    <glyph glyph-name="oacute" unicode="&#xf3;" horiz-adv-x="550" 
d="M507 269q0 -80 -12.5 -124.5t-46.5 -81.5q-65 -69 -173 -69t-173 69q-34 37 -46.5 81.5t-12.5 124.5q0 79 13 124.5t46 81.5q65 69 173 69t173 -69q33 -36 46 -81.5t13 -124.5zM343 269q0 88 -24 112q-15 15 -44 15t-44 -15q-24 -24 -24 -112t24 -112q15 -15 44 -15
t44 15q24 24 24 112zM427 790l-101 -180h-117l65 180h153z" />
    <glyph glyph-name="ocircumflex" unicode="&#xf4;" horiz-adv-x="550" 
d="M507 269q0 -80 -12.5 -124.5t-46.5 -81.5q-65 -69 -173 -69t-173 69q-34 37 -46.5 81.5t-12.5 124.5q0 79 13 124.5t46 81.5q65 69 173 69t173 -69q33 -36 46 -81.5t13 -124.5zM343 269q0 88 -24 112q-15 15 -44 15t-44 -15q-24 -24 -24 -112t24 -112q15 -15 44 -15
t44 15q24 24 24 112zM476 610h-122l-79 83l-79 -83h-122l136 179h130z" />
    <glyph glyph-name="otilde" unicode="&#xf5;" horiz-adv-x="550" 
d="M507 269q0 -80 -12.5 -124.5t-46.5 -81.5q-65 -69 -173 -69t-173 69q-34 37 -46.5 81.5t-12.5 124.5q0 79 13 124.5t46 81.5q65 69 173 69t173 -69q33 -36 46 -81.5t13 -124.5zM343 269q0 88 -24 112q-15 15 -44 15t-44 -15q-24 -24 -24 -112t24 -112q15 -15 44 -15
t44 15q24 24 24 112zM468 679q-34 -34 -61.5 -48.5t-61.5 -14.5q-44 0 -81 22q-29 17 -56 17q-31 0 -58 -27l-68 69q34 34 61 48.5t61 14.5q44 0 81 -22q29 -17 55 -17q31 0 58 27z" />
    <glyph glyph-name="odieresis" unicode="&#xf6;" horiz-adv-x="550" 
d="M507 269q0 -80 -12.5 -124.5t-46.5 -81.5q-65 -69 -173 -69t-173 69q-34 37 -46.5 81.5t-12.5 124.5q0 79 13 124.5t46 81.5q65 69 173 69t173 -69q33 -36 46 -81.5t13 -124.5zM343 269q0 88 -24 112q-15 15 -44 15t-44 -15q-24 -24 -24 -112t24 -112q15 -15 44 -15
t44 15q24 24 24 112zM229 609h-134v145h134v-145zM455 609h-134v145h134v-145z" />
    <glyph glyph-name="divide" unicode="&#xf7;" 
d="M356 0h-156v156h156v-156zM513 218h-470v154h470v-154zM356 434h-156v156h156v-156z" />
    <glyph glyph-name="oslash" unicode="&#xf8;" horiz-adv-x="550" 
d="M507 269q0 -80 -12.5 -124.5t-46.5 -81.5q-65 -69 -173 -69q-57 0 -104 20l-34 -58h-93l61 104q-40 42 -51 88t-11 121q0 79 13 124.5t46 81.5q65 69 173 69q57 0 104 -20l34 58h93l-61 -104q39 -42 50.5 -89t11.5 -120zM343 269q0 36 -2 50l-100 -170q13 -7 34 -7
q29 0 44 15q24 24 24 112zM309 389q-13 7 -34 7q-29 0 -44 -15q-24 -24 -24 -112q0 -36 2 -50z" />
    <glyph glyph-name="ugrave" unicode="&#xf9;" horiz-adv-x="579" 
d="M517 0h-160v44q-50 -50 -125 -50t-121 46q-54 54 -54 154v344h164v-322q0 -41 21 -57.5t45 -16.5t45 16.5t21 57.5v322h164v-538zM353 610h-117l-101 180h153z" />
    <glyph glyph-name="uacute" unicode="&#xfa;" horiz-adv-x="579" 
d="M517 0h-160v44q-50 -50 -125 -50t-121 46q-54 54 -54 154v344h164v-322q0 -41 21 -57.5t45 -16.5t45 16.5t21 57.5v322h164v-538zM439 790l-101 -180h-117l65 180h153z" />
    <glyph glyph-name="ucircumflex" unicode="&#xfb;" horiz-adv-x="579" 
d="M517 0h-160v44q-50 -50 -125 -50t-121 46q-54 54 -54 154v344h164v-322q0 -41 21 -57.5t45 -16.5t45 16.5t21 57.5v322h164v-538zM488 610h-122l-79 83l-79 -83h-122l136 179h130z" />
    <glyph glyph-name="udieresis" unicode="&#xfc;" horiz-adv-x="579" 
d="M517 0h-160v44q-50 -50 -125 -50t-121 46q-54 54 -54 154v344h164v-322q0 -41 21 -57.5t45 -16.5t45 16.5t21 57.5v322h164v-538zM241 609h-134v145h134v-145zM467 609h-134v145h134v-145z" />
    <glyph glyph-name="yacute" unicode="&#xfd;" horiz-adv-x="514" 
d="M522 538l-223 -602q-16 -45 -42 -71q-42 -45 -121 -45h-62v148h35q23 0 35 8t20 32l15 45l-179 485h172l91 -279l87 279h172zM414 790l-101 -180h-117l65 180h153z" />
    <glyph glyph-name="thorn" unicode="&#xfe;" horiz-adv-x="571" 
d="M526 269q0 -59 -2 -91t-14 -71.5t-35 -63.5q-47 -49 -129 -49q-75 0 -120 45v-213h-164v886h164v-213q45 45 120 45q82 0 129 -49q23 -24 35 -63.5t14 -71.5t2 -91zM362 269q0 67 -13 97t-55 30t-55 -30t-13 -97t13 -97t55 -30t55 30t13 97z" />
    <glyph glyph-name="ydieresis" unicode="&#xff;" horiz-adv-x="514" 
d="M522 538l-223 -602q-16 -45 -42 -71q-42 -45 -121 -45h-62v148h35q23 0 35 8t20 32l15 45l-179 485h172l91 -279l87 279h172zM216 609h-134v145h134v-145zM442 609h-134v145h134v-145z" />
    <glyph glyph-name="Amacron" unicode="&#x100;" horiz-adv-x="653" 
d="M653 0h-183l-33 106h-219l-35 -106h-183l259 712h135zM391 252l-60 190l-64 -190h124zM489 791h-326v105h326v-105z" />
    <glyph glyph-name="amacron" unicode="&#x101;" horiz-adv-x="536" 
d="M483 0h-160v44q-26 -26 -52.5 -37.5t-67.5 -11.5q-81 0 -129 48q-47 47 -47 126q0 66 47 111t139 45h106v14q0 36 -19 51.5t-62 15.5q-47 0 -85 -38l-102 102q41 41 84 57.5t111 16.5q237 0 237 -195v-349zM319 202v14h-78q-57 0 -57 -44q0 -20 15 -32t44 -12q37 0 59 19
q17 16 17 55zM429 629h-326v105h326v-105z" />
    <glyph glyph-name="Abreve" unicode="&#x102;" horiz-adv-x="653" 
d="M653 0h-183l-33 106h-219l-35 -106h-183l259 712h135zM391 252l-60 190l-64 -190h124zM490 931q-2 -82 -50 -119.5t-114 -37.5t-114 37.5t-50 119.5h106q4 -47 58 -47t58 47h106z" />
    <glyph glyph-name="abreve" unicode="&#x103;" horiz-adv-x="536" 
d="M483 0h-160v44q-26 -26 -52.5 -37.5t-67.5 -11.5q-81 0 -129 48q-47 47 -47 126q0 66 47 111t139 45h106v14q0 36 -19 51.5t-62 15.5q-47 0 -85 -38l-102 102q41 41 84 57.5t111 16.5q237 0 237 -195v-349zM319 202v14h-78q-57 0 -57 -44q0 -20 15 -32t44 -12q37 0 59 19
q17 16 17 55zM430 759q-2 -82 -50 -119.5t-114 -37.5t-114 37.5t-50 119.5h106q4 -47 58 -47t58 47h106z" />
    <glyph glyph-name="Aogonek" unicode="&#x104;" horiz-adv-x="653" 
d="M653 0h-183l-33 106h-219l-35 -106h-183l259 712h135zM391 252l-60 190l-64 -190h124zM585 -56l-36 -144h-146l67 144h115z" />
    <glyph glyph-name="aogonek" unicode="&#x105;" horiz-adv-x="536" 
d="M483 0h-160v44q-26 -26 -52.5 -37.5t-67.5 -11.5q-81 0 -129 48q-47 47 -47 126q0 66 47 111t139 45h106v14q0 36 -19 51.5t-62 15.5q-47 0 -85 -38l-102 102q41 41 84 57.5t111 16.5q237 0 237 -195v-349zM319 202v14h-78q-57 0 -57 -44q0 -20 15 -32t44 -12q37 0 59 19
q17 16 17 55zM438 -56l-36 -144h-146l67 144h115z" />
    <glyph glyph-name="Cacute" unicode="&#x106;" horiz-adv-x="609" 
d="M589 226q-19 -114 -91.5 -173t-177.5 -59q-120 0 -198 78q-26 26 -42 56t-22 71t-7.5 70t-1.5 87t1.5 87t7.5 70t22 71t42 56q78 78 198 78q105 0 177.5 -59t91.5 -173h-178q-21 76 -91 76q-46 0 -69 -30q-14 -18 -20.5 -52.5t-6.5 -123.5t6.5 -123.5t20.5 -52.5
q23 -30 69 -30q70 0 91 76h178zM455 962l-101 -180h-117l65 180h153z" />
    <glyph glyph-name="cacute" unicode="&#x107;" horiz-adv-x="475" 
d="M457 63q-69 -69 -177 -69q-32 0 -61.5 5.5t-63.5 23.5t-59 47t-41.5 80.5t-16.5 118.5t16.5 118.5t41.5 80.5t59 47t63.5 23.5t61.5 5.5q108 0 177 -69l-111 -111q-32 32 -66 32q-30 0 -51 -21q-27 -28 -27 -106t27 -106q21 -21 51 -21q34 0 66 32zM427 790l-101 -180
h-117l65 180h153z" />
    <glyph glyph-name="Ccircumflex" unicode="&#x108;" horiz-adv-x="609" 
d="M589 226q-19 -114 -91.5 -173t-177.5 -59q-120 0 -198 78q-26 26 -42 56t-22 71t-7.5 70t-1.5 87t1.5 87t7.5 70t22 71t42 56q78 78 198 78q105 0 177.5 -59t91.5 -173h-178q-21 76 -91 76q-46 0 -69 -30q-14 -18 -20.5 -52.5t-6.5 -123.5t6.5 -123.5t20.5 -52.5
q23 -30 69 -30q70 0 91 76h178zM520 782h-122l-79 83l-79 -83h-122l136 179h130z" />
    <glyph glyph-name="ccircumflex" unicode="&#x109;" horiz-adv-x="475" 
d="M457 63q-69 -69 -177 -69q-32 0 -61.5 5.5t-63.5 23.5t-59 47t-41.5 80.5t-16.5 118.5t16.5 118.5t41.5 80.5t59 47t63.5 23.5t61.5 5.5q108 0 177 -69l-111 -111q-32 32 -66 32q-30 0 -51 -21q-27 -28 -27 -106t27 -106q21 -21 51 -21q34 0 66 32zM481 610h-122l-79 83
l-79 -83h-122l136 179h130z" />
    <glyph glyph-name="Cdotaccent" unicode="&#x10a;" horiz-adv-x="609" 
d="M589 226q-19 -114 -91.5 -173t-177.5 -59q-120 0 -198 78q-26 26 -42 56t-22 71t-7.5 70t-1.5 87t1.5 87t7.5 70t22 71t42 56q78 78 198 78q105 0 177.5 -59t91.5 -173h-178q-21 76 -91 76q-46 0 -69 -30q-14 -18 -20.5 -52.5t-6.5 -123.5t6.5 -123.5t20.5 -52.5
q23 -30 69 -30q70 0 91 76h178zM386 785h-138v138h138v-138z" />
    <glyph glyph-name="cdotaccent" unicode="&#x10b;" horiz-adv-x="475" 
d="M457 63q-69 -69 -177 -69q-32 0 -61.5 5.5t-63.5 23.5t-59 47t-41.5 80.5t-16.5 118.5t16.5 118.5t41.5 80.5t59 47t63.5 23.5t61.5 5.5q108 0 177 -69l-111 -111q-32 32 -66 32q-30 0 -51 -21q-27 -28 -27 -106t27 -106q21 -21 51 -21q34 0 66 32zM349 613h-138v138h138
v-138z" />
    <glyph glyph-name="Ccaron" unicode="&#x10c;" horiz-adv-x="609" 
d="M589 226q-19 -114 -91.5 -173t-177.5 -59q-120 0 -198 78q-26 26 -42 56t-22 71t-7.5 70t-1.5 87t1.5 87t7.5 70t22 71t42 56q78 78 198 78q105 0 177.5 -59t91.5 -173h-178q-21 76 -91 76q-46 0 -69 -30q-14 -18 -20.5 -52.5t-6.5 -123.5t6.5 -123.5t20.5 -52.5
q23 -30 69 -30q70 0 91 76h178zM520 961l-136 -179h-130l-136 179h122l79 -83l79 83h122z" />
    <glyph glyph-name="ccaron" unicode="&#x10d;" horiz-adv-x="475" 
d="M457 63q-69 -69 -177 -69q-32 0 -61.5 5.5t-63.5 23.5t-59 47t-41.5 80.5t-16.5 118.5t16.5 118.5t41.5 80.5t59 47t63.5 23.5t61.5 5.5q108 0 177 -69l-111 -111q-32 32 -66 32q-30 0 -51 -21q-27 -28 -27 -106t27 -106q21 -21 51 -21q34 0 66 32zM481 789l-136 -179
h-130l-136 179h122l79 -83l79 83h122z" />
    <glyph glyph-name="Dcaron" unicode="&#x10e;" horiz-adv-x="651" 
d="M602 356q0 -106 -5.5 -151.5t-29.5 -84.5q-74 -120 -231 -120h-264v712h264q157 0 231 -120q24 -39 29.5 -84.5t5.5 -151.5zM427 356q0 86 -4 115t-15 45q-27 40 -84 40h-77v-400h77q57 0 84 40q11 16 15 45t4 115zM526 961l-136 -179h-130l-136 179h122l79 -83l79 83
h122z" />
    <glyph glyph-name="dcaron" unicode="&#x10f;" horiz-adv-x="569" 
d="M526 0h-159v44q-50 -50 -124 -50q-83 0 -130 49q-23 24 -35 63.5t-14 71.5t-2 91t2 91t14 71.5t35 63.5q47 49 129 49q75 0 120 -45v213h164v-712zM362 269q0 67 -13 97t-55 30t-55 -30t-13 -97t13 -97t55 -30t55 30t13 97zM739 753l-64 -173h-110l34 173h140z" />
    <glyph glyph-name="Dcroat" unicode="&#x110;" horiz-adv-x="679" 
d="M455 356q0 86 -4 115t-15 45q-27 40 -84 40h-77v-130h90v-134h-90v-136h77q57 0 84 40q11 16 15 45t4 115zM630 356q0 -106 -5.5 -151.5t-29.5 -84.5q-74 -120 -231 -120h-264v292h-65v134h65v286h264q157 0 231 -120q24 -39 29.5 -84.5t5.5 -151.5z" />
    <glyph glyph-name="dcroat" unicode="&#x111;" horiz-adv-x="597" 
d="M507 0h-159v44q-50 -50 -124 -50q-83 0 -130 49q-23 24 -35 63.5t-14 71.5t-2 91t2 91t14 71.5t35 63.5q47 49 129 49q75 0 120 -45v65h-68v102h68v46h164v-46h44v-102h-44v-564zM343 269q0 67 -13 97t-55 30t-55 -30t-13 -97t13 -97t55 -30t55 30t13 97z" />
    <glyph glyph-name="Emacron" unicode="&#x112;" horiz-adv-x="608" 
d="M556 0h-484v712h484v-156h-309v-119h264v-156h-264v-125h309v-156zM467 791h-326v105h326v-105z" />
    <glyph glyph-name="emacron" unicode="&#x113;" horiz-adv-x="559" 
d="M521 216h-322q0 -35 25.5 -59.5t69.5 -24.5q40 0 63.5 10.5t47.5 34.5l98 -98q-44 -44 -91 -64.5t-118 -20.5q-256 0 -256 275q0 129 66.5 202t174.5 73q114 0 178 -72.5t64 -187.5v-68zM359 325q0 23 -9 42q-19 42 -71 42t-71 -42q-9 -19 -9 -42h160zM446 629h-326v105
h326v-105z" />
    <glyph glyph-name="Ebreve" unicode="&#x114;" horiz-adv-x="608" 
d="M556 0h-484v712h484v-156h-309v-119h264v-156h-264v-125h309v-156zM473 931q-2 -82 -50 -119.5t-114 -37.5t-114 37.5t-50 119.5h106q4 -47 58 -47t58 47h106z" />
    <glyph glyph-name="ebreve" unicode="&#x115;" horiz-adv-x="559" 
d="M521 216h-322q0 -35 25.5 -59.5t69.5 -24.5q40 0 63.5 10.5t47.5 34.5l98 -98q-44 -44 -91 -64.5t-118 -20.5q-256 0 -256 275q0 129 66.5 202t174.5 73q114 0 178 -72.5t64 -187.5v-68zM359 325q0 23 -9 42q-19 42 -71 42t-71 -42q-9 -19 -9 -42h160zM447 759
q-2 -82 -50 -119.5t-114 -37.5t-114 37.5t-50 119.5h106q4 -47 58 -47t58 47h106z" />
    <glyph glyph-name="Edotaccent" unicode="&#x116;" horiz-adv-x="608" 
d="M556 0h-484v712h484v-156h-309v-119h264v-156h-264v-125h309v-156zM373 785h-138v138h138v-138z" />
    <glyph glyph-name="edotaccent" unicode="&#x117;" horiz-adv-x="559" 
d="M521 216h-322q0 -35 25.5 -59.5t69.5 -24.5q40 0 63.5 10.5t47.5 34.5l98 -98q-44 -44 -91 -64.5t-118 -20.5q-256 0 -256 275q0 129 66.5 202t174.5 73q114 0 178 -72.5t64 -187.5v-68zM359 325q0 23 -9 42q-19 42 -71 42t-71 -42q-9 -19 -9 -42h160zM352 613h-138v138
h138v-138z" />
    <glyph glyph-name="Eogonek" unicode="&#x118;" horiz-adv-x="608" 
d="M556 0h-484v712h484v-156h-309v-119h264v-156h-264v-125h309v-156zM556 -56l-36 -144h-146l67 144h115z" />
    <glyph glyph-name="eogonek" unicode="&#x119;" horiz-adv-x="559" 
d="M521 216h-322q0 -35 25.5 -59.5t69.5 -24.5q40 0 63.5 10.5t47.5 34.5l98 -98q-44 -44 -91 -64.5t-118 -20.5q-256 0 -256 275q0 129 66.5 202t174.5 73q114 0 178 -72.5t64 -187.5v-68zM359 325q0 23 -9 42q-19 42 -71 42t-71 -42q-9 -19 -9 -42h160zM430 -56l-36 -144
h-146l67 144h115z" />
    <glyph glyph-name="Ecaron" unicode="&#x11a;" horiz-adv-x="608" 
d="M556 0h-484v712h484v-156h-309v-119h264v-156h-264v-125h309v-156zM505 961l-136 -179h-130l-136 179h122l79 -83l79 83h122z" />
    <glyph glyph-name="ecaron" unicode="&#x11b;" horiz-adv-x="559" 
d="M521 216h-322q0 -35 25.5 -59.5t69.5 -24.5q40 0 63.5 10.5t47.5 34.5l98 -98q-44 -44 -91 -64.5t-118 -20.5q-256 0 -256 275q0 129 66.5 202t174.5 73q114 0 178 -72.5t64 -187.5v-68zM359 325q0 23 -9 42q-19 42 -71 42t-71 -42q-9 -19 -9 -42h160zM481 789l-136 -179
h-130l-136 179h122l79 -83l79 83h122z" />
    <glyph glyph-name="Gcircumflex" unicode="&#x11c;" horiz-adv-x="647" 
d="M598 311q0 -88 -16 -142t-56 -95q-77 -80 -207 -80q-119 0 -197 78q-26 26 -42 56t-22 71t-7.5 70t-1.5 87t1.5 87t7.5 70t22 71t42 56q78 78 197 78q127 0 195 -68t83 -168h-176q-11 42 -34.5 61t-67.5 19q-45 0 -69 -31q-14 -18 -20 -51.5t-6 -123.5t6 -124t20 -52
q23 -30 69 -30q52 0 78 28q27 27 27 76v10h-105v146h279v-99zM520 782h-122l-79 83l-79 -83h-122l136 179h130z" />
    <glyph glyph-name="gcircumflex" unicode="&#x11d;" horiz-adv-x="561" 
d="M499 39q0 -96 -67 -157.5t-176 -61.5q-67 0 -115 15.5t-87 54.5l102 102q34 -34 92 -34q47 0 67 25t20 57v39q-45 -45 -116 -45q-78 0 -126 48q-34 34 -42 77t-8 130t8 130t42 77q48 48 127 48q70 0 120 -50v44h159v-499zM335 289q0 25 -1.5 40.5t-7.5 32.5t-19.5 25.5
t-35.5 8.5t-35.5 -8.5t-19.5 -25.5t-7.5 -32.5t-1.5 -40.5t1.5 -40.5t7.5 -32.5t19.5 -25.5t35.5 -8.5t35.5 8.5t19.5 25.5t7.5 32.5t1.5 40.5zM472 610h-122l-79 83l-79 -83h-122l136 179h130z" />
    <glyph glyph-name="Gbreve" unicode="&#x11e;" horiz-adv-x="647" 
d="M598 311q0 -88 -16 -142t-56 -95q-77 -80 -207 -80q-119 0 -197 78q-26 26 -42 56t-22 71t-7.5 70t-1.5 87t1.5 87t7.5 70t22 71t42 56q78 78 197 78q127 0 195 -68t83 -168h-176q-11 42 -34.5 61t-67.5 19q-45 0 -69 -31q-14 -18 -20 -51.5t-6 -123.5t6 -124t20 -52
q23 -30 69 -30q52 0 78 28q27 27 27 76v10h-105v146h279v-99zM483 931q-2 -82 -50 -119.5t-114 -37.5t-114 37.5t-50 119.5h106q4 -47 58 -47t58 47h106z" />
    <glyph glyph-name="gbreve" unicode="&#x11f;" horiz-adv-x="561" 
d="M499 39q0 -96 -67 -157.5t-176 -61.5q-67 0 -115 15.5t-87 54.5l102 102q34 -34 92 -34q47 0 67 25t20 57v39q-45 -45 -116 -45q-78 0 -126 48q-34 34 -42 77t-8 130t8 130t42 77q48 48 127 48q70 0 120 -50v44h159v-499zM335 289q0 25 -1.5 40.5t-7.5 32.5t-19.5 25.5
t-35.5 8.5t-35.5 -8.5t-19.5 -25.5t-7.5 -32.5t-1.5 -40.5t1.5 -40.5t7.5 -32.5t19.5 -25.5t35.5 -8.5t35.5 8.5t19.5 25.5t7.5 32.5t1.5 40.5zM435 759q-2 -82 -50 -119.5t-114 -37.5t-114 37.5t-50 119.5h106q4 -47 58 -47t58 47h106z" />
    <glyph glyph-name="Gdotaccent" unicode="&#x120;" horiz-adv-x="647" 
d="M598 311q0 -88 -16 -142t-56 -95q-77 -80 -207 -80q-119 0 -197 78q-26 26 -42 56t-22 71t-7.5 70t-1.5 87t1.5 87t7.5 70t22 71t42 56q78 78 197 78q127 0 195 -68t83 -168h-176q-11 42 -34.5 61t-67.5 19q-45 0 -69 -31q-14 -18 -20 -51.5t-6 -123.5t6 -124t20 -52
q23 -30 69 -30q52 0 78 28q27 27 27 76v10h-105v146h279v-99zM388 785h-138v138h138v-138z" />
    <glyph glyph-name="gdotaccent" unicode="&#x121;" horiz-adv-x="561" 
d="M499 39q0 -96 -67 -157.5t-176 -61.5q-67 0 -115 15.5t-87 54.5l102 102q34 -34 92 -34q47 0 67 25t20 57v39q-45 -45 -116 -45q-78 0 -126 48q-34 34 -42 77t-8 130t8 130t42 77q48 48 127 48q70 0 120 -50v44h159v-499zM335 289q0 25 -1.5 40.5t-7.5 32.5t-19.5 25.5
t-35.5 8.5t-35.5 -8.5t-19.5 -25.5t-7.5 -32.5t-1.5 -40.5t1.5 -40.5t7.5 -32.5t19.5 -25.5t35.5 -8.5t35.5 8.5t19.5 25.5t7.5 32.5t1.5 40.5zM340 613h-138v138h138v-138z" />
    <glyph glyph-name="Gcommaaccent" unicode="&#x122;" horiz-adv-x="647" 
d="M598 311q0 -88 -16 -142t-56 -95q-77 -80 -207 -80q-119 0 -197 78q-26 26 -42 56t-22 71t-7.5 70t-1.5 87t1.5 87t7.5 70t22 71t42 56q78 78 197 78q127 0 195 -68t83 -168h-176q-11 42 -34.5 61t-67.5 19q-45 0 -69 -31q-14 -18 -20 -51.5t-6 -123.5t6 -124t20 -52
q23 -30 69 -30q52 0 78 28q27 27 27 76v10h-105v146h279v-99zM406 -53l-36 -144h-146l67 144h115z" />
    <glyph glyph-name="gcommaaccent" unicode="&#x123;" horiz-adv-x="561" 
d="M499 39q0 -96 -67 -157.5t-176 -61.5q-67 0 -115 15.5t-87 54.5l102 102q34 -34 92 -34q47 0 67 25t20 57v39q-45 -45 -116 -45q-78 0 -126 48q-34 34 -42 77t-8 130t8 130t42 77q48 48 127 48q70 0 120 -50v44h159v-499zM335 289q0 25 -1.5 40.5t-7.5 32.5t-19.5 25.5
t-35.5 8.5t-35.5 -8.5t-19.5 -25.5t-7.5 -32.5t-1.5 -40.5t1.5 -40.5t7.5 -32.5t19.5 -25.5t35.5 -8.5t35.5 8.5t19.5 25.5t7.5 32.5t1.5 40.5zM439 790l-118 -180h-99l49 180h168z" />
    <glyph glyph-name="Hcircumflex" unicode="&#x124;" horiz-adv-x="680" 
d="M608 0h-175v282h-186v-282h-175v712h175v-274h186v274h175v-712zM541 782h-122l-79 83l-79 -83h-122l136 179h130z" />
    <glyph glyph-name="hcircumflex" unicode="&#x125;" horiz-adv-x="579" 
d="M522 0h-164v322q0 41 -21 57.5t-45 16.5t-45 -16.5t-21 -57.5v-322h-164v712h164v-218q48 50 121 50q75 0 121 -46q54 -54 54 -154v-344zM345 782h-122l-79 83l-79 -83h-122l136 179h130z" />
    <glyph glyph-name="Hbar" unicode="&#x126;" horiz-adv-x="738" 
d="M636 0h-175v282h-186v-282h-175v504h-65v134h65v74h175v-74h186v74h175v-74h67v-134h-67v-504zM461 438v66h-186v-66h186z" />
    <glyph glyph-name="hbar" unicode="&#x127;" horiz-adv-x="607" 
d="M550 0h-164v322q0 41 -21 57.5t-45 16.5t-45 -16.5t-21 -57.5v-322h-164v564h-44v102h44v46h164v-46h63v-102h-63v-70q48 50 121 50q75 0 121 -46q54 -54 54 -154v-344z" />
    <glyph glyph-name="Itilde" unicode="&#x128;" horiz-adv-x="319" 
d="M247 0h-175v712h175v-712zM354 851q-34 -34 -61.5 -48.5t-61.5 -14.5q-44 0 -81 22q-29 17 -56 17q-31 0 -58 -27l-68 69q34 34 61 48.5t61 14.5q44 0 81 -22q29 -17 55 -17q31 0 58 27z" />
    <glyph glyph-name="itilde" unicode="&#x129;" horiz-adv-x="288" 
d="M226 0h-164v517h164v-517zM339 679q-34 -34 -61.5 -48.5t-61.5 -14.5q-44 0 -81 22q-29 17 -56 17q-31 0 -58 -27l-68 69q34 34 61 48.5t61 14.5q44 0 81 -22q29 -17 55 -17q31 0 58 27z" />
    <glyph glyph-name="Imacron" unicode="&#x12a;" horiz-adv-x="319" 
d="M247 0h-175v712h175v-712zM323 791h-326v105h326v-105z" />
    <glyph glyph-name="imacron" unicode="&#x12b;" horiz-adv-x="288" 
d="M226 0h-164v517h164v-517zM307 629h-326v105h326v-105z" />
    <glyph glyph-name="Ibreve" unicode="&#x12c;" horiz-adv-x="319" 
d="M247 0h-175v712h175v-712zM325 931q-2 -82 -50 -119.5t-114 -37.5t-114 37.5t-50 119.5h106q4 -47 58 -47t58 47h106z" />
    <glyph glyph-name="ibreve" unicode="&#x12d;" horiz-adv-x="288" 
d="M226 0h-164v517h164v-517zM310 759q-2 -82 -50 -119.5t-114 -37.5t-114 37.5t-50 119.5h106q4 -47 58 -47t58 47h106z" />
    <glyph glyph-name="Iogonek" unicode="&#x12e;" horiz-adv-x="319" 
d="M247 0h-175v712h175v-712zM187 -56l-36 -144h-146l67 144h115z" />
    <glyph glyph-name="iogonek" unicode="&#x12f;" horiz-adv-x="288" 
d="M226 0h-164v517h164v-517zM226 593h-164v125h164v-125zM177 -56l-36 -144h-146l67 144h115z" />
    <glyph glyph-name="Idotaccent" unicode="&#x130;" horiz-adv-x="319" 
d="M247 0h-175v712h175v-712zM228 785h-138v138h138v-138z" />
    <glyph glyph-name="dotlessi" unicode="&#x131;" horiz-adv-x="288" 
d="M226 0h-164v517h164v-517z" />
    <glyph glyph-name="IJ" unicode="&#x132;" horiz-adv-x="835" 
d="M247 0h-175v712h175v-712zM773 244q0 -119 -79.5 -184.5t-188.5 -65.5q-63 0 -107 17.5t-87 60.5l115 114q36 -36 79 -36t68 24.5t25 73.5v464h175v-468z" />
    <glyph glyph-name="ij" unicode="&#x133;" horiz-adv-x="576" 
d="M226 0h-164v517h164v-517zM226 593h-164v125h164v-125zM514 -21q0 -63 -42 -111t-125 -48h-87v138h57q33 0 33 33v526h164v-538zM514 593h-164v125h164v-125z" />
    <glyph glyph-name="Jcircumflex" unicode="&#x134;" horiz-adv-x="516" 
d="M454 244q0 -119 -79.5 -184.5t-188.5 -65.5q-63 0 -107 17.5t-87 60.5l115 114q36 -36 79 -36t68 24.5t25 73.5v464h175v-468zM567 782h-122l-79 83l-79 -83h-122l136 179h130z" />
    <glyph glyph-name="jcircumflex" unicode="&#x135;" horiz-adv-x="288" 
d="M226 -21q0 -63 -42 -111t-125 -48h-87v138h57q33 0 33 33v526h164v-538zM345 610h-122l-79 83l-79 -83h-122l136 179h130z" />
    <glyph glyph-name="Kcommaaccent" unicode="&#x136;" horiz-adv-x="673" 
d="M673 0h-204l-164 292l-60 -69v-223h-173v712h173v-252l206 252h214l-243 -288zM419 -53l-36 -144h-146l67 144h115z" />
    <glyph glyph-name="kcommaaccent" unicode="&#x137;" horiz-adv-x="573" 
d="M573 0h-203l-112 197l-32 -35v-162h-164v712h164v-362l145 188h197l-198 -223zM369 -53l-36 -144h-146l67 144h115z" />
    <glyph glyph-name="kgreenlandic" unicode="&#x138;" horiz-adv-x="573" 
d="M573 0h-203l-112 197l-32 -35v-162h-164v538h164v-188l145 188h197l-198 -223z" />
    <glyph glyph-name="Lacute" unicode="&#x139;" horiz-adv-x="576" 
d="M546 0h-474v712h175v-556h299v-156zM310 962l-101 -180h-117l65 180h153z" />
    <glyph glyph-name="lacute" unicode="&#x13a;" horiz-adv-x="341" 
d="M311 0h-87q-83 0 -125 48t-42 111v553h164v-541q0 -33 33 -33h57v-138zM275 962l-101 -180h-117l65 180h153z" />
    <glyph glyph-name="Lcommaaccent" unicode="&#x13b;" horiz-adv-x="576" 
d="M546 0h-474v712h175v-556h299v-156zM371 -53l-36 -144h-146l67 144h115z" />
    <glyph glyph-name="lcommaaccent" unicode="&#x13c;" horiz-adv-x="341" 
d="M311 0h-87q-83 0 -125 48t-42 111v553h164v-541q0 -33 33 -33h57v-138zM254 -53l-36 -144h-146l67 144h115z" />
    <glyph glyph-name="Lcaron" unicode="&#x13d;" horiz-adv-x="576" 
d="M546 0h-474v712h175v-556h299v-156zM504 712l-64 -173h-110l34 173h140z" />
    <glyph glyph-name="lcaron" unicode="&#x13e;" horiz-adv-x="341" 
d="M311 0h-87q-83 0 -125 48t-42 111v553h164v-541q0 -33 33 -33h57v-138zM453 753l-64 -173h-110l34 173h140z" />
    <glyph glyph-name="Ldot" unicode="&#x13f;" horiz-adv-x="576" 
d="M546 0h-474v712h175v-556h299v-156zM512 289h-138v138h138v-138z" />
    <glyph glyph-name="ldot" unicode="&#x140;" horiz-adv-x="463" 
d="M311 0h-87q-83 0 -125 48t-42 111v553h164v-541q0 -33 33 -33h57v-138zM440 224h-138v138h138v-138z" />
    <glyph glyph-name="Lslash" unicode="&#x141;" horiz-adv-x="599" 
d="M569 0h-474v217l-60 -38v146l60 38v349h175v-239l113 71v-145l-113 -71v-172h299v-156z" />
    <glyph glyph-name="lslash" unicode="&#x142;" horiz-adv-x="348" 
d="M328 0h-87q-83 0 -125 48t-42 111v120l-49 -30v137l49 30v296h164v-198l49 30v-137l-49 -30v-206q0 -33 33 -33h57v-138z" />
    <glyph glyph-name="Nacute" unicode="&#x143;" horiz-adv-x="700" 
d="M628 0h-153l-228 358v-358h-175v712h153l228 -358v358h175v-712zM501 962l-101 -180h-117l65 180h153z" />
    <glyph glyph-name="nacute" unicode="&#x144;" horiz-adv-x="579" 
d="M522 0h-164v322q0 41 -21 57.5t-45 16.5t-45 -16.5t-21 -57.5v-322h-164v538h160v-44q50 50 125 50t121 -46q54 -54 54 -154v-344zM439 790l-101 -180h-117l65 180h153z" />
    <glyph glyph-name="Ncommaaccent" unicode="&#x145;" horiz-adv-x="700" 
d="M628 0h-153l-228 358v-358h-175v712h153l228 -358v358h175v-712zM433 -53l-36 -144h-146l67 144h115z" />
    <glyph glyph-name="ncommaaccent" unicode="&#x146;" horiz-adv-x="579" 
d="M522 0h-164v322q0 41 -21 57.5t-45 16.5t-45 -16.5t-21 -57.5v-322h-164v538h160v-44q50 50 125 50t121 -46q54 -54 54 -154v-344zM372 -53l-36 -144h-146l67 144h115z" />
    <glyph glyph-name="Ncaron" unicode="&#x147;" horiz-adv-x="700" 
d="M628 0h-153l-228 358v-358h-175v712h153l228 -358v358h175v-712zM551 961l-136 -179h-130l-136 179h122l79 -83l79 83h122z" />
    <glyph glyph-name="ncaron" unicode="&#x148;" horiz-adv-x="579" 
d="M522 0h-164v322q0 41 -21 57.5t-45 16.5t-45 -16.5t-21 -57.5v-322h-164v538h160v-44q50 50 125 50t121 -46q54 -54 54 -154v-344zM493 789l-136 -179h-130l-136 179h122l79 -83l79 83h122z" />
    <glyph glyph-name="napostrophe" unicode="&#x149;" horiz-adv-x="579" 
d="M522 0h-164v322q0 41 -21 57.5t-45 16.5t-45 -16.5t-21 -57.5v-322h-164v538h160v-44q50 50 125 50t121 -46q54 -54 54 -154v-344zM61 639l-139 -101v215h139v-114z" />
    <glyph glyph-name="Eng" unicode="&#x14a;" horiz-adv-x="700" 
d="M628 -41q0 -63 -42 -111t-125 -48h-87v138h46q33 0 33 33v63l-206 324v-358h-175v712h153l228 -358v358h175v-753z" />
    <glyph glyph-name="eng" unicode="&#x14b;" horiz-adv-x="579" 
d="M522 -38q0 -63 -42 -111t-125 -48h-87v138h57q33 0 33 33v348q0 41 -21 57.5t-45 16.5t-45 -16.5t-21 -57.5v-322h-164v538h160v-44q50 50 125 50t121 -46q54 -54 54 -154v-382z" />
    <glyph glyph-name="Omacron" unicode="&#x14c;" horiz-adv-x="640" 
d="M591 356q0 -58 -1.5 -87t-7.5 -70t-22 -71t-42 -56q-78 -78 -198 -78t-198 78q-26 26 -42 56t-22 71t-7.5 70t-1.5 87t1.5 87t7.5 70t22 71t42 56q78 78 198 78t198 -78q26 -26 42 -56t22 -71t7.5 -70t1.5 -87zM416 356q0 90 -6 123.5t-20 51.5q-24 31 -70 31t-70 -31
q-14 -18 -20 -51.5t-6 -123.5t6 -123t20 -51q24 -32 70 -32t70 32q14 18 20 51t6 123zM483 791h-326v105h326v-105z" />
    <glyph glyph-name="omacron" unicode="&#x14d;" horiz-adv-x="550" 
d="M507 269q0 -80 -12.5 -124.5t-46.5 -81.5q-65 -69 -173 -69t-173 69q-34 37 -46.5 81.5t-12.5 124.5q0 79 13 124.5t46 81.5q65 69 173 69t173 -69q33 -36 46 -81.5t13 -124.5zM343 269q0 88 -24 112q-15 15 -44 15t-44 -15q-24 -24 -24 -112t24 -112q15 -15 44 -15
t44 15q24 24 24 112zM438 629h-326v105h326v-105z" />
    <glyph glyph-name="Obreve" unicode="&#x14e;" horiz-adv-x="640" 
d="M591 356q0 -58 -1.5 -87t-7.5 -70t-22 -71t-42 -56q-78 -78 -198 -78t-198 78q-26 26 -42 56t-22 71t-7.5 70t-1.5 87t1.5 87t7.5 70t22 71t42 56q78 78 198 78t198 -78q26 -26 42 -56t22 -71t7.5 -70t1.5 -87zM416 356q0 90 -6 123.5t-20 51.5q-24 31 -70 31t-70 -31
q-14 -18 -20 -51.5t-6 -123.5t6 -123t20 -51q24 -32 70 -32t70 32q14 18 20 51t6 123zM485 931q-2 -82 -50 -119.5t-114 -37.5t-114 37.5t-50 119.5h106q4 -47 58 -47t58 47h106z" />
    <glyph glyph-name="obreve" unicode="&#x14f;" horiz-adv-x="550" 
d="M507 269q0 -80 -12.5 -124.5t-46.5 -81.5q-65 -69 -173 -69t-173 69q-34 37 -46.5 81.5t-12.5 124.5q0 79 13 124.5t46 81.5q65 69 173 69t173 -69q33 -36 46 -81.5t13 -124.5zM343 269q0 88 -24 112q-15 15 -44 15t-44 -15q-24 -24 -24 -112t24 -112q15 -15 44 -15
t44 15q24 24 24 112zM439 759q-2 -82 -50 -119.5t-114 -37.5t-114 37.5t-50 119.5h106q4 -47 58 -47t58 47h106z" />
    <glyph glyph-name="Ohungarumlaut" unicode="&#x150;" horiz-adv-x="640" 
d="M591 356q0 -58 -1.5 -87t-7.5 -70t-22 -71t-42 -56q-78 -78 -198 -78t-198 78q-26 26 -42 56t-22 71t-7.5 70t-1.5 87t1.5 87t7.5 70t22 71t42 56q78 78 198 78t198 -78q26 -26 42 -56t22 -71t7.5 -70t1.5 -87zM416 356q0 90 -6 123.5t-20 51.5q-24 31 -70 31t-70 -31
q-14 -18 -20 -51.5t-6 -123.5t6 -123t20 -51q24 -32 70 -32t70 32q14 18 20 51t6 123zM574 962l-101 -180h-117l65 180h153zM349 962l-101 -180h-117l65 180h153z" />
    <glyph glyph-name="ohungarumlaut" unicode="&#x151;" horiz-adv-x="550" 
d="M507 269q0 -80 -12.5 -124.5t-46.5 -81.5q-65 -69 -173 -69t-173 69q-34 37 -46.5 81.5t-12.5 124.5q0 79 13 124.5t46 81.5q65 69 173 69t173 -69q33 -36 46 -81.5t13 -124.5zM343 269q0 88 -24 112q-15 15 -44 15t-44 -15q-24 -24 -24 -112t24 -112q15 -15 44 -15
t44 15q24 24 24 112zM528 790l-101 -180h-117l65 180h153zM303 790l-101 -180h-117l65 180h153z" />
    <glyph glyph-name="OE" unicode="&#x152;" horiz-adv-x="952" 
d="M900 0h-484v26q-34 -32 -102 -32q-64 0 -108.5 18t-84.5 58q-26 26 -41.5 57.5t-21.5 74t-7.5 71.5t-1.5 83t1.5 83t7.5 71.5t21.5 74t41.5 57.5q40 40 85 58t109 18q67 0 101 -32v26h484v-156h-309v-119h264v-156h-264v-125h309v-156zM416 356q0 90 -6 123.5t-20 51.5
q-24 31 -70 31t-70 -31q-14 -18 -20 -51.5t-6 -123.5t6 -123t20 -51q24 -32 70 -32t70 32q14 18 20 51t6 123z" />
    <glyph glyph-name="oe" unicode="&#x153;" horiz-adv-x="864" 
d="M826 216h-322q0 -35 25.5 -59.5t69.5 -24.5q40 0 63.5 10.5t47.5 34.5l98 -98q-44 -44 -91 -64.5t-118 -20.5q-109 0 -171 50q-61 -50 -153 -50q-108 0 -173 69q-34 37 -46.5 81.5t-12.5 124.5q0 79 13 124.5t46 81.5q65 69 173 69q94 0 156 -53q61 53 153 53
q113 0 177.5 -72.5t64.5 -182.5v-73zM343 269q0 88 -24 112q-15 15 -44 15t-44 -15q-24 -24 -24 -112t24 -112q15 -15 44 -15t44 15q24 24 24 112zM664 325q0 24 -9 42q-18 42 -71 42t-71 -42q-9 -18 -9 -42h160z" />
    <glyph glyph-name="Racute" unicode="&#x154;" horiz-adv-x="652" 
d="M635 0h-203l-126 265h-59v-265h-175v712h282q113 0 178 -67.5t65 -161.5q0 -67 -34 -114.5t-82 -71.5zM422 483q0 29 -21 50.5t-55 21.5h-99v-144h99q34 0 55 21.5t21 50.5zM477 962l-101 -180h-117l65 180h153z" />
    <glyph glyph-name="racute" unicode="&#x155;" horiz-adv-x="475" 
d="M475 494l-124 -126q-28 28 -59 28q-23 0 -44.5 -17t-21.5 -57v-322h-164v538h160v-44q50 50 127 50q76 0 126 -50zM390 790l-101 -180h-117l65 180h153z" />
    <glyph glyph-name="Rcommaaccent" unicode="&#x156;" horiz-adv-x="652" 
d="M635 0h-203l-126 265h-59v-265h-175v712h282q113 0 178 -67.5t65 -161.5q0 -67 -34 -114.5t-82 -71.5zM422 483q0 29 -21 50.5t-55 21.5h-99v-144h99q34 0 55 21.5t21 50.5zM409 -53l-36 -144h-146l67 144h115z" />
    <glyph glyph-name="rcommaaccent" unicode="&#x157;" horiz-adv-x="475" 
d="M475 494l-124 -126q-28 28 -59 28q-23 0 -44.5 -17t-21.5 -57v-322h-164v538h160v-44q50 50 127 50q76 0 126 -50zM202 -53l-36 -144h-146l67 144h115z" />
    <glyph glyph-name="Rcaron" unicode="&#x158;" horiz-adv-x="652" 
d="M635 0h-203l-126 265h-59v-265h-175v712h282q113 0 178 -67.5t65 -161.5q0 -67 -34 -114.5t-82 -71.5zM422 483q0 29 -21 50.5t-55 21.5h-99v-144h99q34 0 55 21.5t21 50.5zM527 961l-136 -179h-130l-136 179h122l79 -83l79 83h122z" />
    <glyph glyph-name="rcaron" unicode="&#x159;" horiz-adv-x="475" 
d="M475 494l-124 -126q-28 28 -59 28q-23 0 -44.5 -17t-21.5 -57v-322h-164v538h160v-44q50 50 127 50q76 0 126 -50zM439 789l-136 -179h-130l-136 179h122l79 -83l79 83h122z" />
    <glyph glyph-name="Sacute" unicode="&#x15a;" horiz-adv-x="593" 
d="M550 218q0 -105 -78.5 -164.5t-196.5 -59.5q-88 0 -153.5 20.5t-116.5 73.5l112 112q50 -50 159 -50q102 0 102 64q0 27 -14 42q-15 15 -47 19l-86 12q-95 14 -143 63q-49 50 -49 143q0 99 70.5 162t189.5 63q155 0 240 -85l-110 -110q-26 26 -56.5 34t-78.5 8
q-42 0 -64 -20t-22 -46q0 -19 14 -33q17 -17 49 -21l86 -12q94 -13 140 -59q53 -52 53 -156zM447 962l-101 -180h-117l65 180h153z" />
    <glyph glyph-name="sacute" unicode="&#x15b;" horiz-adv-x="504" 
d="M477 176q0 -90 -66 -136t-167 -46q-50 0 -82 3.5t-74.5 21.5t-77.5 53l106 106q45 -45 131 -45q25 0 47.5 8t22.5 27q0 30 -39 34l-83 8q-156 15 -156 156q0 84 63.5 131t150.5 47q146 0 212 -66l-101 -101q-32 32 -114 32q-27 0 -40 -10t-13 -21q0 -26 35 -30l83 -8
q81 -8 121.5 -52t40.5 -112zM402 790l-101 -180h-117l65 180h153z" />
    <glyph glyph-name="Scircumflex" unicode="&#x15c;" horiz-adv-x="593" 
d="M550 218q0 -105 -78.5 -164.5t-196.5 -59.5q-88 0 -153.5 20.5t-116.5 73.5l112 112q50 -50 159 -50q102 0 102 64q0 27 -14 42q-15 15 -47 19l-86 12q-95 14 -143 63q-49 50 -49 143q0 99 70.5 162t189.5 63q155 0 240 -85l-110 -110q-26 26 -56.5 34t-78.5 8
q-42 0 -64 -20t-22 -46q0 -19 14 -33q17 -17 49 -21l86 -12q94 -13 140 -59q53 -52 53 -156zM498 782h-122l-79 83l-79 -83h-122l136 179h130z" />
    <glyph glyph-name="scircumflex" unicode="&#x15d;" horiz-adv-x="504" 
d="M477 176q0 -90 -66 -136t-167 -46q-50 0 -82 3.5t-74.5 21.5t-77.5 53l106 106q45 -45 131 -45q25 0 47.5 8t22.5 27q0 30 -39 34l-83 8q-156 15 -156 156q0 84 63.5 131t150.5 47q146 0 212 -66l-101 -101q-32 32 -114 32q-27 0 -40 -10t-13 -21q0 -26 35 -30l83 -8
q81 -8 121.5 -52t40.5 -112zM466 610h-122l-79 83l-79 -83h-122l136 179h130z" />
    <glyph glyph-name="Scedilla" unicode="&#x15e;" horiz-adv-x="593" 
d="M550 218q0 -105 -78.5 -164.5t-196.5 -59.5q-88 0 -153.5 20.5t-116.5 73.5l112 112q50 -50 159 -50q102 0 102 64q0 27 -14 42q-15 15 -47 19l-86 12q-95 14 -143 63q-49 50 -49 143q0 99 70.5 162t189.5 63q155 0 240 -85l-110 -110q-26 26 -56.5 34t-78.5 8
q-42 0 -64 -20t-22 -46q0 -19 14 -33q17 -17 49 -21l86 -12q94 -13 140 -59q53 -52 53 -156zM368 -53l-36 -144h-146l67 144h115z" />
    <glyph glyph-name="scedilla" unicode="&#x15f;" horiz-adv-x="504" 
d="M477 176q0 -90 -66 -136t-167 -46q-50 0 -82 3.5t-74.5 21.5t-77.5 53l106 106q45 -45 131 -45q25 0 47.5 8t22.5 27q0 30 -39 34l-83 8q-156 15 -156 156q0 84 63.5 131t150.5 47q146 0 212 -66l-101 -101q-32 32 -114 32q-27 0 -40 -10t-13 -21q0 -26 35 -30l83 -8
q81 -8 121.5 -52t40.5 -112zM333 -53l-36 -144h-146l67 144h115z" />
    <glyph glyph-name="Scaron" unicode="&#x160;" horiz-adv-x="593" 
d="M550 218q0 -105 -78.5 -164.5t-196.5 -59.5q-88 0 -153.5 20.5t-116.5 73.5l112 112q50 -50 159 -50q102 0 102 64q0 27 -14 42q-15 15 -47 19l-86 12q-95 14 -143 63q-49 50 -49 143q0 99 70.5 162t189.5 63q155 0 240 -85l-110 -110q-26 26 -56.5 34t-78.5 8
q-42 0 -64 -20t-22 -46q0 -19 14 -33q17 -17 49 -21l86 -12q94 -13 140 -59q53 -52 53 -156zM498 961l-136 -179h-130l-136 179h122l79 -83l79 83h122z" />
    <glyph glyph-name="scaron" unicode="&#x161;" horiz-adv-x="504" 
d="M477 176q0 -90 -66 -136t-167 -46q-50 0 -82 3.5t-74.5 21.5t-77.5 53l106 106q45 -45 131 -45q25 0 47.5 8t22.5 27q0 30 -39 34l-83 8q-156 15 -156 156q0 84 63.5 131t150.5 47q146 0 212 -66l-101 -101q-32 32 -114 32q-27 0 -40 -10t-13 -21q0 -26 35 -30l83 -8
q81 -8 121.5 -52t40.5 -112zM466 789l-136 -179h-130l-136 179h122l79 -83l79 83h122z" />
    <glyph glyph-name="Tcommaaccent" unicode="&#x162;" horiz-adv-x="585" 
d="M555 556h-175v-556h-175v556h-175v156h525v-156zM352 -53l-36 -144h-146l67 144h115z" />
    <glyph glyph-name="tcommaaccent" unicode="&#x163;" horiz-adv-x="363" 
d="M323 0h-82q-83 0 -125 48t-42 111v232h-49v126h49v154h164v-154h85v-126h-85v-220q0 -33 33 -33h52v-138zM246 -53l-36 -144h-146l67 144h115z" />
    <glyph glyph-name="Tcaron" unicode="&#x164;" horiz-adv-x="585" 
d="M555 556h-175v-556h-175v556h-175v156h525v-156zM493 961l-136 -179h-130l-136 179h122l79 -83l79 83h122z" />
    <glyph glyph-name="tcaron" unicode="&#x165;" horiz-adv-x="363" 
d="M323 0h-82q-83 0 -125 48t-42 111v232h-49v126h49v154h164v-154h85v-126h-85v-220q0 -33 33 -33h52v-138zM451 753l-64 -173h-110l34 173h140z" />
    <glyph glyph-name="Tbar" unicode="&#x166;" horiz-adv-x="585" 
d="M555 556h-175v-130h77v-134h-77v-292h-175v292h-78v134h78v130h-175v156h525v-156z" />
    <glyph glyph-name="tbar" unicode="&#x167;" horiz-adv-x="363" 
d="M323 0h-82q-83 0 -125 48t-42 111v73h-49v126h49v33h-49v126h49v154h164v-154h85v-126h-85v-33h85v-126h-85v-61q0 -33 33 -33h52v-138z" />
    <glyph glyph-name="Utilde" unicode="&#x168;" horiz-adv-x="660" 
d="M600 250q0 -114 -78.5 -185t-192.5 -71t-191.5 71t-77.5 185v462h175v-458q0 -49 25 -76.5t69 -27.5t70 27.5t26 76.5v458h175v-462zM523 851q-34 -34 -61.5 -48.5t-61.5 -14.5q-44 0 -81 22q-29 17 -56 17q-31 0 -58 -27l-68 69q34 34 61 48.5t61 14.5q44 0 81 -22
q29 -17 55 -17q31 0 58 27z" />
    <glyph glyph-name="utilde" unicode="&#x169;" horiz-adv-x="579" 
d="M517 0h-160v44q-50 -50 -125 -50t-121 46q-54 54 -54 154v344h164v-322q0 -41 21 -57.5t45 -16.5t45 16.5t21 57.5v322h164v-538zM479 679q-34 -34 -61.5 -48.5t-61.5 -14.5q-44 0 -81 22q-29 17 -56 17q-31 0 -58 -27l-68 69q34 34 61 48.5t61 14.5q44 0 81 -22
q29 -17 55 -17q31 0 58 27z" />
    <glyph glyph-name="Umacron" unicode="&#x16a;" horiz-adv-x="660" 
d="M600 250q0 -114 -78.5 -185t-192.5 -71t-191.5 71t-77.5 185v462h175v-458q0 -49 25 -76.5t69 -27.5t70 27.5t26 76.5v458h175v-462zM493 791h-326v105h326v-105z" />
    <glyph glyph-name="umacron" unicode="&#x16b;" horiz-adv-x="579" 
d="M517 0h-160v44q-50 -50 -125 -50t-121 46q-54 54 -54 154v344h164v-322q0 -41 21 -57.5t45 -16.5t45 16.5t21 57.5v322h164v-538zM450 629h-326v105h326v-105z" />
    <glyph glyph-name="Ubreve" unicode="&#x16c;" horiz-adv-x="660" 
d="M600 250q0 -114 -78.5 -185t-192.5 -71t-191.5 71t-77.5 185v462h175v-458q0 -49 25 -76.5t69 -27.5t70 27.5t26 76.5v458h175v-462zM493 931q-2 -82 -50 -119.5t-114 -37.5t-114 37.5t-50 119.5h106q4 -47 58 -47t58 47h106z" />
    <glyph glyph-name="ubreve" unicode="&#x16d;" horiz-adv-x="579" 
d="M517 0h-160v44q-50 -50 -125 -50t-121 46q-54 54 -54 154v344h164v-322q0 -41 21 -57.5t45 -16.5t45 16.5t21 57.5v322h164v-538zM451 759q-2 -82 -50 -119.5t-114 -37.5t-114 37.5t-50 119.5h106q4 -47 58 -47t58 47h106z" />
    <glyph glyph-name="Uring" unicode="&#x16e;" horiz-adv-x="660" 
d="M600 250q0 -114 -78.5 -185t-192.5 -71t-191.5 71t-77.5 185v462h175v-458q0 -49 25 -76.5t69 -27.5t70 27.5t26 76.5v458h175v-462zM468 903q0 -57 -40.5 -97.5t-97.5 -40.5t-97.5 40.5t-40.5 97.5t40.5 97.5t97.5 40.5t97.5 -40t40.5 -98zM382 903q0 21 -15.5 36.5
t-36.5 15.5t-36.5 -15.5t-15.5 -36.5t15.5 -36.5t36.5 -15.5t36.5 15.5t15.5 36.5z" />
    <glyph glyph-name="uring" unicode="&#x16f;" horiz-adv-x="579" 
d="M517 0h-160v44q-50 -50 -125 -50t-121 46q-54 54 -54 154v344h164v-322q0 -41 21 -57.5t45 -16.5t45 16.5t21 57.5v322h164v-538zM427 731q0 -57 -40.5 -97.5t-97.5 -40.5t-97.5 40.5t-40.5 97.5t40.5 97.5t97.5 40.5t97.5 -40t40.5 -98zM341 731q0 21 -15.5 36.5
t-36.5 15.5t-36.5 -15.5t-15.5 -36.5t15.5 -36.5t36.5 -15.5t36.5 15.5t15.5 36.5z" />
    <glyph glyph-name="Uhungarumlaut" unicode="&#x170;" horiz-adv-x="660" 
d="M600 250q0 -114 -78.5 -185t-192.5 -71t-191.5 71t-77.5 185v462h175v-458q0 -49 25 -76.5t69 -27.5t70 27.5t26 76.5v458h175v-462zM584 962l-101 -180h-117l65 180h153zM359 962l-101 -180h-117l65 180h153z" />
    <glyph glyph-name="uhungarumlaut" unicode="&#x171;" horiz-adv-x="579" 
d="M517 0h-160v44q-50 -50 -125 -50t-121 46q-54 54 -54 154v344h164v-322q0 -41 21 -57.5t45 -16.5t45 16.5t21 57.5v322h164v-538zM540 790l-101 -180h-117l65 180h153zM315 790l-101 -180h-117l65 180h153z" />
    <glyph glyph-name="Uogonek" unicode="&#x172;" horiz-adv-x="660" 
d="M600 250q0 -114 -78.5 -185t-192.5 -71t-191.5 71t-77.5 185v462h175v-458q0 -49 25 -76.5t69 -27.5t70 27.5t26 76.5v458h175v-462zM507 -56l-36 -144h-146l67 144h115z" />
    <glyph glyph-name="uogonek" unicode="&#x173;" horiz-adv-x="579" 
d="M517 0h-160v44q-50 -50 -125 -50t-121 46q-54 54 -54 154v344h164v-322q0 -41 21 -57.5t45 -16.5t45 16.5t21 57.5v322h164v-538zM472 -56l-36 -144h-146l67 144h115z" />
    <glyph glyph-name="Wcircumflex" unicode="&#x174;" horiz-adv-x="906" 
d="M906 712l-195 -712h-143l-115 351l-115 -351h-142l-196 712h183l93 -376l115 376h124l115 -376l93 376h183zM654 782h-122l-79 83l-79 -83h-122l136 179h130z" />
    <glyph glyph-name="wcircumflex" unicode="&#x175;" horiz-adv-x="780" 
d="M780 538l-162 -538h-131l-97 295l-97 -295h-131l-162 538h173l67 -279l93 279h114l93 -279l67 279h173zM591 610h-122l-79 83l-79 -83h-122l136 179h130z" />
    <glyph glyph-name="Ycircumflex" unicode="&#x176;" horiz-adv-x="605" 
d="M605 712l-215 -422v-290h-175v290l-215 422h191l112 -256l111 256h191zM504 782h-122l-79 83l-79 -83h-122l136 179h130z" />
    <glyph glyph-name="ycircumflex" unicode="&#x177;" horiz-adv-x="514" 
d="M522 538l-223 -602q-16 -45 -42 -71q-42 -45 -121 -45h-62v148h35q23 0 35 8t20 32l15 45l-179 485h172l91 -279l87 279h172zM463 610h-122l-79 83l-79 -83h-122l136 179h130z" />
    <glyph glyph-name="Ydieresis" unicode="&#x178;" horiz-adv-x="605" 
d="M605 712l-215 -422v-290h-175v290l-215 422h191l112 -256l111 256h191zM482 781h-134v145h134v-145zM256 781h-134v145h134v-145z" />
    <glyph glyph-name="Zacute" unicode="&#x179;" horiz-adv-x="543" 
d="M513 0h-483v136l273 420h-261v156h471v-136l-274 -420h274v-156zM422 962l-101 -180h-117l65 180h153z" />
    <glyph glyph-name="zacute" unicode="&#x17a;" horiz-adv-x="489" 
d="M449 0h-419v121l205 269h-193v148h407v-121l-209 -269h209v-148zM393 790l-101 -180h-117l65 180h153z" />
    <glyph glyph-name="Zdotaccent" unicode="&#x17b;" horiz-adv-x="543" 
d="M513 0h-483v136l273 420h-261v156h471v-136l-274 -420h274v-156zM340 785h-138v138h138v-138z" />
    <glyph glyph-name="zdotaccent" unicode="&#x17c;" horiz-adv-x="489" 
d="M449 0h-419v121l205 269h-193v148h407v-121l-209 -269h209v-148zM310 613h-138v138h138v-138z" />
    <glyph glyph-name="Zcaron" unicode="&#x17d;" horiz-adv-x="543" 
d="M513 0h-483v136l273 420h-261v156h471v-136l-274 -420h274v-156zM474 961l-136 -179h-130l-136 179h122l79 -83l79 83h122z" />
    <glyph glyph-name="zcaron" unicode="&#x17e;" horiz-adv-x="489" 
d="M449 0h-419v121l205 269h-193v148h407v-121l-209 -269h209v-148zM442 789l-136 -179h-130l-136 179h122l79 -83l79 83h122z" />
    <glyph glyph-name="longs" unicode="&#x17f;" horiz-adv-x="288" 
d="M226 552v-552h-164v564q0 63 42 111t125 48h87v-138h-57q-33 0 -33 -33z" />
    <glyph glyph-name="uni018F" unicode="&#x18f;" horiz-adv-x="647" 
d="M49 311v99h373q-2 89 -25 121q-24 31 -69 31q-44 0 -67.5 -19t-34.5 -61h-176q15 100 83 168t195 68q119 0 197 -78q26 -26 42 -56t22 -71t7.5 -70t1.5 -87t-1.5 -87t-7.5 -70t-22 -71t-42 -56q-78 -78 -197 -78q-130 0 -207 80q-40 41 -56 95t-16 142zM223 264v-10
q0 -49 27 -76q26 -28 78 -28q46 0 69 30q18 23 23 84h-197z" />
    <glyph glyph-name="florin" unicode="&#x192;" horiz-adv-x="441" 
d="M411 585h-80q-33 0 -39 -33l-26 -148h90v-126h-112l-80 -452h-164l80 452h-49v126h71l28 160q11 63 61.5 111t133.5 48h86v-138z" />
    <glyph glyph-name="uni01B5" unicode="&#x1b5;" horiz-adv-x="543" 
d="M513 0h-483v136l102 157h-23v134h110l84 129h-261v156h471v-136l-97 -149h23v-134h-111l-89 -137h274v-156z" />
    <glyph glyph-name="uni01B6" unicode="&#x1b6;" horiz-adv-x="489" 
d="M449 0h-419v121l74 97h-20v102h97l54 70h-193v148h407v-121l-76 -97h21v-102h-100l-54 -70h209v-148z" />
    <glyph glyph-name="uni01C4" unicode="&#x1c4;" horiz-adv-x="1194" 
d="M602 356q0 -106 -5.5 -151.5t-29.5 -84.5q-74 -120 -231 -120h-264v712h264q157 0 231 -120q24 -39 29.5 -84.5t5.5 -151.5zM427 356q0 86 -4 115t-15 45q-27 40 -84 40h-77v-400h77q57 0 84 40q11 16 15 45t4 115zM1164 0h-483v136l273 420h-261v156h471v-136l-274 -420
h274v-156zM1125 961l-136 -179h-130l-136 179h122l79 -83l79 83h122z" />
    <glyph glyph-name="uni01C5" unicode="&#x1c5;" horiz-adv-x="1140" 
d="M602 356q0 -106 -5.5 -151.5t-29.5 -84.5q-74 -120 -231 -120h-264v712h264q157 0 231 -120q24 -39 29.5 -84.5t5.5 -151.5zM427 356q0 86 -4 115t-15 45q-27 40 -84 40h-77v-400h77q57 0 84 40q11 16 15 45t4 115zM1100 0h-419v121l205 269h-193v148h407v-121l-209 -269
h209v-148zM1093 789l-136 -179h-130l-136 179h122l79 -83l79 83h122z" />
    <glyph glyph-name="uni01C6" unicode="&#x1c6;" horiz-adv-x="1058" 
d="M507 0h-159v44q-50 -50 -124 -50q-83 0 -130 49q-23 24 -35 63.5t-14 71.5t-2 91t2 91t14 71.5t35 63.5q47 49 129 49q75 0 120 -45v213h164v-712zM343 269q0 67 -13 97t-55 30t-55 -30t-13 -97t13 -97t55 -30t55 30t13 97zM1018 0h-419v121l205 269h-193v148h407v-121
l-209 -269h209v-148zM1011 789l-136 -179h-130l-136 179h122l79 -83l79 83h122z" />
    <glyph glyph-name="uni01C7" unicode="&#x1c7;" horiz-adv-x="1092" 
d="M546 0h-474v712h175v-556h299v-156zM1030 244q0 -119 -79.5 -184.5t-188.5 -65.5q-63 0 -107 17.5t-87 60.5l115 114q36 -36 79 -36t68 24.5t25 73.5v464h175v-468z" />
    <glyph glyph-name="uni01C8" unicode="&#x1c8;" horiz-adv-x="864" 
d="M546 0h-474v712h175v-556h299v-156zM802 -21q0 -63 -42 -111t-125 -48h-87v138h57q33 0 33 33v526h164v-538zM802 593h-164v125h164v-125z" />
    <glyph glyph-name="uni01C9" unicode="&#x1c9;" horiz-adv-x="629" 
d="M311 0h-87q-83 0 -125 48t-42 111v553h164v-541q0 -33 33 -33h57v-138zM567 -21q0 -63 -42 -111t-125 -48h-87v138h57q33 0 33 33v526h164v-538zM567 593h-164v125h164v-125z" />
    <glyph glyph-name="uni01CA" unicode="&#x1ca;" horiz-adv-x="1216" 
d="M628 0h-153l-228 358v-358h-175v712h153l228 -358v358h175v-712zM1154 244q0 -119 -79.5 -184.5t-188.5 -65.5q-63 0 -107 17.5t-87 60.5l115 114q36 -36 79 -36t68 24.5t25 73.5v464h175v-468z" />
    <glyph glyph-name="uni01CB" unicode="&#x1cb;" horiz-adv-x="988" 
d="M628 0h-153l-228 358v-358h-175v712h153l228 -358v358h175v-712zM926 -21q0 -63 -42 -111t-125 -48h-87v138h57q33 0 33 33v526h164v-538zM926 593h-164v125h164v-125z" />
    <glyph glyph-name="uni01CC" unicode="&#x1cc;" horiz-adv-x="867" 
d="M522 0h-164v322q0 41 -21 57.5t-45 16.5t-45 -16.5t-21 -57.5v-322h-164v538h160v-44q50 50 125 50t121 -46q54 -54 54 -154v-344zM805 -21q0 -63 -42 -111t-125 -48h-87v138h57q33 0 33 33v526h164v-538zM805 593h-164v125h164v-125z" />
    <glyph glyph-name="uni01F1" unicode="&#x1f1;" horiz-adv-x="1194" 
d="M602 356q0 -106 -5.5 -151.5t-29.5 -84.5q-74 -120 -231 -120h-264v712h264q157 0 231 -120q24 -39 29.5 -84.5t5.5 -151.5zM427 356q0 86 -4 115t-15 45q-27 40 -84 40h-77v-400h77q57 0 84 40q11 16 15 45t4 115zM1164 0h-483v136l273 420h-261v156h471v-136l-274 -420
h274v-156z" />
    <glyph glyph-name="uni01F2" unicode="&#x1f2;" horiz-adv-x="1140" 
d="M602 356q0 -106 -5.5 -151.5t-29.5 -84.5q-74 -120 -231 -120h-264v712h264q157 0 231 -120q24 -39 29.5 -84.5t5.5 -151.5zM427 356q0 86 -4 115t-15 45q-27 40 -84 40h-77v-400h77q57 0 84 40q11 16 15 45t4 115zM1100 0h-419v121l205 269h-193v148h407v-121l-209 -269
h209v-148z" />
    <glyph glyph-name="uni01F3" unicode="&#x1f3;" horiz-adv-x="1058" 
d="M507 0h-159v44q-50 -50 -124 -50q-83 0 -130 49q-23 24 -35 63.5t-14 71.5t-2 91t2 91t14 71.5t35 63.5q47 49 129 49q75 0 120 -45v213h164v-712zM343 269q0 67 -13 97t-55 30t-55 -30t-13 -97t13 -97t55 -30t55 30t13 97zM1018 0h-419v121l205 269h-193v148h407v-121
l-209 -269h209v-148z" />
    <glyph glyph-name="Aringacute" unicode="&#x1fa;" horiz-adv-x="653" 
d="M653 0h-183l-33 106h-219l-35 -106h-183l259 712h135zM391 252l-60 190l-64 -190h124zM464 893q0 -57 -40.5 -97.5t-97.5 -40.5t-97.5 40.5t-40.5 97.5t40.5 97.5t97.5 40.5t97.5 -40t40.5 -98zM378 893q0 21 -15.5 36.5t-36.5 15.5t-36.5 -15.5t-15.5 -36.5t15.5 -36.5
t36.5 -15.5t36.5 15.5t15.5 36.5zM477 1221l-101 -180h-117l65 180h153z" />
    <glyph glyph-name="aringacute" unicode="&#x1fb;" horiz-adv-x="536" 
d="M483 0h-160v44q-26 -26 -52.5 -37.5t-67.5 -11.5q-81 0 -129 48q-47 47 -47 126q0 66 47 111t139 45h106v14q0 36 -19 51.5t-62 15.5q-47 0 -85 -38l-102 102q41 41 84 57.5t111 16.5q237 0 237 -195v-349zM319 202v14h-78q-57 0 -57 -44q0 -20 15 -32t44 -12q37 0 59 19
q17 16 17 55zM404 731q0 -57 -40.5 -97.5t-97.5 -40.5t-97.5 40.5t-40.5 97.5t40.5 97.5t97.5 40.5t97.5 -40t40.5 -98zM318 731q0 21 -15.5 36.5t-36.5 15.5t-36.5 -15.5t-15.5 -36.5t15.5 -36.5t36.5 -15.5t36.5 15.5t15.5 36.5zM418 1059l-101 -180h-117l65 180h153z" />
    <glyph glyph-name="AEacute" unicode="&#x1fc;" horiz-adv-x="1013" 
d="M961 0h-484v149h-212l-77 -149h-188l370 712h591v-156h-309v-119h264v-156h-264v-125h309v-156zM477 295v261l-136 -261h136zM715 962l-101 -180h-117l65 180h153z" />
    <glyph glyph-name="aeacute" unicode="&#x1fd;" horiz-adv-x="840" 
d="M802 216h-322q0 -35 25.5 -59.5t69.5 -24.5q40 0 63.5 10.5t47.5 34.5l98 -98q-44 -44 -91 -64.5t-118 -20.5q-123 0 -188 65q-45 -41 -85 -53t-99 -12q-80 0 -129 49q-47 47 -47 126q0 66 47 111t139 45h106v14q0 36 -19 51.5t-62 15.5q-47 0 -85 -38l-102 102
q41 41 84 57.5t111 16.5q112 0 170 -45q58 45 144 45q114 0 178 -72.5t64 -187.5v-68zM640 325q0 23 -9 42q-19 42 -71 42t-71 -42q-9 -19 -9 -42h160zM319 202v14h-78q-57 0 -57 -44q0 -20 15 -32t44 -12q37 0 59 19q17 16 17 55zM536 790l-101 -180h-117l65 180h153z" />
    <glyph glyph-name="Oslashacute" unicode="&#x1fe;" horiz-adv-x="640" 
d="M591 356q0 -58 -1.5 -87t-7.5 -70t-22 -71t-42 -56q-78 -78 -198 -78q-60 0 -105 18l-27 -56h-118l55 113q-27 27 -43.5 57.5t-23 72t-8 70.5t-1.5 87t1.5 87t7.5 70t22 71t42 56q78 78 198 78q60 0 105 -18l27 56h118l-54 -114q27 -27 43 -57t22.5 -71.5t8 -70.5
t1.5 -87zM416 356q0 58 -3 93l-137 -288q19 -11 44 -11q46 0 70 32q14 18 20 51t6 123zM364 552q-20 10 -44 10q-46 0 -70 -31q-14 -18 -20 -51.5t-6 -123.5q0 -58 3 -93zM471 962l-101 -180h-117l65 180h153z" />
    <glyph glyph-name="oslashacute" unicode="&#x1ff;" horiz-adv-x="550" 
d="M507 269q0 -80 -12.5 -124.5t-46.5 -81.5q-65 -69 -173 -69q-57 0 -104 20l-34 -58h-93l61 104q-40 42 -51 88t-11 121q0 79 13 124.5t46 81.5q65 69 173 69q57 0 104 -20l34 58h93l-61 -104q39 -42 50.5 -89t11.5 -120zM343 269q0 36 -2 50l-100 -170q13 -7 34 -7
q29 0 44 15q24 24 24 112zM309 389q-13 7 -34 7q-29 0 -44 -15q-24 -24 -24 -112q0 -36 2 -50zM427 790l-101 -180h-117l65 180h153z" />
    <glyph glyph-name="Scommaaccent" unicode="&#x218;" horiz-adv-x="593" 
d="M550 218q0 -105 -78.5 -164.5t-196.5 -59.5q-88 0 -153.5 20.5t-116.5 73.5l112 112q50 -50 159 -50q102 0 102 64q0 27 -14 42q-15 15 -47 19l-86 12q-95 14 -143 63q-49 50 -49 143q0 99 70.5 162t189.5 63q155 0 240 -85l-110 -110q-26 26 -56.5 34t-78.5 8
q-42 0 -64 -20t-22 -46q0 -19 14 -33q17 -17 49 -21l86 -12q94 -13 140 -59q53 -52 53 -156zM329 -53l-36 -144h-146l67 144h115z" />
    <glyph glyph-name="scommaaccent" unicode="&#x219;" horiz-adv-x="504" 
d="M477 176q0 -90 -66 -136t-167 -46q-50 0 -82 3.5t-74.5 21.5t-77.5 53l106 106q45 -45 131 -45q25 0 47.5 8t22.5 27q0 30 -39 34l-83 8q-156 15 -156 156q0 84 63.5 131t150.5 47q146 0 212 -66l-101 -101q-32 32 -114 32q-27 0 -40 -10t-13 -21q0 -26 35 -30l83 -8
q81 -8 121.5 -52t40.5 -112zM297 -53l-36 -144h-146l67 144h115z" />
    <glyph glyph-name="uni021A" unicode="&#x21a;" horiz-adv-x="585" 
d="M555 556h-175v-556h-175v556h-175v156h525v-156zM352 -53l-36 -144h-146l67 144h115z" />
    <glyph glyph-name="uni021B" unicode="&#x21b;" horiz-adv-x="363" 
d="M323 0h-82q-83 0 -125 48t-42 111v232h-49v126h49v154h164v-154h85v-126h-85v-220q0 -33 33 -33h52v-138zM246 -53l-36 -144h-146l67 144h115z" />
    <glyph glyph-name="uni0237" unicode="&#x237;" horiz-adv-x="288" 
d="M226 -21q0 -63 -42 -111t-125 -48h-87v138h57q33 0 33 33v526h164v-538z" />
    <glyph glyph-name="uni0259" unicode="&#x259;" horiz-adv-x="559" 
d="M38 322h322q0 35 -25.5 59.5t-69.5 24.5q-40 0 -63.5 -10.5t-47.5 -34.5l-98 98q44 44 91 64.5t118 20.5q256 0 256 -275q0 -129 -66.5 -202t-174.5 -73q-114 0 -178 72.5t-64 187.5v68zM200 213q0 -23 9 -42q19 -42 71 -42t71 42q9 19 9 42h-160z" />
    <glyph glyph-name="uni02BB" unicode="&#x2bb;" horiz-adv-x="278" 
d="M221 566h-164v146l164 120v-266z" />
    <glyph glyph-name="afii57929" unicode="&#x2bc;" horiz-adv-x="278" 
d="M221 565l-164 -118v265h164v-147z" />
    <glyph glyph-name="circumflex" unicode="&#x2c6;" horiz-adv-x="500" 
d="M449 610h-120l-79 83l-79 -83h-120l136 179h126z" />
    <glyph glyph-name="caron" unicode="&#x2c7;" horiz-adv-x="500" 
d="M449 789l-136 -179h-126l-136 179h120l79 -83l79 83h120z" />
    <glyph glyph-name="breve" unicode="&#x2d8;" horiz-adv-x="500" 
d="M414 759q-2 -82 -50 -119.5t-114 -37.5t-114 37.5t-50 119.5h106q4 -47 58 -47t58 47h106z" />
    <glyph glyph-name="dotaccent" unicode="&#x2d9;" horiz-adv-x="500" 
d="M319 613h-138v138h138v-138z" />
    <glyph glyph-name="ring" unicode="&#x2da;" horiz-adv-x="500" 
d="M388 731q0 -57 -40.5 -97.5t-97.5 -40.5t-97.5 40.5t-40.5 97.5t40.5 97.5t97.5 40.5t97.5 -40t40.5 -98zM302 731q0 21 -15.5 36.5t-36.5 15.5t-36.5 -15.5t-15.5 -36.5t15.5 -36.5t36.5 -15.5t36.5 15.5t15.5 36.5z" />
    <glyph glyph-name="ogonek" unicode="&#x2db;" horiz-adv-x="500" 
d="M430 -56l-36 -144h-146l67 144h115z" />
    <glyph glyph-name="tilde" unicode="&#x2dc;" horiz-adv-x="500" 
d="M468 679q-34 -34 -61.5 -48.5t-61.5 -14.5q-44 0 -81 22q-29 17 -56 17q-31 0 -58 -27l-68 69q34 34 61 48.5t61 14.5q44 0 81 -22q29 -17 55 -17q31 0 58 27z" />
    <glyph glyph-name="hungarumlaut" unicode="&#x2dd;" horiz-adv-x="500" 
d="M246 790l-117 -180h-100l49 180h168zM471 790l-118 -180h-99l49 180h168z" />
    <glyph glyph-name="uni037E" unicode="&#x37e;" horiz-adv-x="317" 
d="M257 -50l-174 -128v352h174v-224zM260 253h-180v180h180v-180z" />
    <glyph glyph-name="tonos" unicode="&#x384;" horiz-adv-x="500" 
d="M321 636l-131 -54v172h131v-118z" />
    <glyph glyph-name="dieresistonos" unicode="&#x385;" horiz-adv-x="494" 
d="M494 609h-134v145h134v-145zM319 672l-131 -54v172h131v-118zM134 609h-134v145h134v-145z" />
    <glyph glyph-name="Alphatonos" unicode="&#x386;" horiz-adv-x="653" 
d="M653 0h-183l-33 106h-219l-35 -106h-183l259 712h135zM391 252l-60 190l-64 -190h124zM111 594l-131 -54v172h131v-118z" />
    <glyph glyph-name="anoteleia" unicode="&#x387;" horiz-adv-x="280" 
d="M231 213h-182v164h182v-164z" />
    <glyph glyph-name="Epsilontonos" unicode="&#x388;" horiz-adv-x="608" 
d="M556 0h-484v712h484v-156h-309v-119h264v-156h-264v-125h309v-156zM10 594l-131 -54v172h131v-118z" />
    <glyph glyph-name="Etatonos" unicode="&#x389;" horiz-adv-x="680" 
d="M608 0h-175v282h-186v-282h-175v712h175v-274h186v274h175v-712zM11 594l-131 -54v172h131v-118z" />
    <glyph glyph-name="Iotatonos" unicode="&#x38a;" horiz-adv-x="319" 
d="M247 0h-175v712h175v-712zM10 594l-131 -54v172h131v-118z" />
    <glyph glyph-name="Omicrontonos" unicode="&#x38c;" horiz-adv-x="640" 
d="M591 356q0 -58 -1.5 -87t-7.5 -70t-22 -71t-42 -56q-78 -78 -198 -78t-198 78q-26 26 -42 56t-22 71t-7.5 70t-1.5 87t1.5 87t7.5 70t22 71t42 56q78 78 198 78t198 -78q26 -26 42 -56t22 -71t7.5 -70t1.5 -87zM416 356q0 90 -6 123.5t-20 51.5q-24 31 -70 31t-70 -31
q-14 -18 -20 -51.5t-6 -123.5t6 -123t20 -51q24 -32 70 -32t70 32q14 18 20 51t6 123zM31 594l-131 -54v172h131v-118z" />
    <glyph glyph-name="Upsilontonos" unicode="&#x38e;" horiz-adv-x="605" 
d="M605 712l-215 -422v-290h-175v290l-215 422h191l112 -256l111 256h191zM-19 594l-131 -54v172h131v-118z" />
    <glyph glyph-name="Omegatonos" unicode="&#x38f;" horiz-adv-x="640" 
d="M31 594l-131 -54v172h131v-118zM591 356q0 -92 -20 -152q-9 -27 -25 -48h45v-156h-233v136q21 10 32 25q26 34 26 185q0 149 -26 183q-25 33 -70 33t-70 -33q-26 -34 -26 -183q0 -151 26 -185q11 -15 32 -25v-136h-233v156h45q-16 21 -25 48q-20 60 -20 152q0 58 1.5 87
t7.5 70t22 71t42 56q78 78 198 78t198 -78q26 -26 42 -56t22 -71t7.5 -70t1.5 -87z" />
    <glyph glyph-name="iotadieresistonos" unicode="&#x390;" horiz-adv-x="341" 
d="M311 0h-87q-83 0 -125 48t-42 111v379h164v-367q0 -33 33 -33h57v-138zM394 609h-134v145h134v-145zM219 672l-131 -54v172h131v-118zM34 609h-134v145h134v-145z" />
    <glyph glyph-name="Alpha" unicode="&#x391;" horiz-adv-x="653" 
d="M653 0h-183l-33 106h-219l-35 -106h-183l259 712h135zM391 252l-60 190l-64 -190h124z" />
    <glyph glyph-name="Beta" unicode="&#x392;" horiz-adv-x="653" 
d="M604 210q0 -99 -62 -154.5t-160 -55.5h-310v712h295q109 0 168 -56t59 -150q0 -88 -78 -141q16 -10 27 -18.5t27 -27t25 -46.5t9 -63zM419 497q0 24 -15 41t-48 17h-109v-116h109q33 0 48 17t15 41zM429 220q0 26 -15.5 44t-48.5 18h-118v-125h118q33 0 48.5 18.5
t15.5 44.5z" />
    <glyph glyph-name="Gamma" unicode="&#x393;" horiz-adv-x="571" 
d="M541 556h-294v-556h-175v712h469v-156z" />
    <glyph glyph-name="uni0394" unicode="&#x394;" horiz-adv-x="653" 
d="M653 0h-653l259 712h135zM424 146l-93 296l-99 -296h192z" />
    <glyph glyph-name="Epsilon" unicode="&#x395;" horiz-adv-x="608" 
d="M556 0h-484v712h484v-156h-309v-119h264v-156h-264v-125h309v-156z" />
    <glyph glyph-name="Zeta" unicode="&#x396;" horiz-adv-x="543" 
d="M513 0h-483v136l273 420h-261v156h471v-136l-274 -420h274v-156z" />
    <glyph glyph-name="Eta" unicode="&#x397;" horiz-adv-x="680" 
d="M608 0h-175v282h-186v-282h-175v712h175v-274h186v274h175v-712z" />
    <glyph glyph-name="Theta" unicode="&#x398;" horiz-adv-x="640" 
d="M414 438q-4 67 -24 93q-24 31 -70 31t-70 -31q-20 -26 -24 -93h188zM415 292h-190q3 -82 25 -110q24 -32 70 -32t70 32q22 28 25 110zM591 356q0 -58 -1.5 -87t-7.5 -70t-22 -71t-42 -56q-78 -78 -198 -78t-198 78q-26 26 -42 56t-22 71t-7.5 70t-1.5 87t1.5 87t7.5 70
t22 71t42 56q78 78 198 78t198 -78q26 -26 42 -56t22 -71t7.5 -70t1.5 -87z" />
    <glyph glyph-name="Iota" unicode="&#x399;" horiz-adv-x="319" 
d="M247 0h-175v712h175v-712z" />
    <glyph glyph-name="Kappa" unicode="&#x39a;" horiz-adv-x="673" 
d="M673 0h-204l-164 292l-60 -69v-223h-173v712h173v-252l206 252h214l-243 -288z" />
    <glyph glyph-name="Lambda" unicode="&#x39b;" horiz-adv-x="633" 
d="M633 0h-183l-129 436l-138 -436h-183l249 712h135z" />
    <glyph glyph-name="Mu" unicode="&#x39c;" horiz-adv-x="808" 
d="M736 0h-175v341l-101 -176h-112l-101 176v-341h-175v712h172l160 -314l160 314h172v-712z" />
    <glyph glyph-name="Nu" unicode="&#x39d;" horiz-adv-x="700" 
d="M628 0h-153l-228 358v-358h-175v712h153l228 -358v358h175v-712z" />
    <glyph glyph-name="Xi" unicode="&#x39e;" horiz-adv-x="609" 
d="M557 0h-505v156h165v125h-120v156h120v119h-165v156h505v-156h-165v-119h120v-156h-120v-125h165v-156z" />
    <glyph glyph-name="Omicron" unicode="&#x39f;" horiz-adv-x="640" 
d="M591 356q0 -58 -1.5 -87t-7.5 -70t-22 -71t-42 -56q-78 -78 -198 -78t-198 78q-26 26 -42 56t-22 71t-7.5 70t-1.5 87t1.5 87t7.5 70t22 71t42 56q78 78 198 78t198 -78q26 -26 42 -56t22 -71t7.5 -70t1.5 -87zM416 356q0 90 -6 123.5t-20 51.5q-24 31 -70 31t-70 -31
q-14 -18 -20 -51.5t-6 -123.5t6 -123t20 -51q24 -32 70 -32t70 32q14 18 20 51t6 123z" />
    <glyph glyph-name="Pi" unicode="&#x3a0;" horiz-adv-x="680" 
d="M608 0h-175v556h-186v-556h-175v712h536v-712z" />
    <glyph glyph-name="Rho" unicode="&#x3a1;" horiz-adv-x="627" 
d="M597 483q0 -94 -65 -161.5t-178 -67.5h-107v-254h-175v712h282q113 0 178 -67.5t65 -161.5zM422 483q0 29 -21 50.5t-55 21.5h-99v-144h99q34 0 55 21.5t21 50.5z" />
    <glyph glyph-name="Sigma" unicode="&#x3a3;" horiz-adv-x="543" 
d="M517 556h-261l118 -190l-135 -210h274v-156h-483v136l153 230l-137 210v136h471v-156z" />
    <glyph glyph-name="Tau" unicode="&#x3a4;" horiz-adv-x="585" 
d="M555 556h-175v-556h-175v556h-175v156h525v-156z" />
    <glyph glyph-name="Upsilon" unicode="&#x3a5;" horiz-adv-x="605" 
d="M605 712l-215 -422v-290h-175v290l-215 422h191l112 -256l111 256h191z" />
    <glyph glyph-name="Phi" unicode="&#x3a6;" horiz-adv-x="801" 
d="M761 356q0 -149 -73 -222q-80 -80 -200 -80v-54h-175v54q-120 0 -200 80q-73 73 -73 222t73 222q80 80 200 80v54h175v-54q120 0 200 -80q73 -73 73 -222zM586 356q0 76 -23 110q-23 36 -75 36v-292q52 0 75 36q23 34 23 110zM313 210v292q-52 0 -75 -36
q-23 -34 -23 -110t23 -110q23 -36 75 -36z" />
    <glyph glyph-name="Chi" unicode="&#x3a7;" horiz-adv-x="634" 
d="M634 0h-200l-117 219l-117 -219h-200l222 365l-208 347h199l104 -201l104 201h199l-208 -347z" />
    <glyph glyph-name="Psi" unicode="&#x3a8;" horiz-adv-x="791" 
d="M746 366q0 -90 -72 -162q-77 -77 -191 -80v-124h-175v124q-114 3 -191 80q-72 72 -72 162v346h175v-346q0 -32 27.5 -57.5t60.5 -28.5v432h175v-432q33 3 60.5 28.5t27.5 57.5v346h175v-346z" />
    <glyph glyph-name="uni03A9" unicode="&#x3a9;" horiz-adv-x="640" 
d="M591 356q0 -92 -20 -152q-9 -27 -25 -48h45v-156h-233v136q21 10 32 25q26 34 26 185q0 149 -26 183q-25 33 -70 33t-70 -33q-26 -34 -26 -183q0 -151 26 -185q11 -15 32 -25v-136h-233v156h45q-16 21 -25 48q-20 60 -20 152q0 58 1.5 87t7.5 70t22 71t42 56
q78 78 198 78t198 -78q26 -26 42 -56t22 -71t7.5 -70t1.5 -87z" />
    <glyph glyph-name="Iotadieresis" unicode="&#x3aa;" horiz-adv-x="319" 
d="M247 0h-175v712h175v-712zM341 781h-134v145h134v-145zM115 781h-134v145h134v-145z" />
    <glyph glyph-name="Upsilondieresis" unicode="&#x3ab;" horiz-adv-x="605" 
d="M605 712l-215 -422v-290h-175v290l-215 422h191l112 -256l111 256h191zM482 781h-134v145h134v-145zM256 781h-134v145h134v-145z" />
    <glyph glyph-name="alphatonos" unicode="&#x3ac;" horiz-adv-x="569" 
d="M507 0h-159v44q-50 -50 -124 -50q-83 0 -130 49q-23 24 -35 63.5t-14 71.5t-2 91t2 91t14 71.5t35 63.5q47 49 130 49q74 0 124 -50v44h159v-538zM343 269q0 67 -13 97t-55 30t-55 -30t-13 -97t13 -97t55 -30t55 30t13 97zM351 636l-131 -54v172h131v-118z" />
    <glyph glyph-name="epsilontonos" unicode="&#x3ad;" horiz-adv-x="526" 
d="M516 90q-58 -60 -105.5 -78t-133.5 -18q-103 0 -172.5 40.5t-69.5 125.5q0 26 7 47t21.5 36t23.5 21.5t25 16.5q-55 39 -55 107q0 67 65 111t164 44q110 0 206 -77l-87 -109q-61 53 -114 53q-73 0 -73 -46q0 -13 12 -21t31 -8h103v-123h-112q-51 0 -51 -33
q0 -24 26.5 -36.5t62.5 -12.5q40 0 68 12.5t58 43.5zM351 636l-131 -54v172h131v-118z" />
    <glyph glyph-name="etatonos" unicode="&#x3ae;" horiz-adv-x="579" 
d="M522 0h-164v322q0 41 -21 57.5t-45 16.5t-45 -16.5t-21 -57.5v-322h-164v538h160v-44q50 50 125 50t121 -46q54 -54 54 -154v-344zM351 636l-131 -54v172h131v-118z" />
    <glyph glyph-name="iotatonos" unicode="&#x3af;" horiz-adv-x="341" 
d="M311 0h-87q-83 0 -125 48t-42 111v379h164v-367q0 -33 33 -33h57v-138zM211 636l-131 -54v172h131v-118z" />
    <glyph glyph-name="upsilondieresistonos" unicode="&#x3b0;" horiz-adv-x="560" 
d="M510 269q0 -81 -12 -125.5t-45 -80.5q-65 -69 -173 -69t-173 69q-33 36 -45 80.5t-12 125.5v269h164v-322q0 -41 21 -57.5t45 -16.5t45 16.5t21 57.5v322h164v-269zM521 609h-134v145h134v-145zM346 672l-131 -54v172h131v-118zM161 609h-134v145h134v-145z" />
    <glyph glyph-name="alpha" unicode="&#x3b1;" horiz-adv-x="569" 
d="M507 0h-159v44q-50 -50 -124 -50q-83 0 -130 49q-23 24 -35 63.5t-14 71.5t-2 91t2 91t14 71.5t35 63.5q47 49 130 49q74 0 124 -50v44h159v-538zM343 269q0 67 -13 97t-55 30t-55 -30t-13 -97t13 -97t55 -30t55 30t13 97z" />
    <glyph glyph-name="beta" unicode="&#x3b2;" horiz-adv-x="584" 
d="M535 230q0 -129 -47 -180q-52 -56 -145 -56q-74 0 -124 50v-44h-157v514q0 104 66 154t174 50q98 0 161.5 -48.5t63.5 -132.5q0 -74 -24 -106t-51 -44q33 -15 51 -40q32 -46 32 -117zM371 242q0 55 -26 71q-20 12 -49 12h-44v124h62q29 0 44 20.5t15 48.5q0 25 -19 42
q-21 19 -49 19q-42 0 -60 -18.5t-18 -55.5v-293q0 -35 22 -53t41 -18q41 0 60 19q21 21 21 82z" />
    <glyph glyph-name="gamma" unicode="&#x3b3;" horiz-adv-x="521" 
d="M521 538l-180 -519v-193h-162v193l-179 519h172l89 -312l88 312h172z" />
    <glyph glyph-name="delta" unicode="&#x3b4;" horiz-adv-x="534" 
d="M491 259q0 -77 -12 -120.5t-45 -78.5q-62 -66 -167 -66t-167 66q-33 35 -45 78.5t-12 120.5q0 78 12 122.5t44 78.5q45 49 102 49q24 0 35 -5l-127 103v105h351v-113h-154l89 -75q60 -51 78 -111.5t18 -153.5zM327 259q0 82 -21 103q-14 14 -39 14t-39 -14
q-21 -21 -21 -103t21 -103q14 -14 39 -14t39 14q21 21 21 103z" />
    <glyph glyph-name="epsilon" unicode="&#x3b5;" horiz-adv-x="526" 
d="M516 90q-58 -60 -105.5 -78t-133.5 -18q-103 0 -172.5 40.5t-69.5 125.5q0 26 7 47t21.5 36t23.5 21.5t25 16.5q-55 39 -55 107q0 67 65 111t164 44q110 0 206 -77l-87 -109q-61 53 -114 53q-73 0 -73 -46q0 -13 12 -21t31 -8h103v-123h-112q-51 0 -51 -33
q0 -24 26.5 -36.5t62.5 -12.5q40 0 68 12.5t58 43.5z" />
    <glyph glyph-name="zeta" unicode="&#x3b6;" horiz-adv-x="512" 
d="M488 -2q0 -11 -2 -25t-13 -38.5t-28.5 -43.5t-54 -33.5t-84.5 -14.5h-25v120h14q25 0 33.5 5t8.5 18q0 16 -45 16h-18q-234 0 -234 169q0 66 46 127t110 92h-124v148h407v-148h-23q-85 -30 -165.5 -87t-80.5 -112q0 -52 66 -52h38q77 0 125.5 -33t48.5 -108z" />
    <glyph glyph-name="eta" unicode="&#x3b7;" horiz-adv-x="579" 
d="M522 0h-164v322q0 41 -21 57.5t-45 16.5t-45 -16.5t-21 -57.5v-322h-164v538h160v-44q50 50 125 50t121 -46q54 -54 54 -154v-344z" />
    <glyph glyph-name="theta" unicode="&#x3b8;" horiz-adv-x="576" 
d="M526 356q0 -71 -2 -109.5t-16.5 -91t-43.5 -86.5q-64 -75 -176 -75t-176 75q-29 34 -43.5 86.5t-16.5 91t-2 109.5t2 109.5t16.5 91t43.5 86.5q65 75 176 75t176 -75q29 -34 43.5 -86.5t16.5 -91t2 -109.5zM360 293h-144q0 -97 16 -121q19 -30 56 -30t56 30q16 24 16 121
zM360 430q0 86 -16 110q-19 30 -56 30t-56 -30q-16 -24 -16 -110h144z" />
    <glyph glyph-name="iota" unicode="&#x3b9;" horiz-adv-x="341" 
d="M311 0h-87q-83 0 -125 48t-42 111v379h164v-367q0 -33 33 -33h57v-138z" />
    <glyph glyph-name="kappa" unicode="&#x3ba;" horiz-adv-x="573" 
d="M573 0h-203l-112 197l-32 -35v-162h-164v538h164v-188l145 188h197l-198 -223z" />
    <glyph glyph-name="lambda" unicode="&#x3bb;" horiz-adv-x="531" 
d="M539 0h-77q-34 0 -60.5 11t-41 23t-28 39.5t-17.5 40.5t-13 45l-34 120l-96 -279h-172l187 485l-14 45q-7 24 -19 32t-35 8h-35v148h64q78 0 120 -45q25 -27 41 -71l150 -428q4 -13 7 -19t10.5 -11.5t17.5 -5.5h45v-138z" />
    <glyph glyph-name="uni03BC" unicode="&#x3bc;" horiz-adv-x="584" 
d="M522 0h-160v44q-50 -50 -125 -50h-11v-168h-164v712h164v-322q0 -41 21 -57.5t45 -16.5t45 16.5t21 57.5v322h164v-538z" />
    <glyph glyph-name="nu" unicode="&#x3bd;" horiz-adv-x="521" 
d="M521 538l-198 -538h-125l-198 538h172l89 -279l88 279h172z" />
    <glyph glyph-name="xi" unicode="&#x3be;" horiz-adv-x="501" 
d="M498 641l-83 -108q-46 56 -125 56q-76 0 -76 -71q0 -32 20.5 -49t53.5 -17h121v-135h-101q-106 0 -106 -88q0 -90 92 -90h18q174 0 174 -137q0 -11 -2 -25t-13 -39.5t-28.5 -45t-54 -34.5t-84.5 -15h-25v120h14q25 0 33.5 7t8.5 21q0 10 -10 12.5t-35 2.5h-18
q-234 0 -234 198q0 132 119 184q-43 13 -70.5 52t-27.5 85q0 95 63.5 146.5t159.5 51.5q67 0 125 -22.5t91 -59.5z" />
    <glyph glyph-name="omicron" unicode="&#x3bf;" horiz-adv-x="550" 
d="M507 269q0 -80 -12.5 -124.5t-46.5 -81.5q-65 -69 -173 -69t-173 69q-34 37 -46.5 81.5t-12.5 124.5q0 79 13 124.5t46 81.5q65 69 173 69t173 -69q33 -36 46 -81.5t13 -124.5zM343 269q0 88 -24 112q-15 15 -44 15t-44 -15q-24 -24 -24 -112t24 -112q15 -15 44 -15
t44 15q24 24 24 112z" />
    <glyph glyph-name="pi" unicode="&#x3c0;" horiz-adv-x="587" 
d="M530 0h-164v382h-140v-382h-164v538h468v-538z" />
    <glyph glyph-name="rho" unicode="&#x3c1;" horiz-adv-x="550" 
d="M507 269q0 -73 -11.5 -122.5t-50.5 -88.5q-64 -64 -147 -64q-31 0 -56 12.5t-35 23.5v-204h-164v441q0 130 44 190q24 32 69.5 59.5t113.5 27.5q112 0 173 -63q30 -31 44.5 -69t17 -65.5t2.5 -77.5zM343 269q0 67 -13 97t-55 30t-55 -30t-13 -97t13 -97t55 -30t55 30
t13 97z" />
    <glyph glyph-name="sigma1" unicode="&#x3c2;" horiz-adv-x="475" 
d="M457 475l-111 -111q-32 32 -66 32q-30 0 -51 -21q-27 -28 -27 -106q0 -57 23.5 -80.5t74.5 -34.5q135 -28 135 -154q0 -13 -1.5 -25.5t-13 -39t-31 -45t-62 -33.5t-99.5 -15v124q15 0 23.5 0.5t17 3.5t12 9t3.5 16q0 22 -67 31q-179 26 -179 243q0 67 16.5 118.5
t41.5 80.5t59 47t63.5 23.5t61.5 5.5q108 0 177 -69z" />
    <glyph glyph-name="sigma" unicode="&#x3c3;" horiz-adv-x="575" 
d="M542 399h-79q18 -15 31 -54t13 -76q0 -80 -12.5 -124.5t-46.5 -81.5q-65 -69 -173 -69t-173 69q-34 37 -46.5 81.5t-12.5 124.5q0 79 13 124.5t46 81.5q59 63 171 63h269v-139zM343 269q0 96 -24 120q-13 13 -44 13q-28 0 -44 -16q-24 -24 -24 -117q0 -88 24 -112
q15 -15 44 -15t44 15q24 24 24 112z" />
    <glyph glyph-name="tau" unicode="&#x3c4;" horiz-adv-x="420" 
d="M400 390h-108v-390h-164v390h-108v148h380v-148z" />
    <glyph glyph-name="upsilon" unicode="&#x3c5;" horiz-adv-x="560" 
d="M510 269q0 -81 -12 -125.5t-45 -80.5q-65 -69 -173 -69t-173 69q-33 36 -45 80.5t-12 125.5v269h164v-322q0 -41 21 -57.5t45 -16.5t45 16.5t21 57.5v322h164v-269z" />
    <glyph glyph-name="phi" unicode="&#x3c6;" horiz-adv-x="723" 
d="M680 268q0 -122 -57 -196t-176 -79v-167h-164v167q-120 6 -180 81.5t-60 195.5q0 183 168 274l61 -107q-65 -52 -65 -172q0 -122 76 -130v403h128q134 0 194 -52q75 -65 75 -218zM516 269q0 43 -3 68t-19 46t-47 21v-269q41 2 55 35t14 99z" />
    <glyph glyph-name="chi" unicode="&#x3c7;" 
d="M556 0h-197l-82 136l-80 -136h-197l187 275l-180 263h197l73 -130l75 130h197l-180 -263z" />
    <glyph glyph-name="psi" unicode="&#x3c8;" horiz-adv-x="735" 
d="M680 269q0 -81 -12 -125.5t-45 -80.5q-59 -63 -173 -63v-174h-164v174q-115 0 -174 63q-33 36 -45 80.5t-12 125.5v269h164v-322q0 -41 22.5 -61.5t44.5 -20.5v404h164v-404q22 0 44 20.5t22 61.5v322h164v-269z" />
    <glyph glyph-name="omega" unicode="&#x3c9;" horiz-adv-x="768" 
d="M725 269q0 -82 -11 -126t-44 -80q-65 -69 -148 -69q-98 0 -138 59q-40 -59 -138 -59q-83 0 -148 69q-33 36 -44 80t-11 126q0 79 13 124.5t46 81.5q65 69 168 69v-145q-21 0 -39 -18q-24 -24 -24 -112t24 -112q14 -14 32 -14q16 0 27.5 15.5t11.5 37.5v164h164v-164
q0 -22 11.5 -37.5t27.5 -15.5q18 0 32 14q24 24 24 112t-24 112q-18 18 -39 18v145q103 0 168 -69q33 -36 46 -81.5t13 -124.5z" />
    <glyph glyph-name="iotadieresis" unicode="&#x3ca;" horiz-adv-x="341" 
d="M311 0h-87q-83 0 -125 48t-42 111v379h164v-367q0 -33 33 -33h57v-138zM97 609h-134v145h134v-145zM323 609h-134v145h134v-145z" />
    <glyph glyph-name="upsilondieresis" unicode="&#x3cb;" horiz-adv-x="560" 
d="M510 269q0 -81 -12 -125.5t-45 -80.5q-65 -69 -173 -69t-173 69q-33 36 -45 80.5t-12 125.5v269h164v-322q0 -41 21 -57.5t45 -16.5t45 16.5t21 57.5v322h164v-269zM233 609h-134v145h134v-145zM459 609h-134v145h134v-145z" />
    <glyph glyph-name="omicrontonos" unicode="&#x3cc;" horiz-adv-x="550" 
d="M507 269q0 -80 -12.5 -124.5t-46.5 -81.5q-65 -69 -173 -69t-173 69q-34 37 -46.5 81.5t-12.5 124.5q0 79 13 124.5t46 81.5q65 69 173 69t173 -69q33 -36 46 -81.5t13 -124.5zM343 269q0 88 -24 112q-15 15 -44 15t-44 -15q-24 -24 -24 -112t24 -112q15 -15 44 -15
t44 15q24 24 24 112zM341 636l-131 -54v172h131v-118z" />
    <glyph glyph-name="upsilontonos" unicode="&#x3cd;" horiz-adv-x="560" 
d="M510 269q0 -81 -12 -125.5t-45 -80.5q-65 -69 -173 -69t-173 69q-33 36 -45 80.5t-12 125.5v269h164v-322q0 -41 21 -57.5t45 -16.5t45 16.5t21 57.5v322h164v-269zM346 636l-131 -54v172h131v-118z" />
    <glyph glyph-name="omegatonos" unicode="&#x3ce;" horiz-adv-x="768" 
d="M725 269q0 -82 -11 -126t-44 -80q-65 -69 -148 -69q-98 0 -138 59q-40 -59 -138 -59q-83 0 -148 69q-33 36 -44 80t-11 126q0 79 13 124.5t46 81.5q65 69 168 69v-145q-21 0 -39 -18q-24 -24 -24 -112t24 -112q14 -14 32 -14q16 0 27.5 15.5t11.5 37.5v164h164v-164
q0 -22 11.5 -37.5t27.5 -15.5q18 0 32 14q24 24 24 112t-24 112q-18 18 -39 18v145q103 0 168 -69q33 -36 46 -81.5t13 -124.5zM451 636l-131 -54v172h131v-118z" />
    <glyph glyph-name="uni03D0" unicode="&#x3d0;" horiz-adv-x="584" 
d="M371 242q0 55 -26 71q-20 12 -49 12h-44v124h62q29 0 44 20.5t15 48.5q0 25 -19 42q-21 19 -49 19q-79 0 -79 -74v-293q0 -35 22.5 -53t41.5 -18q41 0 60 19q21 21 21 82zM535 230q0 -129 -47 -180q-52 -56 -145 -56q-72 0 -117 45v-213h-164v688q0 104 66 154t174 50
q98 0 161.5 -48.5t63.5 -132.5q0 -74 -24 -106t-51 -44q33 -15 51 -40q32 -46 32 -117z" />
    <glyph glyph-name="uni0400" unicode="&#x400;" horiz-adv-x="608" 
d="M556 0h-484v712h484v-156h-309v-119h264v-156h-264v-125h309v-156zM375 782h-117l-101 180h153z" />
    <glyph glyph-name="afii10023" unicode="&#x401;" horiz-adv-x="608" 
d="M556 0h-484v712h484v-156h-309v-119h264v-156h-264v-125h309v-156zM488 781h-134v145h134v-145zM262 781h-134v145h134v-145z" />
    <glyph glyph-name="afii10051" unicode="&#x402;" horiz-adv-x="750" 
d="M700 229q0 -105 -65.5 -167t-172.5 -62h-42v150h29q33 0 54.5 21t21.5 57q0 35 -21 56t-55 21h-99v-305h-175v556h-145v156h525v-156h-205v-100h112q107 0 172.5 -61.5t65.5 -165.5z" />
    <glyph glyph-name="afii10052" unicode="&#x403;" 
d="M531 556h-284v-556h-175v712h459v-156zM419 962l-101 -180h-117l65 180h153z" />
    <glyph glyph-name="afii10053" unicode="&#x404;" horiz-adv-x="609" 
d="M588 222q-18 -111 -91 -169.5t-178 -58.5q-119 0 -197 78q-26 26 -42 56t-22 71t-7.5 70t-1.5 87t1.5 87t7.5 70t22 71t42 56q78 78 197 78q105 0 178 -58.5t91 -169.5h-174q-23 76 -94 76q-47 0 -72 -32q-23 -30 -26 -101h189v-152h-189q3 -73 26 -103q25 -32 72 -32
q71 0 94 76h174z" />
    <glyph glyph-name="afii10054" unicode="&#x405;" horiz-adv-x="593" 
d="M550 218q0 -105 -78.5 -164.5t-196.5 -59.5q-88 0 -153.5 20.5t-116.5 73.5l112 112q50 -50 159 -50q102 0 102 64q0 27 -14 42q-15 15 -47 19l-86 12q-95 14 -143 63q-49 50 -49 143q0 99 70.5 162t189.5 63q155 0 240 -85l-110 -110q-26 26 -56.5 34t-78.5 8
q-42 0 -64 -20t-22 -46q0 -19 14 -33q17 -17 49 -21l86 -12q94 -13 140 -59q53 -52 53 -156z" />
    <glyph glyph-name="afii10055" unicode="&#x406;" horiz-adv-x="319" 
d="M247 0h-175v712h175v-712z" />
    <glyph glyph-name="afii10056" unicode="&#x407;" horiz-adv-x="319" 
d="M247 0h-175v712h175v-712zM340 781h-134v145h134v-145zM114 781h-134v145h134v-145z" />
    <glyph glyph-name="afii10057" unicode="&#x408;" horiz-adv-x="516" 
d="M454 244q0 -119 -79.5 -184.5t-188.5 -65.5q-63 0 -107 17.5t-87 60.5l115 114q36 -36 79 -36t68 24.5t25 73.5v464h175v-468z" />
    <glyph glyph-name="afii10058" unicode="&#x409;" horiz-adv-x="984" 
d="M779 229q0 31 -21.5 51.5t-54.5 20.5h-99v-145h99q33 0 54.5 21t21.5 52zM136 712h468v-254h112q106 0 172 -64.5t66 -164.5t-66.5 -164.5t-171.5 -64.5h-287v556h-124v-186q0 -147 -26 -228.5t-73.5 -111.5t-128.5 -30h-67v156h21q34 0 55.5 15t35.5 63.5t14 135.5v342z
" />
    <glyph glyph-name="afii10059" unicode="&#x40a;" horiz-adv-x="988" 
d="M433 302h-186v-302h-175v712h175v-254h186v254h175v-254h112q106 0 172 -64.5t66 -164.5t-66.5 -164.5t-171.5 -64.5h-287v302zM783 229q0 31 -21.5 51.5t-54.5 20.5h-99v-145h99q33 0 54.5 21t21.5 52z" />
    <glyph glyph-name="afii10060" unicode="&#x40b;" horiz-adv-x="750" 
d="M700 0h-175v233q0 31 -21.5 51.5t-54.5 20.5h-99v-305h-175v556h-145v156h525v-156h-205v-100h112q106 0 172 -61.5t66 -161.5v-233z" />
    <glyph glyph-name="afii10061" unicode="&#x40c;" horiz-adv-x="654" 
d="M247 0h-175v712h175v-712zM664 0h-206l-210 374l192 338h201l-210 -331zM480 962l-101 -180h-117l65 180h153z" />
    <glyph glyph-name="uni040D" unicode="&#x40d;" horiz-adv-x="700" 
d="M628 0h-175v388l-228 -388h-153v712h175v-388l228 388h153v-712zM417 782h-117l-101 180h153z" />
    <glyph glyph-name="afii10062" unicode="&#x40e;" horiz-adv-x="601" 
d="M478 898q-1 -55 -29 -91t-64 -48.5t-79 -12.5t-79 12.5t-64 48.5t-29 91h119q3 -53 53 -53t53 53h119zM601 712l-250 -587q-54 -125 -170 -125h-97v156h62q60 0 78 65l1 4l-225 487h184l125 -298l113 298h179z" />
    <glyph glyph-name="afii10145" unicode="&#x40f;" horiz-adv-x="680" 
d="M424 0v-144h-168v144h-184v712h175v-556h186v556h175v-712h-184z" />
    <glyph glyph-name="afii10017" unicode="&#x410;" horiz-adv-x="653" 
d="M653 0h-183l-33 106h-219l-35 -106h-183l259 712h135zM391 252l-60 190l-64 -190h124z" />
    <glyph glyph-name="afii10018" unicode="&#x411;" horiz-adv-x="653" 
d="M604 229q0 -102 -64 -165.5t-174 -63.5h-294v712h486v-156h-311v-98h119q110 0 174 -63.5t64 -165.5zM429 229q0 31 -19.5 51.5t-51.5 20.5h-111v-144h111q32 0 51.5 20.5t19.5 51.5z" />
    <glyph glyph-name="afii10019" unicode="&#x412;" horiz-adv-x="653" 
d="M604 209q0 -95 -60.5 -152t-161.5 -57h-310v712h295q104 0 165.5 -54t61.5 -146q0 -90 -78 -147q47 -30 67.5 -66t20.5 -90zM419 497q0 27 -16.5 42.5t-46.5 15.5h-109v-116h109q30 0 46.5 15.5t16.5 42.5zM429 220q0 29 -17 45.5t-47 16.5h-118v-125h118q30 0 47 17
t17 46z" />
    <glyph glyph-name="afii10020" unicode="&#x413;" 
d="M531 556h-284v-556h-175v712h459v-156z" />
    <glyph glyph-name="afii10021" unicode="&#x414;" horiz-adv-x="709" 
d="M690 -144h-168v144h-344v-144h-168v300h70q38 102 55 221.5t17 304.5v30h457v-556h81v-300zM434 156v400h-112v-20q0 -200 -64 -380h176z" />
    <glyph glyph-name="afii10022" unicode="&#x415;" horiz-adv-x="608" 
d="M556 0h-484v712h484v-156h-309v-119h264v-156h-264v-125h309v-156z" />
    <glyph glyph-name="afii10024" unicode="&#x416;" horiz-adv-x="949" 
d="M959 0h-201l-195 374l177 338h196l-195 -331zM562 0h-175v712h175v-712zM191 0h-201l218 381l-195 331h196l177 -338z" />
    <glyph glyph-name="afii10025" unicode="&#x417;" horiz-adv-x="600" 
d="M288 -6q-105 0 -178 58.5t-91 169.5h174q23 -76 94 -76q42 0 65 20t23 52q0 35 -21.5 55t-64.5 20h-94v142h94q36 0 57 18.5t21 49.5q0 29 -21.5 47t-57.5 18q-71 0 -94 -78h-174q18 111 91 169.5t178 58.5q111 0 181.5 -55.5t70.5 -146.5q0 -46 -24 -85t-62 -63
q43 -22 69.5 -63t26.5 -93q0 -98 -73.5 -158t-189.5 -60z" />
    <glyph glyph-name="afii10026" unicode="&#x418;" horiz-adv-x="700" 
d="M628 0h-175v388l-228 -388h-153v712h175v-388l228 388h153v-712z" />
    <glyph glyph-name="afii10027" unicode="&#x419;" horiz-adv-x="700" 
d="M524 898q-1 -55 -29 -91t-64 -48.5t-79 -12.5t-79 12.5t-64 48.5t-29 91h119q3 -53 53 -53t53 53h119zM628 0h-175v388l-228 -388h-153v712h175v-388l228 388h153v-712z" />
    <glyph glyph-name="afii10028" unicode="&#x41a;" horiz-adv-x="654" 
d="M247 0h-175v712h175v-712zM664 0h-206l-210 374l192 338h201l-210 -331z" />
    <glyph glyph-name="afii10029" unicode="&#x41b;" horiz-adv-x="676" 
d="M604 0h-175v556h-124v-186q0 -147 -26 -228.5t-73.5 -111.5t-128.5 -30h-67v156h21q34 0 55.5 15t35.5 63.5t14 135.5v342h468v-712z" />
    <glyph glyph-name="afii10030" unicode="&#x41c;" horiz-adv-x="808" 
d="M736 0h-175v341l-101 -176h-112l-101 176v-341h-175v712h172l160 -314l160 314h172v-712z" />
    <glyph glyph-name="afii10031" unicode="&#x41d;" horiz-adv-x="680" 
d="M608 0h-175v282h-186v-282h-175v712h175v-274h186v274h175v-712z" />
    <glyph glyph-name="afii10032" unicode="&#x41e;" horiz-adv-x="640" 
d="M591 356q0 -58 -1.5 -87t-7.5 -70t-22 -71t-42 -56q-78 -78 -198 -78t-198 78q-26 26 -42 56t-22 71t-7.5 70t-1.5 87t1.5 87t7.5 70t22 71t42 56q78 78 198 78t198 -78q26 -26 42 -56t22 -71t7.5 -70t1.5 -87zM416 356q0 90 -6 123.5t-20 51.5q-24 31 -70 31t-70 -31
q-14 -18 -20 -51.5t-6 -123.5t6 -123t20 -51q24 -32 70 -32t70 32q14 18 20 51t6 123z" />
    <glyph glyph-name="afii10033" unicode="&#x41f;" horiz-adv-x="680" 
d="M608 0h-175v556h-186v-556h-175v712h536v-712z" />
    <glyph glyph-name="afii10034" unicode="&#x420;" horiz-adv-x="627" 
d="M597 483q0 -94 -65 -161.5t-178 -67.5h-107v-254h-175v712h282q113 0 178 -67.5t65 -161.5zM422 483q0 29 -21 50.5t-55 21.5h-99v-144h99q34 0 55 21.5t21 50.5z" />
    <glyph glyph-name="afii10035" unicode="&#x421;" horiz-adv-x="609" 
d="M589 226q-19 -114 -91.5 -173t-177.5 -59q-120 0 -198 78q-26 26 -42 56t-22 71t-7.5 70t-1.5 87t1.5 87t7.5 70t22 71t42 56q78 78 198 78q105 0 177.5 -59t91.5 -173h-178q-21 76 -91 76q-46 0 -69 -30q-14 -18 -20.5 -52.5t-6.5 -123.5t6.5 -123.5t20.5 -52.5
q23 -30 69 -30q70 0 91 76h178z" />
    <glyph glyph-name="afii10036" unicode="&#x422;" horiz-adv-x="585" 
d="M555 556h-175v-556h-175v556h-175v156h525v-156z" />
    <glyph glyph-name="afii10037" unicode="&#x423;" horiz-adv-x="601" 
d="M601 712l-250 -587q-54 -125 -170 -125h-97v156h62q60 0 78 65l1 4l-225 487h184l125 -298l113 298h179z" />
    <glyph glyph-name="afii10038" unicode="&#x424;" horiz-adv-x="859" 
d="M819 377q0 -285 -302 -298v-85h-175v85q-302 13 -302 298t302 298v73h175v-73q302 -13 302 -298zM644 377q0 76 -30.5 110.5t-99.5 39.5v-300q69 5 99.5 39.5t30.5 110.5zM345 227v300q-69 -5 -99.5 -39.5t-30.5 -110.5t30.5 -110.5t99.5 -39.5z" />
    <glyph glyph-name="afii10039" unicode="&#x425;" horiz-adv-x="634" 
d="M634 0h-200l-117 219l-117 -219h-200l222 365l-208 347h199l104 -201l104 201h199l-208 -347z" />
    <glyph glyph-name="afii10040" unicode="&#x426;" horiz-adv-x="708" 
d="M689 -144h-168v144h-449v712h175v-556h186v556h175v-556h81v-300z" />
    <glyph glyph-name="afii10041" unicode="&#x427;" horiz-adv-x="651" 
d="M579 0h-175v253q-6 -1 -28 -4t-38.5 -5t-45 -4t-57.5 -2q-71 0 -124.5 46.5t-53.5 124.5v303h175v-254q0 -29 17 -46t47 -17q63 0 108 9v308h175v-712z" />
    <glyph glyph-name="afii10042" unicode="&#x428;" horiz-adv-x="983" 
d="M911 0h-839v712h175v-556h157v556h175v-556h157v556h175v-712z" />
    <glyph glyph-name="afii10043" unicode="&#x429;" horiz-adv-x="1011" 
d="M992 -144h-168v144h-752v712h175v-556h157v556h175v-556h157v556h175v-556h81v-300z" />
    <glyph glyph-name="afii10044" unicode="&#x42a;" horiz-adv-x="726" 
d="M696 229q0 -100 -66.5 -164.5t-171.5 -64.5h-287v556h-141v156h316v-254h112q106 0 172 -64.5t66 -164.5zM521 229q0 31 -21.5 51.5t-54.5 20.5h-99v-145h99q33 0 54.5 21t21.5 52z" />
    <glyph glyph-name="afii10045" unicode="&#x42b;" horiz-adv-x="910" 
d="M838 0h-175v712h175v-712zM597 229q0 -100 -66.5 -164.5t-171.5 -64.5h-287v712h175v-254h112q106 0 172 -64.5t66 -164.5zM422 229q0 31 -21.5 51.5t-54.5 20.5h-99v-145h99q33 0 54.5 21t21.5 52z" />
    <glyph glyph-name="afii10046" unicode="&#x42c;" horiz-adv-x="627" 
d="M597 229q0 -100 -66.5 -164.5t-171.5 -64.5h-287v712h175v-254h112q106 0 172 -64.5t66 -164.5zM422 229q0 31 -21.5 51.5t-54.5 20.5h-99v-145h99q33 0 54.5 21t21.5 52z" />
    <glyph glyph-name="afii10047" unicode="&#x42d;" horiz-adv-x="609" 
d="M290 -6q-105 0 -178 58.5t-91 169.5h174q23 -76 94 -76q47 0 72 32q23 30 27 103h-190v152h189q-4 73 -26 101q-25 32 -72 32q-71 0 -94 -76h-174q18 111 91 169.5t178 58.5q120 0 198 -78q26 -26 42 -56t22 -71t7.5 -70t1.5 -87t-1.5 -87t-7.5 -70t-22 -71t-42 -56
q-78 -78 -198 -78z" />
    <glyph glyph-name="afii10048" unicode="&#x42e;" horiz-adv-x="920" 
d="M871 356q0 -58 -1.5 -87t-7.5 -70t-22 -71t-42 -56q-78 -78 -198 -78t-198 78q-40 40 -55 89.5t-18 120.5h-82v-282h-175v712h175v-274h83q3 68 18 115.5t54 86.5q78 78 198 78t198 -78q26 -26 42 -56t22 -71t7.5 -70t1.5 -87zM696 356q0 90 -6 123.5t-20 51.5
q-24 31 -70 31t-70 -31q-14 -18 -20 -51.5t-6 -123.5t6 -123t20 -51q24 -32 70 -32t70 32q14 18 20 51t6 123z" />
    <glyph glyph-name="afii10049" unicode="&#x42f;" horiz-adv-x="649" 
d="M331 254l-103 -254h-208l137 291q-49 30 -77 80.5t-28 111.5q0 104 68 166.5t175 62.5h282v-712h-175v254h-71zM402 411v148h-101q-33 0 -54.5 -21t-21.5 -52t21.5 -53t54.5 -22h101z" />
    <glyph glyph-name="afii10065" unicode="&#x430;" horiz-adv-x="536" 
d="M483 0h-160v44q-26 -26 -52.5 -37.5t-67.5 -11.5q-81 0 -129 48q-47 47 -47 126q0 66 47 111t139 45h106v14q0 36 -19 51.5t-62 15.5q-47 0 -85 -38l-102 102q41 41 84 57.5t111 16.5q237 0 237 -195v-349zM319 202v14h-78q-57 0 -57 -44q0 -20 15 -32t44 -12q37 0 59 19
q17 16 17 55z" />
    <glyph glyph-name="afii10066" unicode="&#x431;" 
d="M352 263q0 63 -18 91q-15 23 -50 23t-50 -22q-18 -28 -18 -92q0 -76 21 -103q14 -18 47 -18t48 20q20 28 20 101zM322 514q79 0 124 -40q70 -63 70 -209q0 -137 -65 -207q-59 -64 -164 -64q-116 0 -177 64q-58 62 -58 224q0 66 0.5 101t4 80t10.5 70t19.5 53t32 47.5
t46.5 37.5q21 14 51.5 23.5t70.5 14t64.5 6.5t67.5 3.5t45 1.5v-141q-8 -1 -48.5 -1.5t-75.5 -4.5t-62 -12q-91 -27 -91 -102q15 22 51 38.5t84 16.5z" />
    <glyph glyph-name="afii10067" unicode="&#x432;" 
d="M446 276q36 -22 51.5 -49.5t15.5 -68.5q0 -72 -45.5 -115t-122.5 -43h-283v538h272q79 0 125 -41t46 -110t-59 -111zM223 331h72q48 0 48 45q0 43 -48 43h-72v-88zM223 119h79q23 0 36 12.5t13 34.5t-13 34.5t-36 12.5h-79v-94z" />
    <glyph glyph-name="afii10068" unicode="&#x433;" horiz-adv-x="444" 
d="M430 392h-201v-392h-164v538h365v-146z" />
    <glyph glyph-name="afii10069" unicode="&#x434;" horiz-adv-x="596" 
d="M578 -114h-154v114h-260v-114h-154v260h53q25 79 35.5 156t10.5 213v23h406v-392h63v-260zM352 146v246h-87q0 -118 -40 -246h127z" />
    <glyph glyph-name="afii10070" unicode="&#x435;" horiz-adv-x="559" 
d="M521 216h-322q0 -35 25.5 -59.5t69.5 -24.5q40 0 63.5 10.5t47.5 34.5l98 -98q-44 -44 -91 -64.5t-118 -20.5q-256 0 -256 275q0 129 66.5 202t174.5 73q114 0 178 -72.5t64 -187.5v-68zM359 325q0 23 -9 42q-19 42 -71 42t-71 -42q-9 -19 -9 -42h160z" />
    <glyph glyph-name="afii10072" unicode="&#x436;" horiz-adv-x="805" 
d="M810 0h-188l-136 283l133 255h184l-147 -250zM485 0h-165v538h165v-538zM183 0h-188l154 288l-147 250h184l133 -255z" />
    <glyph glyph-name="afii10073" unicode="&#x437;" horiz-adv-x="504" 
d="M461 163q0 -75 -60.5 -122t-146.5 -47q-162 0 -246 76l93 101q47 -40 124 -40q32 0 52.5 11t20.5 34q0 40 -60 40h-83v114h79q27 0 42.5 12t15.5 32q0 39 -76 39q-55 0 -101 -34l-90 99q79 66 228 66q83 0 141.5 -39t58.5 -107q0 -73 -67 -114q75 -38 75 -121z" />
    <glyph glyph-name="afii10074" unicode="&#x438;" horiz-adv-x="596" 
d="M226 0h-164v538h164v-271l144 271h164v-538h-164v281z" />
    <glyph glyph-name="afii10075" unicode="&#x439;" horiz-adv-x="596" 
d="M226 0h-164v538h164v-271l144 271h164v-538h-164v281zM470 732q-1 -42 -16.5 -73t-41.5 -47.5t-54.5 -24t-59.5 -7.5q-43 0 -79 12.5t-64 48.5t-29 91h119q3 -53 53 -53t53 53h119z" />
    <glyph glyph-name="afii10076" unicode="&#x43a;" horiz-adv-x="562" 
d="M226 0h-165v538h165v-538zM567 0h-192l-148 283l145 255h188l-163 -250z" />
    <glyph glyph-name="afii10077" unicode="&#x43b;" horiz-adv-x="578" 
d="M516 0h-164v392h-93v-98q0 -115 -20 -180.5t-56 -89.5t-97 -24h-79v138h16q16 0 25 2t21 11.5t17.5 28t10 53.5t4.5 86v219h415v-538z" />
    <glyph glyph-name="afii10078" unicode="&#x43c;" horiz-adv-x="689" 
d="M627 0h-164v268l-76 -143h-85l-76 143v-268h-164v538h162l121 -237l121 237h161v-538z" />
    <glyph glyph-name="afii10079" unicode="&#x43d;" horiz-adv-x="579" 
d="M226 0h-164v538h164v-191h127v191h164v-538h-164v201h-127v-201z" />
    <glyph glyph-name="afii10080" unicode="&#x43e;" horiz-adv-x="550" 
d="M507 269q0 -80 -12.5 -124.5t-46.5 -81.5q-65 -69 -173 -69t-173 69q-34 37 -46.5 81.5t-12.5 124.5q0 79 13 124.5t46 81.5q65 69 173 69t173 -69q33 -36 46 -81.5t13 -124.5zM343 269q0 88 -24 112q-15 15 -44 15t-44 -15q-24 -24 -24 -112t24 -112q15 -15 44 -15
t44 15q24 24 24 112z" />
    <glyph glyph-name="afii10081" unicode="&#x43f;" horiz-adv-x="574" 
d="M226 0h-164v538h455v-538h-164v392h-127v-392z" />
    <glyph glyph-name="afii10082" unicode="&#x440;" horiz-adv-x="569" 
d="M526 269q0 -59 -2 -91t-14 -71.5t-35 -63.5q-47 -49 -129 -49q-75 0 -120 45v-213h-164v712h159v-44q50 50 124 50q83 0 130 -49q23 -24 35 -63.5t14 -71.5t2 -91zM362 269q0 67 -13 97t-55 30t-55 -30t-13 -97t13 -97t55 -30t55 30t13 97z" />
    <glyph glyph-name="afii10083" unicode="&#x441;" horiz-adv-x="475" 
d="M457 63q-40 -36 -74 -50q-45 -19 -103 -19q-117 0 -179.5 72t-62.5 208q0 128 63.5 199t178.5 71q58 0 103 -19q34 -14 74 -50l-111 -111q-35 32 -66 32q-78 0 -78 -127t78 -127q33 0 66 32z" />
    <glyph glyph-name="afii10084" unicode="&#x442;" horiz-adv-x="462" 
d="M452 392h-139v-392h-164v392h-139v146h442v-146z" />
    <glyph glyph-name="afii10085" unicode="&#x443;" horiz-adv-x="514" 
d="M518 538l-223 -602q-24 -65 -67 -92q-39 -24 -96 -24h-62v148h35q24 0 35.5 8.5t19.5 31.5l15 45l-179 485h172l91 -279l87 279h172z" />
    <glyph glyph-name="afii10086" unicode="&#x444;" horiz-adv-x="746" 
d="M710 274q0 -132 -68.5 -199.5t-186.5 -77.5v-171h-164v171q-118 10 -186.5 77.5t-68.5 199.5q0 246 255 267v171h164v-171q255 -21 255 -267zM546 269q0 124 -93 127v-254q46 2 69.5 31t23.5 96zM293 142v254q-93 -3 -93 -127q0 -67 23.5 -96t69.5 -31z" />
    <glyph glyph-name="afii10087" unicode="&#x445;" 
d="M556 0h-197l-82 136l-80 -136h-197l187 275l-180 263h197l73 -130l75 130h197l-180 -263z" />
    <glyph glyph-name="afii10088" unicode="&#x446;" horiz-adv-x="603" 
d="M585 -114h-154v114h-369v538h164v-392h127v392h164v-392h68v-260z" />
    <glyph glyph-name="afii10089" unicode="&#x447;" 
d="M494 0h-164v178q-70 -11 -133 -11q-62 0 -105 40t-43 103v228h164v-179q0 -23 13 -35.5t36 -12.5q17 0 68 6v221h164v-538z" />
    <glyph glyph-name="afii10090" unicode="&#x448;" horiz-adv-x="834" 
d="M62 0v538h164v-392h109v392h164v-392h109v392h164v-538h-710z" />
    <glyph glyph-name="afii10091" unicode="&#x449;" horiz-adv-x="858" 
d="M840 -114h-154v114h-624v538h164v-392h109v392h164v-392h109v392h164v-392h68v-260z" />
    <glyph glyph-name="afii10092" unicode="&#x44a;" horiz-adv-x="607" 
d="M579 177q0 -77 -51.5 -127t-132.5 -50h-268v392h-114v146h278v-184h104q81 0 132.5 -49.5t51.5 -127.5zM417 177q0 22 -15 36t-38 14h-78v-100h78q23 0 38 14t15 36z" />
    <glyph glyph-name="afii10093" unicode="&#x44b;" horiz-adv-x="789" 
d="M514 177q0 -77 -51.5 -127t-132.5 -50h-268v538h164v-184h104q81 0 132.5 -49.5t51.5 -127.5zM352 177q0 22 -15 36t-38 14h-78v-100h78q23 0 38 14t15 36zM563 538h164v-538h-164v538z" />
    <glyph glyph-name="afii10094" unicode="&#x44c;" horiz-adv-x="542" 
d="M514 177q0 -77 -51.5 -127t-132.5 -50h-268v538h164v-184h104q81 0 132.5 -49.5t51.5 -127.5zM352 177q0 22 -15 36t-38 14h-78v-100h78q23 0 38 14t15 36z" />
    <glyph glyph-name="afii10095" unicode="&#x44d;" horiz-adv-x="475" 
d="M437 274q0 -136 -62.5 -208t-179.5 -72q-55 0 -95.5 16t-81.5 53l108 108q36 -33 69 -33q63 0 78 76h-124v109h124q-15 77 -78 77q-32 0 -69 -33l-108 108q41 37 81.5 53t95.5 16q115 0 178.5 -71t63.5 -199z" />
    <glyph glyph-name="afii10096" unicode="&#x44e;" horiz-adv-x="800" 
d="M757 269q0 -80 -12.5 -124.5t-46.5 -81.5q-65 -69 -173 -69t-173 69q-46 50 -57 141h-69v-204h-164v538h164v-194h70q9 80 56 131q65 69 173 69t173 -69q33 -36 46 -81.5t13 -124.5zM593 269q0 88 -24 112q-15 15 -44 15t-44 -15q-24 -24 -24 -112t24 -112q15 -15 44 -15
t44 15q24 24 24 112z" />
    <glyph glyph-name="afii10097" unicode="&#x44f;" horiz-adv-x="557" 
d="M334 309v99h-80q-23 0 -37.5 -14.5t-14.5 -35.5t14.5 -35t37.5 -14h80zM215 0h-191l106 219q-88 46 -88 146q0 75 52 124t132 49h269v-538h-164v180h-42z" />
    <glyph glyph-name="uni0450" unicode="&#x450;" horiz-adv-x="559" 
d="M349 610h-117l-101 180h153zM521 216h-322q0 -35 25.5 -59.5t69.5 -24.5q40 0 63.5 10.5t47.5 34.5l98 -98q-44 -44 -91 -64.5t-118 -20.5q-256 0 -256 275q0 129 66.5 202t174.5 73q114 0 178 -72.5t64 -187.5v-68zM359 325q0 23 -9 42q-19 42 -71 42t-71 -42
q-9 -19 -9 -42h160z" />
    <glyph glyph-name="afii10071" unicode="&#x451;" horiz-adv-x="559" 
d="M521 216h-322q0 -35 25.5 -59.5t69.5 -24.5q40 0 63.5 10.5t47.5 34.5l98 -98q-44 -44 -91 -64.5t-118 -20.5q-256 0 -256 275q0 129 66.5 202t174.5 73q114 0 178 -72.5t64 -187.5v-68zM359 325q0 23 -9 42q-19 42 -71 42t-71 -42q-9 -19 -9 -42h160zM237 609h-134v145
h134v-145zM463 609h-134v145h134v-145z" />
    <glyph glyph-name="afii10099" unicode="&#x452;" horiz-adv-x="579" 
d="M268 -180v138h37q27 0 40 16.5t13 36.5v241q0 41 -21 57.5t-45 16.5t-45 -16.5t-21 -57.5v-252h-164v511h-42v126h42v75h164v-75h217v-126h-217v-87q48 50 121 50q75 0 121 -46q54 -54 54 -154v-274q0 -180 -187 -180h-67z" />
    <glyph glyph-name="afii10100" unicode="&#x453;" horiz-adv-x="444" 
d="M430 392h-201v-392h-164v538h365v-146zM364 790l-101 -180h-117l65 180h153z" />
    <glyph glyph-name="afii10101" unicode="&#x454;" horiz-adv-x="475" 
d="M457 63q-41 -37 -81.5 -53t-95.5 -16q-117 0 -179.5 72t-62.5 208q0 128 63.5 199t178.5 71q55 0 95.5 -16t81.5 -53l-108 -108q-37 33 -69 33q-63 0 -78 -77h124v-109h-124q15 -76 78 -76q33 0 69 33z" />
    <glyph glyph-name="afii10102" unicode="&#x455;" horiz-adv-x="504" 
d="M477 176q0 -90 -66 -136t-167 -46q-50 0 -82 3.5t-74.5 21.5t-77.5 53l106 106q45 -45 131 -45q25 0 47.5 8t22.5 27q0 30 -39 34l-83 8q-156 15 -156 156q0 84 63.5 131t150.5 47q146 0 212 -66l-101 -101q-32 32 -114 32q-27 0 -40 -10t-13 -21q0 -26 35 -30l83 -8
q81 -8 121.5 -52t40.5 -112z" />
    <glyph glyph-name="afii10103" unicode="&#x456;" horiz-adv-x="288" 
d="M226 0h-164v517h164v-517zM226 593h-164v125h164v-125z" />
    <glyph glyph-name="afii10104" unicode="&#x457;" horiz-adv-x="288" 
d="M226 0h-164v517h164v-517zM98 609h-134v145h134v-145zM324 609h-134v145h134v-145z" />
    <glyph glyph-name="afii10105" unicode="&#x458;" horiz-adv-x="288" 
d="M226 -21q0 -63 -42 -111t-125 -48h-87v138h57q33 0 33 33v526h164v-538zM226 593h-164v125h164v-125z" />
    <glyph glyph-name="afii10106" unicode="&#x459;" horiz-adv-x="834" 
d="M644 177q0 22 -15 36t-38 14h-78v-100h78q23 0 38 14t15 36zM101 538h417v-184h104q81 0 132.5 -49.5t51.5 -127.5q0 -77 -51.5 -127t-132.5 -50h-268v392h-95v-98q0 -115 -20 -180.5t-56 -89.5t-97 -24h-79v138h16q16 0 25 2t21 11.5t17.5 28t10 53.5t4.5 86v219z" />
    <glyph glyph-name="afii10107" unicode="&#x45a;" horiz-adv-x="833" 
d="M805 177q0 -77 -51.5 -127t-132.5 -50h-268v208h-127v-208h-164v538h164v-184h127v184h164v-184h104q81 0 132.5 -49.5t51.5 -127.5zM643 177q0 22 -15 36t-38 14h-78v-100h78q23 0 38 14t15 36z" />
    <glyph glyph-name="afii10108" unicode="&#x45b;" horiz-adv-x="579" 
d="M522 0h-164v252q0 41 -21 57.5t-45 16.5t-45 -16.5t-21 -57.5v-252h-164v511h-42v126h42v75h164v-75h217v-126h-217v-87q48 50 121 50q75 0 121 -46q54 -54 54 -154v-274z" />
    <glyph glyph-name="afii10109" unicode="&#x45c;" horiz-adv-x="562" 
d="M226 0h-165v538h165v-538zM567 0h-192l-148 283l145 255h188l-163 -250zM434 790l-101 -180h-117l65 180h153z" />
    <glyph glyph-name="uni045D" unicode="&#x45d;" horiz-adv-x="596" 
d="M226 0h-164v538h164v-271l144 271h164v-538h-164v281zM364 610h-117l-101 180h153z" />
    <glyph glyph-name="afii10110" unicode="&#x45e;" horiz-adv-x="514" 
d="M430 732q-1 -42 -16.5 -73t-41.5 -47.5t-54.5 -24t-59.5 -7.5q-43 0 -79 12.5t-64 48.5t-29 91h119q3 -53 53 -53t53 53h119zM518 538l-223 -602q-24 -65 -67 -92q-39 -24 -96 -24h-62v148h35q24 0 35.5 8.5t19.5 31.5l15 45l-179 485h172l91 -279l87 279h172z" />
    <glyph glyph-name="afii10193" unicode="&#x45f;" horiz-adv-x="579" 
d="M365 -114h-154v114h-149v538h164v-392h127v392h164v-538h-152v-114z" />
    <glyph glyph-name="afii10146" unicode="&#x462;" horiz-adv-x="664" 
d="M625 229q0 -100 -66.5 -164.5t-171.5 -64.5h-287v528h-65v134h65v50h175v-50h90v-134h-90v-70h112q106 0 172 -64.5t66 -164.5zM450 229q0 31 -21.5 51.5t-54.5 20.5h-99v-145h99q33 0 54.5 21t21.5 52z" />
    <glyph glyph-name="afii10194" unicode="&#x463;" horiz-adv-x="558" 
d="M254 407v-53h104q81 0 132.5 -49.5t51.5 -127.5q0 -77 -51.5 -127t-132.5 -50h-268v407h-44v102h44v29h164v-29h68v-102h-68zM380 177q0 22 -15 36t-38 14h-78v-100h78q23 0 38 14t15 36z" />
    <glyph glyph-name="afii10147" unicode="&#x472;" horiz-adv-x="640" 
d="M414 438q-4 67 -24 93q-24 31 -70 31t-70 -31q-20 -26 -24 -93h188zM415 292h-190q3 -82 25 -110q24 -32 70 -32t70 32q22 28 25 110zM591 356q0 -58 -1.5 -87t-7.5 -70t-22 -71t-42 -56q-78 -78 -198 -78t-198 78q-26 26 -42 56t-22 71t-7.5 70t-1.5 87t1.5 87t7.5 70
t22 71t42 56q78 78 198 78t198 -78q26 -26 42 -56t22 -71t7.5 -70t1.5 -87z" />
    <glyph glyph-name="afii10195" unicode="&#x473;" horiz-adv-x="550" 
d="M507 269q0 -80 -12.5 -124.5t-46.5 -81.5q-65 -69 -173 -69t-173 69q-34 37 -46.5 81.5t-12.5 124.5q0 79 13 124.5t46 81.5q65 69 173 69t173 -69q33 -36 46 -81.5t13 -124.5zM319 157q17 17 22 59h-132q3 -40 22 -59q15 -15 44 -15t44 15zM231 381q-17 -17 -22 -56h132
q-5 37 -22 56q-15 15 -44 15t-44 -15z" />
    <glyph glyph-name="afii10148" unicode="&#x474;" horiz-adv-x="601" 
d="M541 531l-176 -531h-130l-235 712h181l120 -398l84 282q34 116 159 116h80v-138h-24q-45 0 -59 -43z" />
    <glyph glyph-name="afii10196" unicode="&#x475;" horiz-adv-x="551" 
d="M323 0h-125l-198 538h172l89 -279l51 163q18 60 59 89q38 27 100 27h66v-138h-24q-43 0 -59 -43z" />
    <glyph glyph-name="afii10050" unicode="&#x490;" 
d="M531 556h-284v-556h-175v712h291v144h168v-300z" />
    <glyph glyph-name="afii10098" unicode="&#x491;" horiz-adv-x="444" 
d="M430 392h-201v-392h-164v538h211v114h154v-260z" />
    <glyph glyph-name="uni0492" unicode="&#x492;" horiz-adv-x="584" 
d="M559 556h-284v-130h90v-134h-90v-292h-175v292h-65v134h65v286h459v-156z" />
    <glyph glyph-name="uni0493" unicode="&#x493;" horiz-adv-x="463" 
d="M449 392h-201v-47h68v-102h-68v-243h-164v243h-44v102h44v193h365v-146z" />
    <glyph glyph-name="uni0496" unicode="&#x496;" horiz-adv-x="981" 
d="M936 712l-195 -331l128 -225h90v-300h-168v144h-33l-195 374l177 338h196zM191 0h-201l218 381l-195 331h196l177 -338zM562 0h-175v712h175v-712z" />
    <glyph glyph-name="uni0497" unicode="&#x497;" horiz-adv-x="827" 
d="M803 538l-147 -250l76 -142h78v-260h-154v114h-34l-136 283l133 255h184zM183 0h-188l154 288l-147 250h184l133 -255zM485 0h-165v538h165v-538z" />
    <glyph glyph-name="uni049A" unicode="&#x49a;" horiz-adv-x="689" 
d="M641 712l-210 -331l137 -225h96v-300h-168v144h-38l-210 374l192 338h201zM247 0h-175v712h175v-712z" />
    <glyph glyph-name="uni049B" unicode="&#x49b;" horiz-adv-x="585" 
d="M560 538l-163 -250l84 -142h86v-260h-154v114h-38l-148 283l145 255h188zM226 0h-165v538h165v-538z" />
    <glyph glyph-name="uni049C" unicode="&#x49c;" horiz-adv-x="750" 
d="M292 565h109v-127h26l109 274h201l-165 -349l188 -363h-206l-127 282h-26v-127h-109v127h-45v-282h-175v712h175v-274h45v127z" />
    <glyph glyph-name="uni049D" unicode="&#x49d;" horiz-adv-x="651" 
d="M259 94v110h-34v-204h-164v538h164v-199h34v110h108v-110h24l70 199h188l-113 -250l120 -288h-192l-65 204h-32v-110h-108z" />
    <glyph glyph-name="uni04A2" unicode="&#x4a2;" horiz-adv-x="708" 
d="M608 712v-556h81v-300h-168v144h-88v282h-186v-282h-175v712h175v-274h186v274h175z" />
    <glyph glyph-name="uni04A3" unicode="&#x4a3;" horiz-adv-x="603" 
d="M226 0h-164v538h164v-191h127v191h164v-392h68v-260h-154v114h-78v201h-127v-201z" />
    <glyph glyph-name="uni04AE" unicode="&#x4ae;" horiz-adv-x="605" 
d="M605 712l-215 -422v-290h-175v290l-215 422h191l112 -256l111 256h191z" />
    <glyph glyph-name="uni04AF" unicode="&#x4af;" horiz-adv-x="521" 
d="M521 538l-180 -519v-193h-162v193l-179 519h172l89 -312l88 312h172z" />
    <glyph glyph-name="uni04B0" unicode="&#x4b0;" horiz-adv-x="605" 
d="M605 712l-215 -422h90v-134h-90v-156h-175v156h-90v134h90l-215 422h191l112 -256l111 256h191z" />
    <glyph glyph-name="uni04B1" unicode="&#x4b1;" horiz-adv-x="521" 
d="M521 538l-177 -511h101v-126h-104v-75h-162v75h-104v126h101l-176 511h172l89 -312l88 312h172z" />
    <glyph glyph-name="uni04B2" unicode="&#x4b2;" horiz-adv-x="664" 
d="M620 712l-208 -347l127 -209h95v-300h-168v144h-32l-117 219l-117 -219h-200l222 365l-208 347h199l104 -201l104 201h199z" />
    <glyph glyph-name="uni04B3" unicode="&#x4b3;" horiz-adv-x="574" 
d="M549 538l-180 -263l87 -129h100v-260h-154v114h-43l-82 136l-80 -136h-197l187 275l-180 263h197l73 -130l75 130h197z" />
    <glyph glyph-name="uni04B6" unicode="&#x4b6;" horiz-adv-x="679" 
d="M579 712v-556h81v-300h-168v144h-88v253q-6 -1 -28 -4t-38.5 -5t-45 -4t-57.5 -2q-71 0 -124.5 46.5t-53.5 124.5v303h175v-254q0 -29 17 -46t47 -17q63 0 108 9v308h175z" />
    <glyph glyph-name="uni04B7" unicode="&#x4b7;" horiz-adv-x="580" 
d="M494 538v-392h72v-260h-154v114h-82v178q-70 -11 -133 -11q-62 0 -105 40t-43 103v228h164v-179q0 -23 13 -35.5t36 -12.5q17 0 68 6v221h164z" />
    <glyph glyph-name="uni04B8" unicode="&#x4b8;" horiz-adv-x="671" 
d="M599 0h-175v253l-37 -5v-135h-119v125h-23q-75 0 -131.5 46.5t-56.5 124.5v303h175v-254q0 -43 36 -57v122h119v-124q21 1 37 5v308h175v-712z" />
    <glyph glyph-name="uni04B9" unicode="&#x4b9;" horiz-adv-x="579" 
d="M237 61v106h-17q-72 0 -121.5 40t-49.5 103v228h164v-179q0 -27 24 -39v97h93v-103l23 3v221h164v-538h-164v178l-23 -3v-114h-93z" />
    <glyph glyph-name="uni04BA" unicode="&#x4ba;" horiz-adv-x="651" 
d="M594 0h-175v254q0 29 -17 46t-47 17q-63 0 -108 -9v-308h-175v712h175v-253q6 1 28 4t38.5 5t45 4t57.5 2q71 0 124.5 -46.5t53.5 -124.5v-303z" />
    <glyph glyph-name="uni04BB" unicode="&#x4bb;" 
d="M507 0h-164v179q0 23 -13 35.5t-36 12.5q-17 0 -68 -6v-221h-164v538h164v-178q70 11 133 11q62 0 105 -40t43 -103v-228z" />
    <glyph glyph-name="uni04C0" unicode="&#x4c0;" horiz-adv-x="319" 
d="M247 0h-175v712h175v-712z" />
    <glyph glyph-name="uni04CF" unicode="&#x4cf;" horiz-adv-x="278" 
d="M221 0h-164v712h164v-712z" />
    <glyph glyph-name="uni04D8" unicode="&#x4d8;" horiz-adv-x="647" 
d="M49 311v99h373q-2 89 -25 121q-24 31 -69 31q-44 0 -67.5 -19t-34.5 -61h-176q15 100 83 168t195 68q119 0 197 -78q26 -26 42 -56t22 -71t7.5 -70t1.5 -87t-1.5 -87t-7.5 -70t-22 -71t-42 -56q-78 -78 -197 -78q-130 0 -207 80q-40 41 -56 95t-16 142zM223 264v-10
q0 -49 27 -76q26 -28 78 -28q46 0 69 30q18 23 23 84h-197z" />
    <glyph glyph-name="afii10846" unicode="&#x4d9;" horiz-adv-x="559" 
d="M38 322h322q0 35 -25.5 59.5t-69.5 24.5q-40 0 -63.5 -10.5t-47.5 -34.5l-98 98q44 44 91 64.5t118 20.5q256 0 256 -275q0 -129 -66.5 -202t-174.5 -73q-114 0 -178 72.5t-64 187.5v68zM200 213q0 -23 9 -42q19 -42 71 -42t71 42q9 19 9 42h-160z" />
    <glyph glyph-name="uni04E2" unicode="&#x4e2;" horiz-adv-x="700" 
d="M628 0h-175v388l-228 -388h-153v712h175v-388l228 388h153v-712zM513 791h-326v105h326v-105z" />
    <glyph glyph-name="uni04E3" unicode="&#x4e3;" horiz-adv-x="596" 
d="M226 0h-164v538h164v-271l144 271h164v-538h-164v281zM486 629h-326v105h326v-105z" />
    <glyph glyph-name="uni04E8" unicode="&#x4e8;" horiz-adv-x="640" 
d="M414 438q-4 67 -24 93q-24 31 -70 31t-70 -31q-20 -26 -24 -93h188zM415 292h-190q3 -82 25 -110q24 -32 70 -32t70 32q22 28 25 110zM591 356q0 -58 -1.5 -87t-7.5 -70t-22 -71t-42 -56q-78 -78 -198 -78t-198 78q-26 26 -42 56t-22 71t-7.5 70t-1.5 87t1.5 87t7.5 70
t22 71t42 56q78 78 198 78t198 -78q26 -26 42 -56t22 -71t7.5 -70t1.5 -87z" />
    <glyph glyph-name="uni04E9" unicode="&#x4e9;" horiz-adv-x="550" 
d="M507 269q0 -80 -12.5 -124.5t-46.5 -81.5q-65 -69 -173 -69t-173 69q-34 37 -46.5 81.5t-12.5 124.5q0 79 13 124.5t46 81.5q65 69 173 69t173 -69q33 -36 46 -81.5t13 -124.5zM319 157q17 17 22 59h-132q3 -40 22 -59q15 -15 44 -15t44 15zM231 381q-17 -17 -22 -56h132
q-5 37 -22 56q-15 15 -44 15t-44 -15z" />
    <glyph glyph-name="uni04EE" unicode="&#x4ee;" horiz-adv-x="601" 
d="M601 712l-250 -587q-54 -125 -170 -125h-97v156h62q60 0 78 65l1 4l-225 487h184l125 -298l113 298h179zM472 791h-326v105h326v-105z" />
    <glyph glyph-name="uni04EF" unicode="&#x4ef;" horiz-adv-x="514" 
d="M518 538l-223 -602q-24 -65 -67 -92q-39 -24 -96 -24h-62v148h35q24 0 35.5 8.5t19.5 31.5l15 45l-179 485h172l91 -279l87 279h172zM425 629h-326v105h326v-105z" />
    <glyph glyph-name="Wgrave" unicode="&#x1e80;" horiz-adv-x="906" 
d="M906 712l-195 -712h-143l-115 351l-115 -351h-142l-196 712h183l93 -376l115 376h124l115 -376l93 376h183zM520 782h-117l-101 180h153z" />
    <glyph glyph-name="wgrave" unicode="&#x1e81;" horiz-adv-x="780" 
d="M780 538l-162 -538h-131l-97 295l-97 -295h-131l-162 538h173l67 -279l93 279h114l93 -279l67 279h173zM449 610h-117l-101 180h153z" />
    <glyph glyph-name="Wacute" unicode="&#x1e82;" horiz-adv-x="906" 
d="M906 712l-195 -712h-143l-115 351l-115 -351h-142l-196 712h183l93 -376l115 376h124l115 -376l93 376h183zM604 962l-101 -180h-117l65 180h153z" />
    <glyph glyph-name="wacute" unicode="&#x1e83;" horiz-adv-x="780" 
d="M780 538l-162 -538h-131l-97 295l-97 -295h-131l-162 538h173l67 -279l93 279h114l93 -279l67 279h173zM549 790l-101 -180h-117l65 180h153z" />
    <glyph glyph-name="Wdieresis" unicode="&#x1e84;" horiz-adv-x="906" 
d="M906 712l-195 -712h-143l-115 351l-115 -351h-142l-196 712h183l93 -376l115 376h124l115 -376l93 376h183zM633 781h-134v145h134v-145zM407 781h-134v145h134v-145z" />
    <glyph glyph-name="wdieresis" unicode="&#x1e85;" horiz-adv-x="780" 
d="M780 538l-162 -538h-131l-97 295l-97 -295h-131l-162 538h173l67 -279l93 279h114l93 -279l67 279h173zM344 609h-134v145h134v-145zM570 609h-134v145h134v-145z" />
    <glyph glyph-name="uni1E8A" unicode="&#x1e8a;" horiz-adv-x="634" 
d="M634 0h-200l-117 219l-117 -219h-200l222 365l-208 347h199l104 -201l104 201h199l-208 -347zM387 785h-138v138h138v-138z" />
    <glyph glyph-name="uni1E8B" unicode="&#x1e8b;" 
d="M556 0h-197l-82 136l-80 -136h-197l187 275l-180 263h197l73 -130l75 130h197l-180 -263zM346 613h-138v138h138v-138z" />
    <glyph glyph-name="Ygrave" unicode="&#x1ef2;" horiz-adv-x="605" 
d="M605 712l-215 -422v-290h-175v290l-215 422h191l112 -256l111 256h191zM377 782h-117l-101 180h153z" />
    <glyph glyph-name="ygrave" unicode="&#x1ef3;" horiz-adv-x="514" 
d="M522 538l-223 -602q-16 -45 -42 -71q-42 -45 -121 -45h-62v148h35q23 0 35 8t20 32l15 45l-179 485h172l91 -279l87 279h172zM321 610h-117l-101 180h153z" />
    <glyph glyph-name="uni2007" unicode="&#x2007;" 
 />
    <glyph glyph-name="uni2008" unicode="&#x2008;" horiz-adv-x="294" 
 />
    <glyph glyph-name="uni200B" unicode="&#x200b;" horiz-adv-x="0" 
 />
    <glyph glyph-name="endash" unicode="&#x2013;" 
d="M507 218h-458v154h458v-154z" />
    <glyph glyph-name="emdash" unicode="&#x2014;" horiz-adv-x="1093" 
d="M1044 220h-995v158h995v-158z" />
    <glyph glyph-name="afii00208" unicode="&#x2015;" horiz-adv-x="1093" 
d="M1044 220h-995v158h995v-158z" />
    <glyph glyph-name="quoteleft" unicode="&#x2018;" horiz-adv-x="278" 
d="M221 566h-164v146l164 120v-266z" />
    <glyph glyph-name="quoteright" unicode="&#x2019;" horiz-adv-x="278" 
d="M221 565l-164 -118v265h164v-147z" />
    <glyph glyph-name="quotesinglbase" unicode="&#x201a;" horiz-adv-x="276" 
d="M221 0l-164 -118v265h164v-147z" />
    <glyph glyph-name="quotedblleft" unicode="&#x201c;" horiz-adv-x="511" 
d="M454 566h-164v146l164 120v-266zM220 566h-163v146l163 120v-266z" />
    <glyph glyph-name="quotedblright" unicode="&#x201d;" horiz-adv-x="511" 
d="M454 565l-164 -118v265h164v-147zM220 565l-163 -118v265h163v-147z" />
    <glyph glyph-name="quotedblbase" unicode="&#x201e;" horiz-adv-x="514" 
d="M454 0l-164 -118v265h164v-147zM220 0l-163 -118v265h163v-147z" />
    <glyph glyph-name="dagger" unicode="&#x2020;" horiz-adv-x="564" 
d="M517 390h-153v-390h-164v390h-153v148h153v174h164v-174h153v-148z" />
    <glyph glyph-name="daggerdbl" unicode="&#x2021;" horiz-adv-x="564" 
d="M517 0h-153v-174h-164v174h-153v148h153v242h-153v148h153v174h164v-174h153v-148h-153v-242h153v-148z" />
    <glyph glyph-name="bullet" unicode="&#x2022;" horiz-adv-x="470" 
d="M398 334q0 -68 -48 -115.5t-115 -47.5t-115 47.5t-48 115.5t48 115.5t115 47.5t115 -47.5t48 -115.5z" />
    <glyph glyph-name="ellipsis" unicode="&#x2026;" horiz-adv-x="899" 
d="M842 0h-170v170h170v-170zM227 0h-170v170h170v-170zM534 0h-170v170h170v-170z" />
    <glyph glyph-name="perthousand" unicode="&#x2030;" horiz-adv-x="1229" 
d="M1184 133q0 -67 -43.5 -103t-107.5 -36t-107.5 36t-43.5 103v95q0 67 43.5 103t107.5 36t107.5 -36t43.5 -103v-95zM812 133q0 -67 -43.5 -103t-107.5 -36t-107.5 36t-43.5 103v95q0 67 43.5 103t107.5 36t107.5 -36t43.5 -103v-95zM347 484q0 -67 -43.5 -103t-107.5 -36
t-107.5 36t-43.5 103v95q0 67 43.5 103t107.5 36t107.5 -36t43.5 -103v-95zM661 712l-339 -712h-126l339 712h126zM231 488v87q0 39 -35 39t-35 -39v-87q0 -39 35 -39t35 39zM1068 137v87q0 39 -35 39t-35 -39v-87q0 -39 35 -39t35 39zM696 137v87q0 39 -35 39t-35 -39v-87
q0 -39 35 -39t35 39z" />
    <glyph glyph-name="guilsinglleft" unicode="&#x2039;" horiz-adv-x="363" 
d="M303 9l-273 271l273 270v-193l-79 -77l79 -78v-193z" />
    <glyph glyph-name="guilsinglright" unicode="&#x203a;" horiz-adv-x="363" 
d="M333 280l-273 -271v193l80 78l-80 77v193z" />
    <glyph glyph-name="fraction" unicode="&#x2044;" horiz-adv-x="221" 
d="M343 712l-339 -712h-126l339 712h126z" />
    <glyph glyph-name="uni2070" unicode="&#x2070;" horiz-adv-x="340" 
d="M314 420q0 -66 -42.5 -102.5t-101.5 -36.5t-101.5 36.5t-42.5 102.5v158q0 66 42.5 102t101.5 36t101.5 -36t42.5 -102v-158zM198 417v162q0 17 -8.5 25t-19.5 8t-19.5 -8t-8.5 -25v-162q0 -32 28 -32t28 32z" />
    <glyph glyph-name="uni2074" unicode="&#x2074;" horiz-adv-x="340" 
d="M332 340h-26v-55h-114v55h-179v104l138 268h127l-141 -268h55v41h114v-41h26v-104z" />
    <glyph glyph-name="uni2075" unicode="&#x2075;" horiz-adv-x="340" 
d="M317 431q0 -41 -8 -64t-32 -47q-39 -39 -105 -39q-67 0 -106 39q-16 16 -24.5 33.5t-11 30.5t-4.5 39h116q2 -38 30 -38q14 0 21 9q8 10 8 37q0 28 -8 37.5t-22 9.5q-25 0 -31 -26h-107v260h275v-104h-169v-47q21 13 51 13q55 0 86 -31q41 -41 41 -112z" />
    <glyph glyph-name="uni2076" unicode="&#x2076;" horiz-adv-x="340" 
d="M317 422q0 -68 -43.5 -104.5t-106.5 -36.5t-106 37t-43 105q0 44 40 124l80 165h128l-81 -159q6 1 17 1q42 0 78.5 -35.5t36.5 -96.5zM201 423q0 39 -34 39q-14 0 -23.5 -10t-9.5 -29t9.5 -29.5t23.5 -10.5t24 10.5t10 29.5z" />
    <glyph glyph-name="uni2077" unicode="&#x2077;" horiz-adv-x="340" 
d="M323 608l-129 -323h-116l128 323h-90v-68h-104v172h311v-104z" />
    <glyph glyph-name="uni2078" unicode="&#x2078;" horiz-adv-x="340" 
d="M319 416q0 -67 -42 -101t-107 -34t-107 34t-42 101q0 50 43 88q-40 40 -40 81q0 61 43 96t103 35t103 -35t43 -96q0 -41 -40 -81q43 -38 43 -88zM203 419q0 14 -9.5 23.5t-23.5 9.5t-23.5 -9.5t-9.5 -23.5t9.5 -23.5t23.5 -9.5t23.5 9.5t9.5 23.5zM200 582
q0 13 -8.5 21.5t-21.5 8.5t-21.5 -8.5t-8.5 -21.5t8.5 -21.5t21.5 -8.5t21.5 8.5t8.5 21.5z" />
    <glyph glyph-name="uni2079" unicode="&#x2079;" horiz-adv-x="340" 
d="M322 574q0 -42 -40 -124l-80 -165h-128l81 160q-5 -2 -17 -2q-41 0 -78 35.5t-37 96.5q0 68 43.5 104.5t106.5 36.5t106 -37t43 -105zM206 575q0 17 -9.5 27t-23.5 10t-24 -10t-10 -27t10 -27.5t24 -10.5q13 0 23 10.5t10 27.5z" />
    <glyph glyph-name="uni2080" unicode="&#x2080;" horiz-adv-x="340" 
d="M314 -15q0 -66 -42.5 -102.5t-101.5 -36.5t-101.5 36.5t-42.5 102.5v158q0 66 42.5 102t101.5 36t101.5 -36t42.5 -102v-158zM198 -18v162q0 17 -8.5 25t-19.5 8t-19.5 -8t-8.5 -25v-162q0 -32 28 -32t28 32z" />
    <glyph glyph-name="uni2081" unicode="&#x2081;" horiz-adv-x="340" 
d="M258 -150h-116v297l-95 -82v130l95 82h116v-427z" />
    <glyph glyph-name="uni2082" unicode="&#x2082;" horiz-adv-x="340" 
d="M316 -150h-287v104l151 154q22 22 22 40q0 13 -8 21t-21 8q-28 0 -28 -30h-116q0 64 41.5 99t102.5 35q63 0 103 -35.5t40 -97.5q0 -34 -13.5 -57t-45.5 -54l-87 -83h146v-104z" />
    <glyph glyph-name="uni2083" unicode="&#x2083;" horiz-adv-x="340" 
d="M320 -19q0 -66 -42.5 -100.5t-105.5 -34.5q-61 0 -104 34t-43 106h115q0 -36 32 -36t32 35q0 14 -10 24t-23 10h-16v99h16q15 0 22.5 9.5t7.5 19.5q0 14 -8.5 22t-19.5 8q-12 0 -20 -8t-8 -23h-116q0 61 41.5 98t102.5 37q62 0 102.5 -37t40.5 -93q0 -49 -40 -80
q44 -41 44 -90z" />
    <glyph glyph-name="uni2084" unicode="&#x2084;" horiz-adv-x="340" 
d="M332 -95h-26v-55h-114v55h-179v104l138 268h127l-141 -268h55v41h114v-41h26v-104z" />
    <glyph glyph-name="uni2085" unicode="&#x2085;" horiz-adv-x="340" 
d="M317 -4q0 -41 -8 -64t-32 -47q-39 -39 -105 -39q-67 0 -106 39q-16 16 -24.5 33.5t-11 30.5t-4.5 39h116q2 -38 30 -38q14 0 21 9q8 10 8 37q0 28 -8 37.5t-22 9.5q-25 0 -31 -26h-107v260h275v-104h-169v-47q21 13 51 13q55 0 86 -31q41 -41 41 -112z" />
    <glyph glyph-name="uni2086" unicode="&#x2086;" horiz-adv-x="340" 
d="M317 -13q0 -68 -43.5 -104.5t-106.5 -36.5t-106 37t-43 105q0 44 40 124l80 165h128l-81 -159q6 1 17 1q42 0 78.5 -35.5t36.5 -96.5zM201 -12q0 39 -34 39q-14 0 -23.5 -10t-9.5 -29t9.5 -29.5t23.5 -10.5t24 10.5t10 29.5z" />
    <glyph glyph-name="uni2087" unicode="&#x2087;" horiz-adv-x="340" 
d="M323 173l-129 -323h-116l128 323h-90v-68h-104v172h311v-104z" />
    <glyph glyph-name="uni2088" unicode="&#x2088;" horiz-adv-x="340" 
d="M319 -19q0 -67 -42 -101t-107 -34t-107 34t-42 101q0 50 43 88q-40 40 -40 81q0 61 43 96t103 35t103 -35t43 -96q0 -41 -40 -81q43 -38 43 -88zM203 -16q0 14 -9.5 23.5t-23.5 9.5t-23.5 -9.5t-9.5 -23.5t9.5 -23.5t23.5 -9.5t23.5 9.5t9.5 23.5zM200 147
q0 13 -8.5 21.5t-21.5 8.5t-21.5 -8.5t-8.5 -21.5t8.5 -21.5t21.5 -8.5t21.5 8.5t8.5 21.5z" />
    <glyph glyph-name="uni2089" unicode="&#x2089;" horiz-adv-x="340" 
d="M322 139q0 -42 -40 -124l-80 -165h-128l81 160q-5 -2 -17 -2q-41 0 -78 35.5t-37 96.5q0 68 43.5 104.5t106.5 36.5t106 -37t43 -105zM206 140q0 17 -9.5 27t-23.5 10t-24 -10t-10 -27t10 -27.5t24 -10.5q13 0 23 10.5t10 27.5z" />
    <glyph glyph-name="Euro" unicode="&#x20ac;" horiz-adv-x="688" 
d="M646 226q-19 -114 -92 -173t-178 -59q-118 0 -198 80q-55 55 -67 150h-76v102h71v62h-71v102h76q12 93 67 148q80 80 198 80q105 0 178 -59t92 -173h-178q-21 76 -91 76q-46 0 -69 -30q-14 -20 -18 -42h107v-102h-116v-62h116v-102h-108q6 -28 19 -44q23 -30 69 -30
q70 0 91 76h178z" />
    <glyph glyph-name="uni20B4" unicode="&#x20b4;" horiz-adv-x="692" 
d="M599 456h58v-82h-86q-10 -15 -19 -24l-6 -6h111v-82h-374q-21 -14 -21 -48q0 -64 102 -64q109 0 159 50l112 -112q-51 -53 -116.5 -73.5t-153.5 -20.5q-118 0 -196.5 59.5t-78.5 164.5q0 23 3 44h-58v82h84q9 16 24 30h-108v82h370q7 5 13 10q14 14 14 33q0 26 -22 46
t-64 20q-30 0 -46.5 -1.5t-42.5 -11t-46 -29.5l-110 110q85 85 240 85q119 0 189.5 -63t70.5 -162q0 -15 -2 -37z" />
    <glyph glyph-name="afii61352" unicode="&#x2116;" horiz-adv-x="975" 
d="M576 0h-142l-208 388v-388h-164v712h142l208 -388v388h164v-712zM931 195h-302v118h302v-118zM814 536q0 62 -13 75q-7 7 -21 7t-21 -7q-13 -13 -13 -75q0 -61 13 -74q8 -8 21 -8t21 8q13 13 13 74zM938 531q0 -98 -41 -140q-45 -47 -117 -47t-117 47q-41 44 -41 140
t41 140q45 47 117 47t117 -47q41 -44 41 -140z" />
    <glyph glyph-name="trademark" unicode="&#x2122;" horiz-adv-x="973" 
d="M906 285h-117v219l-67 -131h-100l-67 131v-219h-117v427h117l117 -210l117 210h117v-427zM377 608h-105v-323h-116v323h-105v104h326v-104z" />
    <glyph glyph-name="Omega" unicode="&#x2126;" horiz-adv-x="640" 
d="M591 356q0 -92 -20 -152q-9 -27 -25 -48h45v-156h-233v136q21 10 32 25q26 34 26 185q0 149 -26 183q-25 33 -70 33t-70 -33q-26 -34 -26 -183q0 -151 26 -185q11 -15 32 -25v-136h-233v156h45q-16 21 -25 48q-20 60 -20 152q0 58 1.5 87t7.5 70t22 71t42 56
q78 78 198 78t198 -78q26 -26 42 -56t22 -71t7.5 -70t1.5 -87z" />
    <glyph glyph-name="onethird" unicode="&#x2153;" horiz-adv-x="901" 
d="M258 285h-116v297l-95 -82v130l95 82h116v-427zM683 712l-339 -712h-126l339 712h126zM881 131q0 -66 -42.5 -100.5t-105.5 -34.5q-61 0 -104 34t-43 106h115q0 -36 32 -36t32 35q0 14 -10 24t-23 10h-16v99h16q15 0 22.5 9.5t7.5 19.5q0 14 -8.5 22t-19.5 8
q-12 0 -20 -8t-8 -23h-116q0 61 41.5 98t102.5 37q62 0 102.5 -37t40.5 -93q0 -49 -40 -80q44 -41 44 -90z" />
    <glyph glyph-name="twothirds" unicode="&#x2154;" horiz-adv-x="901" 
d="M316 285h-287v104l151 154q22 22 22 40q0 13 -8 21t-21 8q-28 0 -28 -30h-116q0 64 41.5 99t102.5 35q63 0 103 -35.5t40 -97.5q0 -34 -13.5 -57t-45.5 -54l-87 -83h146v-104zM683 712l-339 -712h-126l339 712h126zM881 131q0 -66 -42.5 -100.5t-105.5 -34.5
q-61 0 -104 34t-43 106h115q0 -36 32 -36t32 35q0 14 -10 24t-23 10h-16v99h16q15 0 22.5 9.5t7.5 19.5q0 14 -8.5 22t-19.5 8q-12 0 -20 -8t-8 -23h-116q0 61 41.5 98t102.5 37q62 0 102.5 -37t40.5 -93q0 -49 -40 -80q44 -41 44 -90z" />
    <glyph glyph-name="uni2155" unicode="&#x2155;" horiz-adv-x="901" 
d="M258 285h-116v297l-95 -82v130l95 82h116v-427zM683 712l-339 -712h-126l339 712h126zM878 146q0 -41 -8 -64t-32 -47q-39 -39 -105 -39q-67 0 -106 39q-16 16 -24.5 33.5t-11 30.5t-4.5 39h116q2 -38 30 -38q13 0 21 9q8 10 8 37q0 28 -8 37.5t-22 9.5q-24 0 -31 -26
h-107v260h275v-104h-169v-47q21 13 51 13q55 0 86 -31q41 -41 41 -112z" />
    <glyph glyph-name="uni2156" unicode="&#x2156;" horiz-adv-x="901" 
d="M316 285h-287v104l151 154q22 22 22 40q0 13 -8 21t-21 8q-28 0 -28 -30h-116q0 64 41.5 99t102.5 35q63 0 103 -35.5t40 -97.5q0 -34 -13.5 -57t-45.5 -54l-87 -83h146v-104zM683 712l-339 -712h-126l339 712h126zM878 146q0 -41 -8 -64t-32 -47q-39 -39 -105 -39
q-67 0 -106 39q-16 16 -24.5 33.5t-11 30.5t-4.5 39h116q2 -38 30 -38q13 0 21 9q8 10 8 37q0 28 -8 37.5t-22 9.5q-24 0 -31 -26h-107v260h275v-104h-169v-47q21 13 51 13q55 0 86 -31q41 -41 41 -112z" />
    <glyph glyph-name="uni2157" unicode="&#x2157;" horiz-adv-x="901" 
d="M320 416q0 -66 -42.5 -100.5t-105.5 -34.5q-61 0 -104 34t-43 106h115q0 -36 32 -36t32 35q0 14 -10 24t-23 10h-16v99h16q15 0 22.5 9.5t7.5 19.5q0 14 -8.5 22t-19.5 8q-12 0 -20 -8t-8 -23h-116q0 61 41.5 98t102.5 37q62 0 102.5 -37t40.5 -93q0 -49 -40 -80
q44 -41 44 -90zM683 712l-339 -712h-126l339 712h126zM878 146q0 -41 -8 -64t-32 -47q-39 -39 -105 -39q-67 0 -106 39q-16 16 -24.5 33.5t-11 30.5t-4.5 39h116q2 -38 30 -38q13 0 21 9q8 10 8 37q0 28 -8 37.5t-22 9.5q-24 0 -31 -26h-107v260h275v-104h-169v-47
q21 13 51 13q55 0 86 -31q41 -41 41 -112z" />
    <glyph glyph-name="uni2158" unicode="&#x2158;" horiz-adv-x="901" 
d="M332 340h-26v-55h-114v55h-179v104l138 268h127l-141 -268h55v41h114v-41h26v-104zM683 712l-339 -712h-126l339 712h126zM878 146q0 -41 -8 -64t-32 -47q-39 -39 -105 -39q-67 0 -106 39q-16 16 -24.5 33.5t-11 30.5t-4.5 39h116q2 -38 30 -38q13 0 21 9q8 10 8 37
q0 28 -8 37.5t-22 9.5q-24 0 -31 -26h-107v260h275v-104h-169v-47q21 13 51 13q55 0 86 -31q41 -41 41 -112z" />
    <glyph glyph-name="uni2159" unicode="&#x2159;" horiz-adv-x="901" 
d="M258 285h-116v297l-95 -82v130l95 82h116v-427zM683 712l-339 -712h-126l339 712h126zM878 137q0 -68 -43.5 -104.5t-106.5 -36.5t-106 37t-43 105q0 44 40 124l80 165h128l-81 -159q6 1 17 1q42 0 78.5 -35.5t36.5 -96.5zM762 138q0 39 -34 39q-14 0 -23.5 -10t-9.5 -29
t9.5 -29.5t23.5 -10.5t24 10.5t10 29.5z" />
    <glyph glyph-name="uni215A" unicode="&#x215a;" horiz-adv-x="901" 
d="M317 431q0 -41 -8 -64t-32 -47q-39 -39 -105 -39q-67 0 -106 39q-16 16 -24.5 33.5t-11 30.5t-4.5 39h116q2 -38 30 -38q14 0 21 9q8 10 8 37q0 28 -8 37.5t-22 9.5q-25 0 -31 -26h-107v260h275v-104h-169v-47q21 13 51 13q55 0 86 -31q41 -41 41 -112zM683 712
l-339 -712h-126l339 712h126zM878 137q0 -68 -43.5 -104.5t-106.5 -36.5t-106 37t-43 105q0 44 40 124l80 165h128l-81 -159q6 1 17 1q42 0 78.5 -35.5t36.5 -96.5zM762 138q0 39 -34 39q-14 0 -23.5 -10t-9.5 -29t9.5 -29.5t23.5 -10.5t24 10.5t10 29.5z" />
    <glyph glyph-name="oneeighth" unicode="&#x215b;" horiz-adv-x="901" 
d="M258 285h-116v297l-95 -82v130l95 82h116v-427zM683 712l-339 -712h-126l339 712h126zM880 131q0 -67 -42 -101t-107 -34t-107 34t-42 101q0 50 43 88q-40 40 -40 81q0 61 43 96t103 35t103 -35t43 -96q0 -41 -40 -81q43 -38 43 -88zM764 134q0 14 -9.5 23.5t-23.5 9.5
t-23.5 -9.5t-9.5 -23.5t9.5 -23.5t23.5 -9.5t23.5 9.5t9.5 23.5zM761 297q0 13 -8.5 21.5t-21.5 8.5t-21.5 -8.5t-8.5 -21.5t8.5 -21.5t21.5 -8.5t21.5 8.5t8.5 21.5z" />
    <glyph glyph-name="threeeighths" unicode="&#x215c;" horiz-adv-x="901" 
d="M320 416q0 -66 -42.5 -100.5t-105.5 -34.5q-61 0 -104 34t-43 106h115q0 -36 32 -36t32 35q0 14 -10 24t-23 10h-16v99h16q15 0 22.5 9.5t7.5 19.5q0 14 -8.5 22t-19.5 8q-12 0 -20 -8t-8 -23h-116q0 61 41.5 98t102.5 37q62 0 102.5 -37t40.5 -93q0 -49 -40 -80
q44 -41 44 -90zM683 712l-339 -712h-126l339 712h126zM880 131q0 -67 -42 -101t-107 -34t-107 34t-42 101q0 50 43 88q-40 40 -40 81q0 61 43 96t103 35t103 -35t43 -96q0 -41 -40 -81q43 -38 43 -88zM764 134q0 14 -9.5 23.5t-23.5 9.5t-23.5 -9.5t-9.5 -23.5t9.5 -23.5
t23.5 -9.5t23.5 9.5t9.5 23.5zM761 297q0 13 -8.5 21.5t-21.5 8.5t-21.5 -8.5t-8.5 -21.5t8.5 -21.5t21.5 -8.5t21.5 8.5t8.5 21.5z" />
    <glyph glyph-name="fiveeighths" unicode="&#x215d;" horiz-adv-x="901" 
d="M317 431q0 -41 -8 -64t-32 -47q-39 -39 -105 -39q-67 0 -106 39q-16 16 -24.5 33.5t-11 30.5t-4.5 39h116q2 -38 30 -38q14 0 21 9q8 10 8 37q0 28 -8 37.5t-22 9.5q-25 0 -31 -26h-107v260h275v-104h-169v-47q21 13 51 13q55 0 86 -31q41 -41 41 -112zM683 712
l-339 -712h-126l339 712h126zM880 131q0 -67 -42 -101t-107 -34t-107 34t-42 101q0 50 43 88q-40 40 -40 81q0 61 43 96t103 35t103 -35t43 -96q0 -41 -40 -81q43 -38 43 -88zM764 134q0 14 -9.5 23.5t-23.5 9.5t-23.5 -9.5t-9.5 -23.5t9.5 -23.5t23.5 -9.5t23.5 9.5
t9.5 23.5zM761 297q0 13 -8.5 21.5t-21.5 8.5t-21.5 -8.5t-8.5 -21.5t8.5 -21.5t21.5 -8.5t21.5 8.5t8.5 21.5z" />
    <glyph glyph-name="seveneighths" unicode="&#x215e;" horiz-adv-x="901" 
d="M323 608l-129 -323h-116l128 323h-90v-68h-104v172h311v-104zM683 712l-339 -712h-126l339 712h126zM880 131q0 -67 -42 -101t-107 -34t-107 34t-42 101q0 50 43 88q-40 40 -40 81q0 61 43 96t103 35t103 -35t43 -96q0 -41 -40 -81q43 -38 43 -88zM764 134
q0 14 -9.5 23.5t-23.5 9.5t-23.5 -9.5t-9.5 -23.5t9.5 -23.5t23.5 -9.5t23.5 9.5t9.5 23.5zM761 297q0 13 -8.5 21.5t-21.5 8.5t-21.5 -8.5t-8.5 -21.5t8.5 -21.5t21.5 -8.5t21.5 8.5t8.5 21.5z" />
    <glyph glyph-name="uni215F" unicode="&#x215f;" horiz-adv-x="561" 
d="M258 285h-116v297l-95 -82v130l95 82h116v-427zM683 712l-339 -712h-126l339 712h126z" />
    <glyph glyph-name="arrowleft" unicode="&#x2190;" horiz-adv-x="1027" 
d="M424 -82l-377 377l377 377h205l-304 -300h654v-154h-654l304 -300h-205z" />
    <glyph glyph-name="arrowup" unicode="&#x2191;" horiz-adv-x="1027" 
d="M891 180l-300 304v-655h-154v655l-300 -304v205l377 377l377 -377v-205z" />
    <glyph glyph-name="arrowright" unicode="&#x2192;" horiz-adv-x="1027" 
d="M399 -82l304 300h-655v154h655l-304 300h205l377 -377l-377 -377h-205z" />
    <glyph glyph-name="arrowdown" unicode="&#x2193;" horiz-adv-x="1027" 
d="M890 206l-377 -377l-377 377v205l300 -304v654h154v-654l300 304v-205z" />
    <glyph glyph-name="uni2196" unicode="&#x2196;" horiz-adv-x="1027" 
d="M897 20l-109 -109l-462 462l2 -427l-145 145v534h534l145 -145l-427 2z" />
    <glyph glyph-name="uni2197" unicode="&#x2197;" horiz-adv-x="1027" 
d="M843 92l-145 -145l3 427l-463 -463l-109 109l463 463l-427 -3l145 145h533v-533z" />
    <glyph glyph-name="uni2198" unicode="&#x2198;" horiz-adv-x="1027" 
d="M854 -62h-533l-145 145l427 -3l-463 463l109 109l463 -463l-3 427l145 -145v-533z" />
    <glyph glyph-name="uni2199" unicode="&#x2199;" horiz-adv-x="1027" 
d="M886 544l-463 -463l428 2l-145 -145h-535v535l145 145l-2 -428l463 463z" />
    <glyph glyph-name="partialdiff" unicode="&#x2202;" horiz-adv-x="561" 
d="M499 259q0 -77 -12 -120.5t-45 -78.5q-62 -66 -167 -66t-167 66q-33 35 -45 78.5t-12 120.5t12.5 121t44.5 79q61 65 163 65q39 0 63 -12q0 9 -5.5 23t-27 29.5t-53.5 15.5q-58 0 -92 -34l-102 102q39 39 87 54.5t115 15.5q119 0 181 -68t62 -181v-210zM335 259
q0 82 -21 103q-14 14 -39 14t-39 -14q-21 -21 -21 -103t21 -103q14 -14 39 -14t39 14q21 21 21 103z" />
    <glyph glyph-name="Delta" unicode="&#x2206;" horiz-adv-x="653" 
d="M653 0h-653l259 712h135zM424 146l-93 296l-99 -296h192z" />
    <glyph glyph-name="product" unicode="&#x220f;" horiz-adv-x="680" 
d="M608 -174h-175v779h-186v-779h-175v934h536v-934z" />
    <glyph glyph-name="summation" unicode="&#x2211;" horiz-adv-x="553" 
d="M523 -176h-493v136l181 342l-177 322v136h484v-156h-278l118 -224v-163l-126 -237h291v-156z" />
    <glyph glyph-name="minus" unicode="&#x2212;" 
d="M507 218h-458v154h458v-154z" />
    <glyph glyph-name="uni2219" unicode="&#x2219;" 
d="M441 334q0 -68 -47.5 -115.5t-115.5 -47.5t-115.5 47.5t-47.5 115.5t47.5 115.5t115.5 47.5t115.5 -47.5t47.5 -115.5z" />
    <glyph glyph-name="radical" unicode="&#x221a;" horiz-adv-x="616" 
d="M586 556h-94l-184 -556h-130l-178 538h177l67 -224l118 398h224v-156z" />
    <glyph glyph-name="infinity" unicode="&#x221e;" horiz-adv-x="876" 
d="M829 295q0 -90 -54 -148t-155 -58t-182 88q-81 -88 -182 -88t-155 58t-54 148t54 148t155 58t182 -88q81 88 182 88t155 -58t54 -148zM324 290q-13 16 -21 24.5t-21.5 16.5t-26.5 8q-20 0 -34 -13t-14 -36t14 -36t34 -13q13 0 26.5 8t21.5 16.5t21 24.5zM669 290
q0 23 -14 36t-34 13q-13 0 -26.5 -8t-21.5 -16.5t-21 -24.5q13 -16 21 -24.5t21.5 -16.5t26.5 -8q20 0 34 13t14 36z" />
    <glyph glyph-name="integral" unicode="&#x222b;" horiz-adv-x="560" 
d="M490 592h-55q-69 0 -69 -66v-488q0 -99 -61.5 -152t-162.5 -53h-73v138h55q69 0 69 66v488q0 99 61.5 152t162.5 53h73v-138z" />
    <glyph glyph-name="approxequal" unicode="&#x2248;" horiz-adv-x="646" 
d="M616 408q-51 -51 -93.5 -73.5t-93.5 -22.5q-65 0 -123 34q-43 25 -84 25q-47 0 -88 -41l-104 104q51 51 92.5 73.5t92.5 22.5q65 0 123 -34q43 -25 84 -25q47 0 88 41zM616 154q-51 -51 -92.5 -73.5t-92.5 -22.5q-65 0 -123 34q-43 25 -84 25q-47 0 -88 -41l-106 104
q51 51 93.5 73.5t93.5 22.5q65 0 123 -34q43 -25 84 -25q47 0 88 41z" />
    <glyph glyph-name="notequal" unicode="&#x2260;" horiz-adv-x="640" 
d="M591 96h-340l-103 -140l-99 74l48 66h-48v154h161l66 90h-227v154h340l103 140l99 -74l-48 -66h48v-154h-161l-66 -90h227v-154z" />
    <glyph glyph-name="lessequal" unicode="&#x2264;" 
d="M503 199l-450 198v142l450 198v-173l-235 -96l235 -96v-173zM503 -58l-450 198v173l450 -198v-173z" />
    <glyph glyph-name="greaterequal" unicode="&#x2265;" 
d="M503 397l-450 -198v173l235 96l-235 96v173l450 -198v-142zM503 140l-450 -198v173l450 198v-173z" />
    <glyph glyph-name="dotmath" unicode="&#x22c5;" 
d="M368 205h-180v180h180v-180z" />
    <glyph glyph-name="lozenge" unicode="&#x25ca;" horiz-adv-x="628" 
d="M581 334l-267 -368l-267 368l267 368zM396 334l-82 112l-82 -112l82 -112z" />
    <glyph glyph-name="fi" unicode="&#xfb01;" horiz-adv-x="631" 
d="M333 391h-90v-391h-164v391h-49v126h49v47q0 63 42 111t125 48h87v-138h-57q-33 0 -33 -33v-35h90v-126zM569 0h-164v517h164v-517zM569 593h-164v125h164v-125z" />
    <glyph glyph-name="fl" unicode="&#xfb02;" horiz-adv-x="689" 
d="M333 391h-90v-391h-164v391h-49v126h49v47q0 63 42 111t125 48h87v-138h-57q-33 0 -33 -33v-35h90v-126zM659 0h-87q-83 0 -125 48t-42 111v553h164v-541q0 -33 33 -33h57v-138z" />
    <glyph glyph-name="i.latn_TRK" horiz-adv-x="288" 
d="M226 0h-164v517h164v-517zM226 593h-164v125h164v-125z" />
    <glyph glyph-name="Ldot.latn_CAT" horiz-adv-x="576" 
d="M546 0h-474v712h175v-556h299v-156zM512 289h-138v138h138v-138z" />
    <glyph glyph-name="ldot.latn_CAT" horiz-adv-x="463" 
d="M311 0h-87q-83 0 -125 48t-42 111v553h164v-541q0 -33 33 -33h57v-138zM440 224h-138v138h138v-138z" />
    <glyph glyph-name="zero.numr" horiz-adv-x="340" 
d="M314 420q0 -66 -42.5 -102.5t-101.5 -36.5t-101.5 36.5t-42.5 102.5v158q0 66 42.5 102t101.5 36t101.5 -36t42.5 -102v-158zM198 417v162q0 17 -8.5 25t-19.5 8t-19.5 -8t-8.5 -25v-162q0 -32 28 -32t28 32z" />
    <glyph glyph-name="one.numr" horiz-adv-x="340" 
d="M258 285h-116v297l-95 -82v130l95 82h116v-427z" />
    <glyph glyph-name="two.numr" horiz-adv-x="340" 
d="M316 285h-287v104l151 154q22 22 22 40q0 13 -8 21t-21 8q-28 0 -28 -30h-116q0 64 41.5 99t102.5 35q63 0 103 -35.5t40 -97.5q0 -34 -13.5 -57t-45.5 -54l-87 -83h146v-104z" />
    <glyph glyph-name="three.numr" horiz-adv-x="340" 
d="M320 416q0 -66 -42.5 -100.5t-105.5 -34.5q-61 0 -104 34t-43 106h115q0 -36 32 -36t32 35q0 14 -10 24t-23 10h-16v99h16q15 0 22.5 9.5t7.5 19.5q0 14 -8.5 22t-19.5 8q-12 0 -20 -8t-8 -23h-116q0 61 41.5 98t102.5 37q62 0 102.5 -37t40.5 -93q0 -49 -40 -80
q44 -41 44 -90z" />
    <glyph glyph-name="four.numr" horiz-adv-x="340" 
d="M332 340h-26v-55h-114v55h-179v104l138 268h127l-141 -268h55v41h114v-41h26v-104z" />
    <glyph glyph-name="five.numr" horiz-adv-x="340" 
d="M317 431q0 -41 -8 -64t-32 -47q-39 -39 -105 -39q-67 0 -106 39q-16 16 -24.5 33.5t-11 30.5t-4.5 39h116q2 -38 30 -38q14 0 21 9q8 10 8 37q0 28 -8 37.5t-22 9.5q-25 0 -31 -26h-107v260h275v-104h-169v-47q21 13 51 13q55 0 86 -31q41 -41 41 -112z" />
    <glyph glyph-name="six.numr" horiz-adv-x="340" 
d="M317 422q0 -68 -43.5 -104.5t-106.5 -36.5t-106 37t-43 105q0 44 40 124l80 165h128l-81 -159q6 1 17 1q42 0 78.5 -35.5t36.5 -96.5zM201 423q0 39 -34 39q-14 0 -23.5 -10t-9.5 -29t9.5 -29.5t23.5 -10.5t24 10.5t10 29.5z" />
    <glyph glyph-name="seven.numr" horiz-adv-x="340" 
d="M323 608l-129 -323h-116l128 323h-90v-68h-104v172h311v-104z" />
    <glyph glyph-name="eight.numr" horiz-adv-x="340" 
d="M319 416q0 -67 -42 -101t-107 -34t-107 34t-42 101q0 50 43 88q-40 40 -40 81q0 61 43 96t103 35t103 -35t43 -96q0 -41 -40 -81q43 -38 43 -88zM203 419q0 14 -9.5 23.5t-23.5 9.5t-23.5 -9.5t-9.5 -23.5t9.5 -23.5t23.5 -9.5t23.5 9.5t9.5 23.5zM200 582
q0 13 -8.5 21.5t-21.5 8.5t-21.5 -8.5t-8.5 -21.5t8.5 -21.5t21.5 -8.5t21.5 8.5t8.5 21.5z" />
    <glyph glyph-name="nine.numr" horiz-adv-x="340" 
d="M322 574q0 -42 -40 -124l-80 -165h-128l81 160q-5 -2 -17 -2q-41 0 -78 35.5t-37 96.5q0 68 43.5 104.5t106.5 36.5t106 -37t43 -105zM206 575q0 17 -9.5 27t-23.5 10t-24 -10t-10 -27t10 -27.5t24 -10.5q13 0 23 10.5t10 27.5z" />
    <glyph glyph-name="zero.dnom" horiz-adv-x="340" 
d="M314 135q0 -66 -42.5 -102.5t-101.5 -36.5t-101.5 36.5t-42.5 102.5v158q0 66 42.5 102t101.5 36t101.5 -36t42.5 -102v-158zM198 132v162q0 17 -8.5 25t-19.5 8t-19.5 -8t-8.5 -25v-162q0 -32 28 -32t28 32z" />
    <glyph glyph-name="one.dnom" horiz-adv-x="340" 
d="M258 0h-116v297l-95 -82v130l95 82h116v-427z" />
    <glyph glyph-name="two.dnom" horiz-adv-x="340" 
d="M316 0h-287v104l151 154q22 22 22 40q0 13 -8 21t-21 8q-28 0 -28 -30h-116q0 64 41.5 99t102.5 35q63 0 103 -35.5t40 -97.5q0 -34 -13.5 -57t-45.5 -54l-87 -83h146v-104z" />
    <glyph glyph-name="three.dnom" horiz-adv-x="340" 
d="M320 131q0 -66 -42.5 -100.5t-105.5 -34.5q-61 0 -104 34t-43 106h115q0 -36 32 -36t32 35q0 14 -10 24t-23 10h-16v99h16q15 0 22.5 9.5t7.5 19.5q0 14 -8.5 22t-19.5 8q-12 0 -20 -8t-8 -23h-116q0 61 41.5 98t102.5 37q62 0 102.5 -37t40.5 -93q0 -49 -40 -80
q44 -41 44 -90z" />
    <glyph glyph-name="four.dnom" horiz-adv-x="340" 
d="M332 55h-26v-55h-114v55h-179v104l138 268h127l-141 -268h55v41h114v-41h26v-104z" />
    <glyph glyph-name="five.dnom" horiz-adv-x="340" 
d="M317 146q0 -41 -8 -64t-32 -47q-39 -39 -105 -39q-67 0 -106 39q-16 16 -24.5 33.5t-11 30.5t-4.5 39h116q2 -38 30 -38q14 0 21 9q8 10 8 37q0 28 -8 37.5t-22 9.5q-25 0 -31 -26h-107v260h275v-104h-169v-47q21 13 51 13q55 0 86 -31q41 -41 41 -112z" />
    <glyph glyph-name="six.dnom" horiz-adv-x="340" 
d="M317 137q0 -68 -43.5 -104.5t-106.5 -36.5t-106 37t-43 105q0 44 40 124l80 165h128l-81 -159q6 1 17 1q42 0 78.5 -35.5t36.5 -96.5zM201 138q0 39 -34 39q-14 0 -23.5 -10t-9.5 -29t9.5 -29.5t23.5 -10.5t24 10.5t10 29.5z" />
    <glyph glyph-name="seven.dnom" horiz-adv-x="340" 
d="M323 323l-129 -323h-116l128 323h-90v-68h-104v172h311v-104z" />
    <glyph glyph-name="eight.dnom" horiz-adv-x="340" 
d="M319 131q0 -67 -42 -101t-107 -34t-107 34t-42 101q0 50 43 88q-40 40 -40 81q0 61 43 96t103 35t103 -35t43 -96q0 -41 -40 -81q43 -38 43 -88zM203 134q0 14 -9.5 23.5t-23.5 9.5t-23.5 -9.5t-9.5 -23.5t9.5 -23.5t23.5 -9.5t23.5 9.5t9.5 23.5zM200 297
q0 13 -8.5 21.5t-21.5 8.5t-21.5 -8.5t-8.5 -21.5t8.5 -21.5t21.5 -8.5t21.5 8.5t8.5 21.5z" />
    <glyph glyph-name="nine.dnom" horiz-adv-x="340" 
d="M322 289q0 -42 -40 -124l-80 -165h-128l81 160q-5 -2 -17 -2q-41 0 -78 35.5t-37 96.5q0 68 43.5 104.5t106.5 36.5t106 -37t43 -105zM206 290q0 17 -9.5 27t-23.5 10t-24 -10t-10 -27t10 -27.5t24 -10.5q13 0 23 10.5t10 27.5z" />
    <glyph glyph-name="space.frac" horiz-adv-x="44" 
 />
    <glyph glyph-name="zero.osf" 
d="M507 216q0 -105 -67 -163.5t-162 -58.5t-162 58.5t-67 163.5v165q0 105 67 163.5t162 58.5t162 -58.5t67 -163.5v-165zM343 215v166q0 36 -18.5 55t-46.5 19t-46.5 -19t-18.5 -55v-166q0 -36 18.5 -54.5t46.5 -18.5t46.5 18.5t18.5 54.5z" />
    <glyph glyph-name="one.osf" horiz-adv-x="476" 
d="M371 0h-164v422l-152 -132v175l152 132h164v-597z" />
    <glyph glyph-name="two.osf" horiz-adv-x="573" 
d="M513 0h-468v148l221 173q38 30 55.5 50.5t17.5 42.5q0 28 -17 44.5t-47 16.5q-27 0 -46.5 -16t-19.5 -53h-164q0 101 66.5 159t163.5 58q99 0 163.5 -55.5t64.5 -149.5q0 -55 -36 -100.5t-111 -103.5l-86 -66h243v-148z" />
    <glyph glyph-name="three.osf" horiz-adv-x="546" 
d="M504 98q0 -106 -68 -162.5t-169 -56.5q-63 0 -114.5 21.5t-87 73.5t-35.5 128h164q0 -36 20.5 -55.5t52.5 -19.5q33 0 53 19.5t20 56.5q0 32 -21.5 53.5t-54.5 21.5h-23v142h23q34 0 51 20t17 47q0 32 -19 50t-46 18t-46 -18t-19 -49h-164q0 98 65.5 156.5t163.5 58.5
q99 0 164 -59.5t65 -151.5t-74 -139q82 -57 82 -155z" />
    <glyph glyph-name="four.osf" horiz-adv-x="619" 
d="M579 30h-73v-153h-156v153h-309v156l231 462h177l-231 -462h132v114h156v-114h73v-156z" />
    <glyph glyph-name="five.osf" horiz-adv-x="571" 
d="M525 128q0 -67 -13.5 -108.5t-52.5 -79.5q-61 -61 -165 -61q-107 0 -169 62q-24 24 -38 54t-17.5 52t-6.5 55h164q8 -75 67 -75q28 0 46 18q21 21 21 83q0 56 -17 78.5t-50 22.5q-17 0 -29.5 -5t-20 -14t-10.5 -15.5t-7 -16.5h-151v419h434v-148h-285v-110q36 28 96 28
q88 0 138 -50q40 -40 53 -85t13 -104z" />
    <glyph glyph-name="six.osf" horiz-adv-x="562" 
d="M527 227q0 -112 -70.5 -172.5t-175.5 -60.5t-175.5 60.5t-70.5 172.5q0 68 18 122t61 133l134 246h177l-165 -289q23 12 70 12q79 0 138 -59t59 -165zM363 227q0 43 -23.5 67t-58.5 24t-58.5 -24t-23.5 -67t23.5 -67t58.5 -24t58.5 24t23.5 67z" />
    <glyph glyph-name="seven.osf" horiz-adv-x="583" 
d="M548 449l-247 -564h-178l247 564h-169v-112h-156v260h503v-148z" />
    <glyph glyph-name="eight.osf" horiz-adv-x="576" 
d="M527 213q0 -106 -67.5 -162.5t-171.5 -56.5t-171.5 56.5t-67.5 162.5q0 41 16.5 75.5t29.5 47.5t34 30q-73 61 -73 141q0 97 68 154t164 57t164 -57t68 -154q0 -80 -73 -141q21 -17 34 -30t29.5 -47.5t16.5 -75.5zM363 217q0 31 -22 53t-53 22t-53 -22t-22 -53t22 -53
t53 -22t53 22t22 53zM356 502q0 28 -20 48t-48 20t-48 -20t-20 -48t20 -48t48 -20t48 20t20 48z" />
    <glyph glyph-name="nine.osf" horiz-adv-x="562" 
d="M527 370q0 -68 -18 -122t-61 -133l-134 -246h-177l165 289q-23 -12 -70 -12q-79 0 -138 59t-59 165q0 112 70.5 172.5t175.5 60.5t175.5 -60.5t70.5 -172.5zM363 370q0 43 -23.5 67t-58.5 24t-58.5 -24t-23.5 -67t23.5 -67t58.5 -24t58.5 24t23.5 67z" />
    <glyph glyph-name="zero.lf" 
d="M507 216q0 -105 -67 -163.5t-162 -58.5t-162 58.5t-67 163.5v280q0 105 67 163.5t162 58.5t162 -58.5t67 -163.5v-280zM343 215v281q0 36 -18.5 55t-46.5 19t-46.5 -19t-18.5 -55v-281q0 -36 18.5 -54.5t46.5 -18.5t46.5 18.5t18.5 54.5z" />
    <glyph glyph-name="one.lf" horiz-adv-x="466" 
d="M371 0h-164v537l-152 -132v175l152 132h164v-712z" />
    <glyph glyph-name="two.lf" horiz-adv-x="553" 
d="M503 0h-458v148l258 280q36 39 36 76q0 30 -16.5 48t-47.5 18q-27 0 -46.5 -16t-19.5 -53h-164q0 101 66.5 159t163.5 58q101 0 164.5 -58t63.5 -157q0 -52 -20 -88t-68 -87l-170 -180h258v-148z" />
    <glyph glyph-name="three.lf" horiz-adv-x="546" 
d="M504 213q0 -106 -68 -162.5t-169 -56.5q-63 0 -114.5 21.5t-87 73.5t-35.5 128h164q0 -36 20.5 -55.5t52.5 -19.5q33 0 53 19.5t20 56.5q0 32 -21.5 53.5t-54.5 21.5h-23v142h23q34 0 51 20t17 47q0 32 -19 50t-46 18t-46 -18t-19 -49h-164q0 98 65.5 156.5t163.5 58.5
q99 0 164 -59.5t65 -151.5t-74 -139q82 -57 82 -155z" />
    <glyph glyph-name="four.lf" horiz-adv-x="585" 
d="M545 94h-53v-94h-156v94h-295v156l236 462h180l-236 -462h115v94h156v-94h53v-156z" />
    <glyph glyph-name="five.lf" horiz-adv-x="568" 
d="M522 243q0 -67 -14 -108t-52 -80q-61 -61 -165 -61q-107 0 -169 62q-24 24 -38 54t-17.5 52t-6.5 55h164q8 -75 67 -75q28 0 46 18q21 21 21 83q0 56 -17 78.5t-50 22.5q-17 0 -29.5 -5t-20 -14t-10.5 -15.5t-7 -16.5h-151v419h434v-148h-285v-110q36 28 96 28
q88 0 138 -50q40 -40 53 -85t13 -104z" />
    <glyph glyph-name="six.lf" horiz-adv-x="544" 
d="M509 223q0 -109 -68 -169t-169 -60t-169 60t-68 169q0 32 10 67.5t21 61t37 78.5l137 282h180l-141 -279q14 5 40 5q72 0 131 -58t59 -157zM345 223q0 38 -21 59.5t-52 21.5t-52 -21.5t-21 -59.5t21 -59.5t52 -21.5t52 21.5t21 59.5z" />
    <glyph glyph-name="seven.lf" horiz-adv-x="568" 
d="M533 564l-222 -564h-180l222 564h-152v-112h-156v260h488v-148z" />
    <glyph glyph-name="eight.lf" horiz-adv-x="576" 
d="M527 213q0 -106 -67.5 -162.5t-171.5 -56.5t-171.5 56.5t-67.5 162.5q0 41 16.5 75.5t29.5 47.5t34 30q-73 61 -73 141q0 97 68 154t164 57t164 -57t68 -154q0 -80 -73 -141q21 -17 34 -30t29.5 -47.5t16.5 -75.5zM363 217q0 31 -22 53t-53 22t-53 -22t-22 -53t22 -53
t53 -22t53 22t22 53zM356 502q0 28 -20 48t-48 20t-48 -20t-20 -48t20 -48t48 -20t48 20t20 48z" />
    <glyph glyph-name="nine.lf" horiz-adv-x="544" 
d="M509 489q0 -32 -10 -68.5t-22 -63t-36 -75.5l-137 -282h-180l141 279q-14 -5 -40 -5q-72 0 -131 58t-59 157q0 109 68 169t169 60t169 -60t68 -169zM345 489q0 38 -21 59.5t-52 21.5t-52 -21.5t-21 -59.5t21 -59.5t52 -21.5t52 21.5t21 59.5z" />
    <glyph glyph-name="zero.tosf" 
d="M511 216q0 -105 -67 -163.5t-162 -58.5t-162 58.5t-67 163.5v165q0 105 67 163.5t162 58.5t162 -58.5t67 -163.5v-165zM347 215v166q0 36 -18.5 55t-46.5 19t-46.5 -19t-18.5 -55v-166q0 -36 18.5 -54.5t46.5 -18.5t46.5 18.5t18.5 54.5z" />
    <glyph glyph-name="one.tosf" 
d="M406 0h-164v422l-152 -132v175l152 132h164v-597z" />
    <glyph glyph-name="two.tosf" 
d="M516 0h-468v148l221 173q38 30 55.5 50.5t17.5 42.5q0 28 -17 44.5t-47 16.5q-27 0 -46.5 -16t-19.5 -53h-164q0 101 66 159t164 58q99 0 163.5 -55.5t64.5 -149.5q0 -55 -36 -100.5t-111 -103.5l-86 -66h243v-148z" />
    <glyph glyph-name="three.tosf" 
d="M516 98q0 -106 -68 -162.5t-169 -56.5q-63 0 -114.5 21.5t-87 73.5t-35.5 128h164q0 -36 20.5 -55.5t52.5 -19.5q33 0 53 19.5t20 56.5q0 32 -21.5 53.5t-54.5 21.5h-23v142h23q34 0 51 20t17 47q0 32 -19 50t-46 18t-46 -18t-19 -49h-164q0 98 65.5 156.5t163.5 58.5
q99 0 164 -59.5t65 -151.5t-74 -139q82 -57 82 -155z" />
    <glyph glyph-name="four.tosf" 
d="M534 30h-53v-153h-156v153h-295v156l236 462h180l-236 -462h115v94h156v-94h53v-156z" />
    <glyph glyph-name="five.tosf" 
d="M512 128q0 -67 -14 -108.5t-52 -79.5q-61 -61 -165 -61q-107 0 -169 62q-24 24 -38 54t-17.5 52t-6.5 55h164q8 -75 67 -75q28 0 46 18q21 21 21 83q0 56 -17 78.5t-50 22.5q-17 0 -29.5 -5t-20 -14t-10.5 -15.5t-7 -16.5h-151v419h434v-148h-285v-110q36 28 96 28
q88 0 138 -50q40 -40 53 -85t13 -104z" />
    <glyph glyph-name="six.tosf" 
d="M524 227q0 -112 -70.5 -172.5t-175.5 -60.5t-175.5 60.5t-70.5 172.5q0 68 18 122t61 133l134 246h177l-165 -289q23 12 70 12q79 0 138 -59t59 -165zM360 227q0 43 -23.5 67t-58.5 24t-58.5 -24t-23.5 -67t23.5 -67t58.5 -24t58.5 24t23.5 67z" />
    <glyph glyph-name="seven.tosf" 
d="M522 449l-222 -564h-180l222 564h-152v-112h-156v260h488v-148z" />
    <glyph glyph-name="eight.tosf" 
d="M517 213q0 -106 -67.5 -162.5t-171.5 -56.5t-171.5 56.5t-67.5 162.5q0 41 16.5 75.5t29.5 47.5t34 30q-73 61 -73 141q0 97 68 154t164 57t164 -57t68 -154q0 -80 -73 -141q21 -17 34 -30t29.5 -47.5t16.5 -75.5zM353 217q0 31 -22 53t-53 22t-53 -22t-22 -53t22 -53
t53 -22t53 22t22 53zM346 502q0 28 -20 48t-48 20t-48 -20t-20 -48t20 -48t48 -20t48 20t20 48z" />
    <glyph glyph-name="nine.tosf" 
d="M524 370q0 -68 -18 -122t-61 -133l-134 -246h-177l165 289q-23 -12 -70 -12q-79 0 -138 59t-59 165q0 112 70.5 172.5t175.5 60.5t175.5 -60.5t70.5 -172.5zM360 370q0 43 -23.5 67t-58.5 24t-58.5 -24t-23.5 -67t23.5 -67t58.5 -24t58.5 24t23.5 67z" />
    <glyph glyph-name="uni2007.tosf" 
 />
    <glyph glyph-name="hyphen.case" horiz-adv-x="426" 
d="M377 279h-328v154h328v-154z" />
    <glyph glyph-name="exclamdown.case" horiz-adv-x="366" 
d="M266 0h-206l44 475h118zM247 551h-168v161h168v-161z" />
    <glyph glyph-name="guillemotleft.case" horiz-adv-x="672" 
d="M303 85l-273 271l273 270v-193l-79 -77l79 -78v-193zM612 85l-273 271l273 270v-193l-81 -77l81 -78v-193z" />
    <glyph glyph-name="uni00AD.case" horiz-adv-x="426" 
d="M377 279h-328v154h328v-154z" />
    <glyph glyph-name="guillemotright.case" horiz-adv-x="672" 
d="M642 356l-273 -271v193l79 78l-79 77v193zM333 356l-273 -271v193l80 78l-80 77v193z" />
    <glyph glyph-name="questiondown.case" horiz-adv-x="538" 
d="M478 205q0 -98 -64.5 -154.5t-159.5 -56.5q-94 0 -159 55.5t-65 154.5q0 62 51 128l69 87q18 22 18 47v9h164v-23q0 -63 -41 -111l-70 -82q-27 -31 -27 -56q0 -27 15.5 -44t44.5 -17q60 0 60 63h164zM334 551h-168v161h168v-161z" />
    <glyph glyph-name="endash.case" 
d="M507 279h-458v154h458v-154z" />
    <glyph glyph-name="emdash.case" horiz-adv-x="1093" 
d="M1044 277h-995v158h995v-158z" />
    <glyph glyph-name="afii00208.case" horiz-adv-x="1093" 
d="M1044 277h-995v158h995v-158z" />
    <glyph glyph-name="guilsinglleft.case" horiz-adv-x="363" 
d="M303 85l-273 271l273 270v-193l-79 -77l79 -78v-193z" />
    <glyph glyph-name="guilsinglright.case" horiz-adv-x="363" 
d="M333 356l-273 -271v193l80 78l-80 77v193z" />
    <glyph glyph-name="caroncomma.ss01" horiz-adv-x="550" 
d="M731 648l-139 -101v215h139v-114z" />
    <glyph glyph-name="commaaccent.ss01" horiz-adv-x="288" 
d="M207 -133q0 -45 -32 -74.5t-85 -29.5v76q14 0 22.5 8.5t8.5 19.5t-8.5 19.5t-22.5 8.5v76q53 0 85 -29.5t32 -74.5z" />
    <glyph glyph-name="commaturn.ss01" horiz-adv-x="288" 
d="M201 593q-53 0 -85 29.5t-32 74.5t32 74.5t85 29.5v-76q-14 0 -22.5 -8.5t-8.5 -19.5t8.5 -19.5t22.5 -8.5v-76z" />
    <glyph glyph-name="exclam.ss01" horiz-adv-x="366" 
d="M306 712l-44 -475h-118l-44 475h206zM298 92q0 -39 -28 -67t-67 -28t-67 28t-28 67t28 67t67 28t67 -28t28 -67z" />
    <glyph glyph-name="period.ss01" horiz-adv-x="308" 
d="M259 102q0 -44 -30.5 -74.5t-74.5 -30.5t-74.5 30.5t-30.5 74.5t30.5 74.5t74.5 30.5t74.5 -30.5t30.5 -74.5z" />
    <glyph glyph-name="colon.ss01" horiz-adv-x="331" 
d="M282 352q0 -44 -31 -74.5t-74 -30.5t-74 30.5t-31 74.5t31 74.5t74 30.5t74 -30.5t31 -74.5zM282 102q0 -44 -31 -74.5t-74 -30.5t-74 30.5t-31 74.5t31 74.5t74 30.5t74 -30.5t31 -74.5z" />
    <glyph glyph-name="semicolon.ss01" horiz-adv-x="317" 
d="M264 -50l-174 -128v352h174v-224zM282 352q0 -44 -31 -74.5t-74 -30.5t-74 30.5t-31 74.5t31 74.5t74 30.5t74 -30.5t31 -74.5z" />
    <glyph glyph-name="question.ss01" horiz-adv-x="538" 
d="M508 508q0 -62 -51 -128l-69 -87q-18 -22 -18 -47v-9h-164v23q0 63 41 111l70 82q27 31 27 56q0 27 -15.5 44t-44.5 17q-60 0 -60 -63h-164q0 98 64.5 154.5t159.5 56.5q94 0 159 -55.5t65 -154.5zM383 92q0 -39 -28 -67t-67 -28t-67 28t-28 67t28 67t67 28t67 -28
t28 -67z" />
    <glyph glyph-name="at.ss01" horiz-adv-x="980" 
d="M937 348q0 -125 -87.5 -215t-222.5 -90h-127l8 41q-50 -47 -107 -47q-67 0 -104 38.5t-37 91.5q0 30 14 102q17 86 32 124.5t50 68.5q44 39 117 39q67 0 103 -43l7 37h149l-72 -360q80 8 120.5 68t40.5 145q0 121 -79 191.5t-214 70.5q-152 0 -254.5 -100t-102.5 -248
q0 -166 95 -254t266 -88h90l-20 -100h-91q-211 0 -336.5 122.5t-125.5 319.5q0 196 136.5 326t342.5 130q183 0 296 -104t113 -266zM544 322q0 49 -43 49q-24 0 -40 -13q-26 -22 -39 -89q-6 -34 -6 -53q0 -49 43 -49q27 0 42 14q24 21 37 88q6 34 6 53z" />
    <glyph glyph-name="C.ss01" horiz-adv-x="547" 
d="M516 73q-79 -79 -197 -79q-119 0 -197 78q-26 26 -42 56t-22 71t-7.5 70t-1.5 87t1.5 87t7.5 70t22 71t42 56q78 78 197 78q118 0 197 -79l-116 -116q-14 14 -23 21t-24 12.5t-34 5.5q-45 0 -68 -30q-14 -18 -20.5 -52.5t-6.5 -123.5t6.5 -123.5t20.5 -52.5
q23 -30 68 -30q27 0 43.5 9t37.5 30z" />
    <glyph glyph-name="G.ss01" horiz-adv-x="633" 
d="M591 314q0 -89 -15.5 -143.5t-54.5 -94.5q-80 -82 -202 -82q-119 0 -197 78q-26 26 -42 56t-22 71t-7.5 70t-1.5 87t1.5 87t7.5 70t22 71t42 56q78 78 197 78q75 0 123 -19.5t97 -68.5l-119 -119q-28 28 -48.5 39.5t-52.5 11.5q-45 0 -69 -31q-14 -18 -20 -51.5
t-6 -123.5t6 -124t20 -52q23 -30 69 -30t72 28q26 26 26 78v8h-98v146h272v-96z" />
    <glyph glyph-name="i.ss01" horiz-adv-x="288" 
d="M226 0h-164v517h164v-517zM244 662q0 -41 -29.5 -70.5t-70.5 -29.5t-70.5 29.5t-29.5 70.5t29.5 70.5t70.5 29.5t70.5 -29.5t29.5 -70.5z" />
    <glyph glyph-name="j.ss01" horiz-adv-x="288" 
d="M226 -21q0 -63 -42 -111t-125 -48h-87v138h57q33 0 33 33v526h164v-538zM244 662q0 -41 -29.5 -70.5t-70.5 -29.5t-70.5 29.5t-29.5 70.5t29.5 70.5t70.5 29.5t70.5 -29.5t29.5 -70.5z" />
    <glyph glyph-name="exclamdown.ss01" horiz-adv-x="366" 
d="M306 -174h-206l44 475h118zM298 446q0 -39 -28 -67t-67 -28t-67 28t-28 67t28 67t67 28t67 -28t28 -67z" />
    <glyph glyph-name="dieresis.ss01" horiz-adv-x="500" 
d="M213 680q0 -33 -23.5 -56.5t-56.5 -23.5t-56.5 23.5t-23.5 56.5t23.5 56.5t56.5 23.5t56.5 -23.5t23.5 -56.5zM447 680q0 -33 -23.5 -56.5t-56.5 -23.5t-56.5 23.5t-23.5 56.5t23.5 56.5t56.5 23.5t56.5 -23.5t23.5 -56.5z" />
    <glyph glyph-name="periodcentered.ss01" horiz-adv-x="308" 
d="M259 295q0 -43 -30.5 -74t-74.5 -31t-74.5 31t-30.5 74t30.5 74t74.5 31t74.5 -31t30.5 -74z" />
    <glyph glyph-name="cedilla.ss01" horiz-adv-x="500" 
d="M328 -133q0 -45 -32 -74.5t-85 -29.5v76q14 0 22.5 8.5t8.5 19.5t-8.5 19.5t-22.5 8.5v76q53 0 85 -29.5t32 -74.5z" />
    <glyph glyph-name="questiondown.ss01" horiz-adv-x="538" 
d="M508 31q0 -98 -64.5 -154.5t-159.5 -56.5q-94 0 -159 55.5t-65 154.5q0 62 51 128l69 87q18 22 18 47v9h164v-23q0 -63 -41 -111l-70 -82q-27 -31 -27 -56q0 -27 15.5 -44t44.5 -17q60 0 60 63h164zM375 446q0 -39 -28 -67t-67 -28t-67 28t-28 67t28 67t67 28t67 -28
t28 -67z" />
    <glyph glyph-name="Adieresis.ss01" horiz-adv-x="653" 
d="M653 0h-183l-33 106h-219l-35 -106h-183l259 712h135zM391 252l-60 190l-64 -190h124zM523 852q0 -33 -23.5 -56.5t-56.5 -23.5t-56.5 23.5t-23.5 56.5t23.5 56.5t56.5 23.5t56.5 -23.5t23.5 -56.5zM289 852q0 -33 -23.5 -56.5t-56.5 -23.5t-56.5 23.5t-23.5 56.5
t23.5 56.5t56.5 23.5t56.5 -23.5t23.5 -56.5z" />
    <glyph glyph-name="Ccedilla.ss01" horiz-adv-x="547" 
d="M516 73q-79 -79 -197 -79q-119 0 -197 78q-26 26 -42 56t-22 71t-7.5 70t-1.5 87t1.5 87t7.5 70t22 71t42 56q78 78 197 78q118 0 197 -79l-116 -116q-14 14 -23 21t-24 12.5t-34 5.5q-45 0 -68 -30q-14 -18 -20.5 -52.5t-6.5 -123.5t6.5 -123.5t20.5 -52.5
q23 -30 68 -30q27 0 43.5 9t37.5 30zM363 -133q0 -45 -32 -74.5t-85 -29.5v76q14 0 22.5 8.5t8.5 19.5t-8.5 19.5t-22.5 8.5v76q53 0 85 -29.5t32 -74.5z" />
    <glyph glyph-name="Edieresis.ss01" horiz-adv-x="608" 
d="M556 0h-484v712h484v-156h-309v-119h264v-156h-264v-125h309v-156zM505 852q0 -33 -23.5 -56.5t-56.5 -23.5t-56.5 23.5t-23.5 56.5t23.5 56.5t56.5 23.5t56.5 -23.5t23.5 -56.5zM271 852q0 -33 -23.5 -56.5t-56.5 -23.5t-56.5 23.5t-23.5 56.5t23.5 56.5t56.5 23.5
t56.5 -23.5t23.5 -56.5z" />
    <glyph glyph-name="Idieresis.ss01" horiz-adv-x="319" 
d="M247 0h-175v712h175v-712zM355 852q0 -33 -23.5 -56.5t-56.5 -23.5t-56.5 23.5t-23.5 56.5t23.5 56.5t56.5 23.5t56.5 -23.5t23.5 -56.5zM121 852q0 -33 -23.5 -56.5t-56.5 -23.5t-56.5 23.5t-23.5 56.5t23.5 56.5t56.5 23.5t56.5 -23.5t23.5 -56.5z" />
    <glyph glyph-name="Odieresis.ss01" horiz-adv-x="640" 
d="M591 356q0 -58 -1.5 -87t-7.5 -70t-22 -71t-42 -56q-78 -78 -198 -78t-198 78q-26 26 -42 56t-22 71t-7.5 70t-1.5 87t1.5 87t7.5 70t22 71t42 56q78 78 198 78t198 -78q26 -26 42 -56t22 -71t7.5 -70t1.5 -87zM416 356q0 90 -6 123.5t-20 51.5q-24 31 -70 31t-70 -31
q-14 -18 -20 -51.5t-6 -123.5t6 -123t20 -51q24 -32 70 -32t70 32q14 18 20 51t6 123zM517 852q0 -33 -23.5 -56.5t-56.5 -23.5t-56.5 23.5t-23.5 56.5t23.5 56.5t56.5 23.5t56.5 -23.5t23.5 -56.5zM283 852q0 -33 -23.5 -56.5t-56.5 -23.5t-56.5 23.5t-23.5 56.5t23.5 56.5
t56.5 23.5t56.5 -23.5t23.5 -56.5z" />
    <glyph glyph-name="Udieresis.ss01" horiz-adv-x="660" 
d="M600 250q0 -114 -78.5 -185t-192.5 -71t-191.5 71t-77.5 185v462h175v-458q0 -49 25 -76.5t69 -27.5t70 27.5t26 76.5v458h175v-462zM527 852q0 -33 -23.5 -56.5t-56.5 -23.5t-56.5 23.5t-23.5 56.5t23.5 56.5t56.5 23.5t56.5 -23.5t23.5 -56.5zM293 852
q0 -33 -23.5 -56.5t-56.5 -23.5t-56.5 23.5t-23.5 56.5t23.5 56.5t56.5 23.5t56.5 -23.5t23.5 -56.5z" />
    <glyph glyph-name="adieresis.ss01" horiz-adv-x="536" 
d="M483 0h-160v44q-26 -26 -52.5 -37.5t-67.5 -11.5q-81 0 -129 48q-47 47 -47 126q0 66 47 111t139 45h106v14q0 36 -19 51.5t-62 15.5q-47 0 -85 -38l-102 102q41 41 84 57.5t111 16.5q237 0 237 -195v-349zM319 202v14h-78q-57 0 -57 -44q0 -20 15 -32t44 -12q37 0 59 19
q17 16 17 55zM463 680q0 -33 -23.5 -56.5t-56.5 -23.5t-56.5 23.5t-23.5 56.5t23.5 56.5t56.5 23.5t56.5 -23.5t23.5 -56.5zM229 680q0 -33 -23.5 -56.5t-56.5 -23.5t-56.5 23.5t-23.5 56.5t23.5 56.5t56.5 23.5t56.5 -23.5t23.5 -56.5z" />
    <glyph glyph-name="ccedilla.ss01" horiz-adv-x="475" 
d="M457 63q-69 -69 -177 -69q-32 0 -61.5 5.5t-63.5 23.5t-59 47t-41.5 80.5t-16.5 118.5t16.5 118.5t41.5 80.5t59 47t63.5 23.5t61.5 5.5q108 0 177 -69l-111 -111q-32 32 -66 32q-30 0 -51 -21q-27 -28 -27 -106t27 -106q21 -21 51 -21q34 0 66 32zM328 -133
q0 -45 -32 -74.5t-85 -29.5v76q14 0 22.5 8.5t8.5 19.5t-8.5 19.5t-22.5 8.5v76q53 0 85 -29.5t32 -74.5z" />
    <glyph glyph-name="edieresis.ss01" horiz-adv-x="559" 
d="M521 216h-322q0 -35 25.5 -59.5t69.5 -24.5q40 0 63.5 10.5t47.5 34.5l98 -98q-44 -44 -91 -64.5t-118 -20.5q-256 0 -256 275q0 129 66.5 202t174.5 73q114 0 178 -72.5t64 -187.5v-68zM359 325q0 23 -9 42q-19 42 -71 42t-71 -42q-9 -19 -9 -42h160zM480 680
q0 -33 -23.5 -56.5t-56.5 -23.5t-56.5 23.5t-23.5 56.5t23.5 56.5t56.5 23.5t56.5 -23.5t23.5 -56.5zM246 680q0 -33 -23.5 -56.5t-56.5 -23.5t-56.5 23.5t-23.5 56.5t23.5 56.5t56.5 23.5t56.5 -23.5t23.5 -56.5z" />
    <glyph glyph-name="idieresis.ss01" horiz-adv-x="288" 
d="M226 0h-164v517h164v-517zM344 680q0 -33 -23.5 -56.5t-56.5 -23.5t-56.5 23.5t-23.5 56.5t23.5 56.5t56.5 23.5t56.5 -23.5t23.5 -56.5zM110 680q0 -33 -23.5 -56.5t-56.5 -23.5t-56.5 23.5t-23.5 56.5t23.5 56.5t56.5 23.5t56.5 -23.5t23.5 -56.5z" />
    <glyph glyph-name="odieresis.ss01" horiz-adv-x="550" 
d="M507 269q0 -80 -12.5 -124.5t-46.5 -81.5q-65 -69 -173 -69t-173 69q-34 37 -46.5 81.5t-12.5 124.5q0 79 13 124.5t46 81.5q65 69 173 69t173 -69q33 -36 46 -81.5t13 -124.5zM343 269q0 88 -24 112q-15 15 -44 15t-44 -15q-24 -24 -24 -112t24 -112q15 -15 44 -15
t44 15q24 24 24 112zM472 680q0 -33 -23.5 -56.5t-56.5 -23.5t-56.5 23.5t-23.5 56.5t23.5 56.5t56.5 23.5t56.5 -23.5t23.5 -56.5zM238 680q0 -33 -23.5 -56.5t-56.5 -23.5t-56.5 23.5t-23.5 56.5t23.5 56.5t56.5 23.5t56.5 -23.5t23.5 -56.5z" />
    <glyph glyph-name="divide.ss01" 
d="M513 218h-470v154h470v-154zM383 518q0 -44 -30.5 -74.5t-74.5 -30.5t-74.5 30.5t-30.5 74.5t30.5 74.5t74.5 30.5t74.5 -30.5t30.5 -74.5zM383 72q0 -44 -30.5 -74.5t-74.5 -30.5t-74.5 30.5t-30.5 74.5t30.5 74.5t74.5 30.5t74.5 -30.5t30.5 -74.5z" />
    <glyph glyph-name="udieresis.ss01" horiz-adv-x="579" 
d="M517 0h-160v44q-50 -50 -125 -50t-121 46q-54 54 -54 154v344h164v-322q0 -41 21 -57.5t45 -16.5t45 16.5t21 57.5v322h164v-538zM484 680q0 -33 -23.5 -56.5t-56.5 -23.5t-56.5 23.5t-23.5 56.5t23.5 56.5t56.5 23.5t56.5 -23.5t23.5 -56.5zM250 680q0 -33 -23.5 -56.5
t-56.5 -23.5t-56.5 23.5t-23.5 56.5t23.5 56.5t56.5 23.5t56.5 -23.5t23.5 -56.5z" />
    <glyph glyph-name="ydieresis.ss01" horiz-adv-x="514" 
d="M522 538l-223 -602q-16 -45 -42 -71q-42 -45 -121 -45h-62v148h35q23 0 35 8t20 32l15 45l-179 485h172l91 -279l87 279h172zM220 680q0 -33 -23.5 -56.5t-56.5 -23.5t-56.5 23.5t-23.5 56.5t23.5 56.5t56.5 23.5t56.5 -23.5t23.5 -56.5zM454 680q0 -33 -23.5 -56.5
t-56.5 -23.5t-56.5 23.5t-23.5 56.5t23.5 56.5t56.5 23.5t56.5 -23.5t23.5 -56.5z" />
    <glyph glyph-name="Aogonek.ss01" horiz-adv-x="653" 
d="M653 0h-183l-33 106h-219l-35 -106h-183l259 712h135zM391 252l-60 190l-64 -190h124zM639 -237q-53 0 -85 29.5t-32 74.5t32 74.5t85 29.5v-76q-14 0 -22.5 -8.5t-8.5 -19.5t8.5 -19.5t22.5 -8.5v-76z" />
    <glyph glyph-name="aogonek.ss01" horiz-adv-x="536" 
d="M483 0h-160v44q-26 -26 -52.5 -37.5t-67.5 -11.5q-81 0 -129 48q-47 47 -47 126q0 66 47 111t139 45h106v14q0 36 -19 51.5t-62 15.5q-47 0 -85 -38l-102 102q41 41 84 57.5t111 16.5q237 0 237 -195v-349zM319 202v14h-78q-57 0 -57 -44q0 -20 15 -32t44 -12q37 0 59 19
q17 16 17 55zM466 -237q-53 0 -85 29.5t-32 74.5t32 74.5t85 29.5v-76q-14 0 -22.5 -8.5t-8.5 -19.5t8.5 -19.5t22.5 -8.5v-76z" />
    <glyph glyph-name="Cacute.ss01" horiz-adv-x="547" 
d="M516 73q-79 -79 -197 -79q-119 0 -197 78q-26 26 -42 56t-22 71t-7.5 70t-1.5 87t1.5 87t7.5 70t22 71t42 56q78 78 197 78q118 0 197 -79l-116 -116q-14 14 -23 21t-24 12.5t-34 5.5q-45 0 -68 -30q-14 -18 -20.5 -52.5t-6.5 -123.5t6.5 -123.5t20.5 -52.5
q23 -30 68 -30q27 0 43.5 9t37.5 30zM435 962l-101 -180h-117l65 180h153z" />
    <glyph glyph-name="Ccircumflex.ss01" horiz-adv-x="547" 
d="M516 73q-79 -79 -197 -79q-119 0 -197 78q-26 26 -42 56t-22 71t-7.5 70t-1.5 87t1.5 87t7.5 70t22 71t42 56q78 78 197 78q118 0 197 -79l-116 -116q-14 14 -23 21t-24 12.5t-34 5.5q-45 0 -68 -30q-14 -18 -20.5 -52.5t-6.5 -123.5t6.5 -123.5t20.5 -52.5
q23 -30 68 -30q27 0 43.5 9t37.5 30zM520 782h-122l-79 83l-79 -83h-122l136 179h130z" />
    <glyph glyph-name="Cdotaccent.ss01" horiz-adv-x="547" 
d="M516 73q-79 -79 -197 -79q-119 0 -197 78q-26 26 -42 56t-22 71t-7.5 70t-1.5 87t1.5 87t7.5 70t22 71t42 56q78 78 197 78q118 0 197 -79l-116 -116q-14 14 -23 21t-24 12.5t-34 5.5q-45 0 -68 -30q-14 -18 -20.5 -52.5t-6.5 -123.5t6.5 -123.5t20.5 -52.5
q23 -30 68 -30q27 0 43.5 9t37.5 30zM399 854q0 -33 -23.5 -56.5t-56.5 -23.5t-56.5 23.5t-23.5 56.5t23.5 56.5t56.5 23.5t56.5 -23.5t23.5 -56.5z" />
    <glyph glyph-name="cdotaccent.ss01" horiz-adv-x="475" 
d="M457 63q-69 -69 -177 -69q-32 0 -61.5 5.5t-63.5 23.5t-59 47t-41.5 80.5t-16.5 118.5t16.5 118.5t41.5 80.5t59 47t63.5 23.5t61.5 5.5q108 0 177 -69l-111 -111q-32 32 -66 32q-30 0 -51 -21q-27 -28 -27 -106t27 -106q21 -21 51 -21q34 0 66 32zM360 682
q0 -33 -23.5 -56.5t-56.5 -23.5t-56.5 23.5t-23.5 56.5t23.5 56.5t56.5 23.5t56.5 -23.5t23.5 -56.5z" />
    <glyph glyph-name="Ccaron.ss01" horiz-adv-x="547" 
d="M516 73q-79 -79 -197 -79q-119 0 -197 78q-26 26 -42 56t-22 71t-7.5 70t-1.5 87t1.5 87t7.5 70t22 71t42 56q78 78 197 78q118 0 197 -79l-116 -116q-14 14 -23 21t-24 12.5t-34 5.5q-45 0 -68 -30q-14 -18 -20.5 -52.5t-6.5 -123.5t6.5 -123.5t20.5 -52.5
q23 -30 68 -30q27 0 43.5 9t37.5 30zM520 961l-136 -179h-130l-136 179h122l79 -83l79 83h122z" />
    <glyph glyph-name="dcaron.ss01" horiz-adv-x="569" 
d="M526 0h-159v44q-50 -50 -124 -50q-83 0 -130 49q-23 24 -35 63.5t-14 71.5t-2 91t2 91t14 71.5t35 63.5q47 49 129 49q75 0 120 -45v213h164v-712zM362 269q0 67 -13 97t-55 30t-55 -30t-13 -97t13 -97t55 -30t55 30t13 97zM731 648l-139 -101v215h139v-114z" />
    <glyph glyph-name="Edotaccent.ss01" horiz-adv-x="608" 
d="M556 0h-484v712h484v-156h-309v-119h264v-156h-264v-125h309v-156zM383 854q0 -33 -23.5 -56.5t-56.5 -23.5t-56.5 23.5t-23.5 56.5t23.5 56.5t56.5 23.5t56.5 -23.5t23.5 -56.5z" />
    <glyph glyph-name="edotaccent.ss01" horiz-adv-x="559" 
d="M521 216h-322q0 -35 25.5 -59.5t69.5 -24.5q40 0 63.5 10.5t47.5 34.5l98 -98q-44 -44 -91 -64.5t-118 -20.5q-256 0 -256 275q0 129 66.5 202t174.5 73q114 0 178 -72.5t64 -187.5v-68zM359 325q0 23 -9 42q-19 42 -71 42t-71 -42q-9 -19 -9 -42h160zM363 682
q0 -33 -23.5 -56.5t-56.5 -23.5t-56.5 23.5t-23.5 56.5t23.5 56.5t56.5 23.5t56.5 -23.5t23.5 -56.5z" />
    <glyph glyph-name="Eogonek.ss01" horiz-adv-x="608" 
d="M556 0h-484v712h484v-156h-309v-119h264v-156h-264v-125h309v-156zM531 -237q-53 0 -85 29.5t-32 74.5t32 74.5t85 29.5v-76q-14 0 -22.5 -8.5t-8.5 -19.5t8.5 -19.5t22.5 -8.5v-76z" />
    <glyph glyph-name="eogonek.ss01" horiz-adv-x="559" 
d="M521 216h-322q0 -35 25.5 -59.5t69.5 -24.5q40 0 63.5 10.5t47.5 34.5l98 -98q-44 -44 -91 -64.5t-118 -20.5q-256 0 -256 275q0 129 66.5 202t174.5 73q114 0 178 -72.5t64 -187.5v-68zM359 325q0 23 -9 42q-19 42 -71 42t-71 -42q-9 -19 -9 -42h160zM463 -237
q-53 0 -85 29.5t-32 74.5t32 74.5t85 29.5v-76q-14 0 -22.5 -8.5t-8.5 -19.5t8.5 -19.5t22.5 -8.5v-76z" />
    <glyph glyph-name="Gcircumflex.ss01" horiz-adv-x="633" 
d="M591 314q0 -89 -15.5 -143.5t-54.5 -94.5q-80 -82 -202 -82q-119 0 -197 78q-26 26 -42 56t-22 71t-7.5 70t-1.5 87t1.5 87t7.5 70t22 71t42 56q78 78 197 78q75 0 123 -19.5t97 -68.5l-119 -119q-28 28 -48.5 39.5t-52.5 11.5q-45 0 -69 -31q-14 -18 -20 -51.5
t-6 -123.5t6 -124t20 -52q23 -30 69 -30t72 28q26 26 26 78v8h-98v146h272v-96zM520 782h-122l-79 83l-79 -83h-122l136 179h130z" />
    <glyph glyph-name="Gbreve.ss01" horiz-adv-x="633" 
d="M591 314q0 -89 -15.5 -143.5t-54.5 -94.5q-80 -82 -202 -82q-119 0 -197 78q-26 26 -42 56t-22 71t-7.5 70t-1.5 87t1.5 87t7.5 70t22 71t42 56q78 78 197 78q75 0 123 -19.5t97 -68.5l-119 -119q-28 28 -48.5 39.5t-52.5 11.5q-45 0 -69 -31q-14 -18 -20 -51.5
t-6 -123.5t6 -124t20 -52q23 -30 69 -30t72 28q26 26 26 78v8h-98v146h272v-96zM483 931q-2 -82 -50 -119.5t-114 -37.5t-114 37.5t-50 119.5h106q4 -47 58 -47t58 47h106z" />
    <glyph glyph-name="Gdotaccent.ss01" horiz-adv-x="633" 
d="M591 314q0 -89 -15.5 -143.5t-54.5 -94.5q-80 -82 -202 -82q-119 0 -197 78q-26 26 -42 56t-22 71t-7.5 70t-1.5 87t1.5 87t7.5 70t22 71t42 56q78 78 197 78q75 0 123 -19.5t97 -68.5l-119 -119q-28 28 -48.5 39.5t-52.5 11.5q-45 0 -69 -31q-14 -18 -20 -51.5
t-6 -123.5t6 -124t20 -52q23 -30 69 -30t72 28q26 26 26 78v8h-98v146h272v-96zM399 854q0 -33 -23.5 -56.5t-56.5 -23.5t-56.5 23.5t-23.5 56.5t23.5 56.5t56.5 23.5t56.5 -23.5t23.5 -56.5z" />
    <glyph glyph-name="gdotaccent.ss01" horiz-adv-x="561" 
d="M499 39q0 -96 -67 -157.5t-176 -61.5q-67 0 -115 15.5t-87 54.5l102 102q34 -34 92 -34q47 0 67 25t20 57v39q-45 -45 -116 -45q-78 0 -126 48q-34 34 -42 77t-8 130t8 130t42 77q48 48 127 48q70 0 120 -50v44h159v-499zM335 289q0 25 -1.5 40.5t-7.5 32.5t-19.5 25.5
t-35.5 8.5t-35.5 -8.5t-19.5 -25.5t-7.5 -32.5t-1.5 -40.5t1.5 -40.5t7.5 -32.5t19.5 -25.5t35.5 -8.5t35.5 8.5t19.5 25.5t7.5 32.5t1.5 40.5zM351 682q0 -33 -23.5 -56.5t-56.5 -23.5t-56.5 23.5t-23.5 56.5t23.5 56.5t56.5 23.5t56.5 -23.5t23.5 -56.5z" />
    <glyph glyph-name="Gcommaaccent.ss01" horiz-adv-x="633" 
d="M591 314q0 -89 -15.5 -143.5t-54.5 -94.5q-80 -82 -202 -82q-119 0 -197 78q-26 26 -42 56t-22 71t-7.5 70t-1.5 87t1.5 87t7.5 70t22 71t42 56q78 78 197 78q75 0 123 -19.5t97 -68.5l-119 -119q-28 28 -48.5 39.5t-52.5 11.5q-45 0 -69 -31q-14 -18 -20 -51.5
t-6 -123.5t6 -124t20 -52q23 -30 69 -30t72 28q26 26 26 78v8h-98v146h272v-96zM367 -133q0 -45 -32 -74.5t-85 -29.5v76q14 0 22.5 8.5t8.5 19.5t-8.5 19.5t-22.5 8.5v76q53 0 85 -29.5t32 -74.5z" />
    <glyph glyph-name="gcommaaccent.ss01" horiz-adv-x="561" 
d="M499 39q0 -96 -67 -157.5t-176 -61.5q-67 0 -115 15.5t-87 54.5l102 102q34 -34 92 -34q47 0 67 25t20 57v39q-45 -45 -116 -45q-78 0 -126 48q-34 34 -42 77t-8 130t8 130t42 77q48 48 127 48q70 0 120 -50v44h159v-499zM335 289q0 25 -1.5 40.5t-7.5 32.5t-19.5 25.5
t-35.5 8.5t-35.5 -8.5t-19.5 -25.5t-7.5 -32.5t-1.5 -40.5t1.5 -40.5t7.5 -32.5t19.5 -25.5t35.5 -8.5t35.5 8.5t19.5 25.5t7.5 32.5t1.5 40.5zM341 593q-53 0 -85 29.5t-32 74.5t32 74.5t85 29.5v-76q-14 0 -22.5 -8.5t-8.5 -19.5t8.5 -19.5t22.5 -8.5v-76z" />
    <glyph glyph-name="Iogonek.ss01" horiz-adv-x="319" 
d="M247 0h-175v712h175v-712zM227 -237q-53 0 -85 29.5t-32 74.5t32 74.5t85 29.5v-76q-14 0 -22.5 -8.5t-8.5 -19.5t8.5 -19.5t22.5 -8.5v-76z" />
    <glyph glyph-name="iogonek.ss01" horiz-adv-x="288" 
d="M226 0h-164v517h164v-517zM244 662q0 -41 -29.5 -70.5t-70.5 -29.5t-70.5 29.5t-29.5 70.5t29.5 70.5t70.5 29.5t70.5 -29.5t29.5 -70.5zM206 -237q-53 0 -85 29.5t-32 74.5t32 74.5t85 29.5v-76q-14 0 -22.5 -8.5t-8.5 -19.5t8.5 -19.5t22.5 -8.5v-76z" />
    <glyph glyph-name="Idotaccent.ss01" horiz-adv-x="319" 
d="M247 0h-175v712h175v-712zM240 854q0 -33 -23.5 -56.5t-56.5 -23.5t-56.5 23.5t-23.5 56.5t23.5 56.5t56.5 23.5t56.5 -23.5t23.5 -56.5z" />
    <glyph glyph-name="ij.ss01" horiz-adv-x="576" 
d="M226 0h-164v517h164v-517zM244 662q0 -41 -29.5 -70.5t-70.5 -29.5t-70.5 29.5t-29.5 70.5t29.5 70.5t70.5 29.5t70.5 -29.5t29.5 -70.5zM514 -21q0 -63 -42 -111t-125 -48h-87v138h57q33 0 33 33v526h164v-538zM532 662q0 -41 -29.5 -70.5t-70.5 -29.5t-70.5 29.5
t-29.5 70.5t29.5 70.5t70.5 29.5t70.5 -29.5t29.5 -70.5z" />
    <glyph glyph-name="Kcommaaccent.ss01" horiz-adv-x="673" 
d="M673 0h-204l-164 292l-60 -69v-223h-173v712h173v-252l206 252h214l-243 -288zM400 -133q0 -45 -32 -74.5t-85 -29.5v76q14 0 22.5 8.5t8.5 19.5t-8.5 19.5t-22.5 8.5v76q53 0 85 -29.5t32 -74.5z" />
    <glyph glyph-name="kcommaaccent.ss01" horiz-adv-x="573" 
d="M573 0h-203l-112 197l-32 -35v-162h-164v712h164v-362l145 188h197l-198 -223zM353 -133q0 -45 -32 -74.5t-85 -29.5v76q14 0 22.5 8.5t8.5 19.5t-8.5 19.5t-22.5 8.5v76q53 0 85 -29.5t32 -74.5z" />
    <glyph glyph-name="Lcommaaccent.ss01" horiz-adv-x="576" 
d="M546 0h-474v712h175v-556h299v-156zM372 -133q0 -45 -32 -74.5t-85 -29.5v76q14 0 22.5 8.5t8.5 19.5t-8.5 19.5t-22.5 8.5v76q53 0 85 -29.5t32 -74.5z" />
    <glyph glyph-name="lcommaaccent.ss01" horiz-adv-x="341" 
d="M311 0h-87q-83 0 -125 48t-42 111v553h164v-541q0 -33 33 -33h57v-138zM244 -133q0 -45 -32 -74.5t-85 -29.5v76q14 0 22.5 8.5t8.5 19.5t-8.5 19.5t-22.5 8.5v76q53 0 85 -29.5t32 -74.5z" />
    <glyph glyph-name="Lcaron.ss01" horiz-adv-x="576" 
d="M546 0h-474v712h175v-556h299v-156zM496 598l-139 -101v215h139v-114z" />
    <glyph glyph-name="lcaron.ss01" horiz-adv-x="341" 
d="M311 0h-87q-83 0 -125 48t-42 111v553h164v-541q0 -33 33 -33h57v-138zM445 648l-139 -101v215h139v-114z" />
    <glyph glyph-name="Ldot.ss01" horiz-adv-x="576" 
d="M523 359q0 -33 -23.5 -56.5t-56.5 -23.5t-56.5 23.5t-23.5 56.5t23.5 56.5t56.5 23.5t56.5 -23.5t23.5 -56.5zM546 0h-474v712h175v-556h299v-156z" />
    <glyph glyph-name="ldot.ss01" horiz-adv-x="437" 
d="M451 295q0 -33 -23.5 -56.5t-56.5 -23.5t-56.5 23.5t-23.5 56.5t23.5 56.5t56.5 23.5t56.5 -23.5t23.5 -56.5zM311 0h-87q-83 0 -125 48t-42 111v553h164v-541q0 -33 33 -33h57v-138z" />
    <glyph glyph-name="Ncommaaccent.ss01" horiz-adv-x="700" 
d="M628 0h-153l-228 358v-358h-175v712h153l228 -358v358h175v-712zM401 -133q0 -45 -32 -74.5t-85 -29.5v76q14 0 22.5 8.5t8.5 19.5t-8.5 19.5t-22.5 8.5v76q53 0 85 -29.5t32 -74.5z" />
    <glyph glyph-name="ncommaaccent.ss01" horiz-adv-x="579" 
d="M522 0h-164v322q0 41 -21 57.5t-45 16.5t-45 -16.5t-21 -57.5v-322h-164v538h160v-44q50 50 125 50t121 -46q54 -54 54 -154v-344zM353 -133q0 -45 -32 -74.5t-85 -29.5v76q14 0 22.5 8.5t8.5 19.5t-8.5 19.5t-22.5 8.5v76q53 0 85 -29.5t32 -74.5z" />
    <glyph glyph-name="Rcommaaccent.ss01" horiz-adv-x="652" 
d="M635 0h-203l-126 265h-59v-265h-175v712h282q113 0 178 -67.5t65 -161.5q0 -67 -34 -114.5t-82 -71.5zM422 483q0 29 -21 50.5t-55 21.5h-99v-144h99q34 0 55 21.5t21 50.5zM387 -133q0 -45 -32 -74.5t-85 -29.5v76q14 0 22.5 8.5t8.5 19.5t-8.5 19.5t-22.5 8.5v76
q53 0 85 -29.5t32 -74.5z" />
    <glyph glyph-name="rcommaaccent.ss01" horiz-adv-x="475" 
d="M475 494l-124 -126q-28 28 -59 28q-23 0 -44.5 -17t-21.5 -57v-322h-164v538h160v-44q50 50 127 50q76 0 126 -50zM213 -133q0 -45 -32 -74.5t-85 -29.5v76q14 0 22.5 8.5t8.5 19.5t-8.5 19.5t-22.5 8.5v76q53 0 85 -29.5t32 -74.5z" />
    <glyph glyph-name="Scedilla.ss01" horiz-adv-x="593" 
d="M550 218q0 -105 -78.5 -164.5t-196.5 -59.5q-88 0 -153.5 20.5t-116.5 73.5l112 112q50 -50 159 -50q102 0 102 64q0 27 -14 42q-15 15 -47 19l-86 12q-95 14 -143 63q-49 50 -49 143q0 99 70.5 162t189.5 63q155 0 240 -85l-110 -110q-26 26 -56.5 34t-78.5 8
q-42 0 -64 -20t-22 -46q0 -19 14 -33q17 -17 49 -21l86 -12q94 -13 140 -59q53 -52 53 -156zM362 -133q0 -45 -32 -74.5t-85 -29.5v76q14 0 22.5 8.5t8.5 19.5t-8.5 19.5t-22.5 8.5v76q53 0 85 -29.5t32 -74.5z" />
    <glyph glyph-name="scedilla.ss01" horiz-adv-x="504" 
d="M477 176q0 -90 -66 -136t-167 -46q-50 0 -82 3.5t-74.5 21.5t-77.5 53l106 106q45 -45 131 -45q25 0 47.5 8t22.5 27q0 30 -39 34l-83 8q-156 15 -156 156q0 84 63.5 131t150.5 47q146 0 212 -66l-101 -101q-32 32 -114 32q-27 0 -40 -10t-13 -21q0 -26 35 -30l83 -8
q81 -8 121.5 -52t40.5 -112zM327 -133q0 -45 -32 -74.5t-85 -29.5v76q14 0 22.5 8.5t8.5 19.5t-8.5 19.5t-22.5 8.5v76q53 0 85 -29.5t32 -74.5z" />
    <glyph glyph-name="Tcommaaccent.ss01" horiz-adv-x="585" 
d="M555 556h-175v-556h-175v556h-175v156h525v-156zM342 -133q0 -45 -32 -74.5t-85 -29.5v76q14 0 22.5 8.5t8.5 19.5t-8.5 19.5t-22.5 8.5v76q53 0 85 -29.5t32 -74.5z" />
    <glyph glyph-name="tcommaaccent.ss01" horiz-adv-x="363" 
d="M323 0h-82q-83 0 -125 48t-42 111v232h-49v126h49v154h164v-154h85v-126h-85v-220q0 -33 33 -33h52v-138zM252 -133q0 -45 -32 -74.5t-85 -29.5v76q14 0 22.5 8.5t8.5 19.5t-8.5 19.5t-22.5 8.5v76q53 0 85 -29.5t32 -74.5z" />
    </font>
</defs>
</svg>
